#TITLE:B4U(B4 ZA BEAT MIX);
#SUBTITLE:;
#ARTIST:NAOKI;
#TITLETRANSLIT:;
#SUBTITLETRANSLIT:;
#ARTISTTRANSLIT:;
#GENRE:;
#CREDIT:;
#BANNER:B4U(B4 ZA BEAT MIX).png;
#BACKGROUND:B4U(B4 ZA BEAT MIX)-bg.png;
#LYRICSPATH:;
#CDTITLE:;
#MUSIC:B4U(B4 ZA BEAT MIX).ogg;
#OFFSET:0.000000;
#SAMPLESTART:26.823999;
#SAMPLELENGTH:15.000000;
#SELECTABLE:YES;
#DISPLAYBPM:170.000000;
#BPMS:0.000000=170.615997
,4.000000=169.998993
;
#STOPS:
;
#BGCHANGES:;
#KEYSOUNDS:;
#ATTACKS:;

//---------------dance-single - ----------------
#NOTES:
     dance-single:
     :
     Challenge:
     10:
     0.444864,0.581289,0.146543,0.097696,0.018318,255.000000,243.000000,12.000000,8.000000,0.000000,0.000000,0.444864,0.581289,0.146543,0.097696,0.018318,255.000000,243.000000,12.000000,8.000000,0.000000,0.000000:
// measure 0
0000
0000
0000
0000
,  // measure 1
0000
0000
0000
0000
,  // measure 2
0000
0000
0000
0000
,  // measure 3
0000
0000
0000
0000
,  // measure 4
0000
0000
0000
0000
,  // measure 5
0010
0000
0000
0000
0000
0000
0000
0100
,  // measure 6
0010
0000
0000
0000
0000
0000
0000
0100
,  // measure 7
0010
0000
0010
0000
,  // measure 8
0010
0000
0000
0000
0100
0000
0000
0000
0001
0000
0000
1000
0001
0000
0100
0000
,  // measure 9
0020
0000
0000
0000
,  // measure 10
2000
0000
0000
0030
,  // measure 11
0002
0000
0000
3000
,  // measure 12
0200
0000
0000
0303
,  // measure 13
0010
0100
0001
1000
,  // measure 14
0001
0100
0010
1000
,  // measure 15
0010
1000
0001
0100
,  // measure 16
0001
0010
0100
1000
,  // measure 17
0010
0000
0010
0000
0010
0000
0010
0100
,  // measure 18
0010
1000
0100
0010
0001
0010
0100
1000
,  // measure 19
0000
0001
0000
1000
0000
0010
0000
0100
,  // measure 20
0000
0001
0000
0010
0000
0100
0000
0010
,  // measure 21
0000
0001
0000
1000
0000
0100
0000
0010
,  // measure 22
0000
0100
0000
1000
0000
0001
0000
0100
,  // measure 23
0000
1010
0000
0100
0000
1000
0000
0010
,  // measure 24
0000
0101
0000
1000
0000
0001
0000
0010
,  // measure 25
0000
1100
0000
0001
0000
1000
0000
0100
,  // measure 26
0000
0011
0000
0100
0000
1000
0000
0010
,  // measure 27
1000
0001
0100
0001
1000
0001
0010
0000
,  // measure 28
0100
1000
0001
1000
0010
1000
0001
0000
,  // measure 29
0010
1000
1000
0100
0010
1000
0001
0000
,  // measure 30
0010
0001
0001
0100
0010
0001
1000
0000
,  // measure 31
0010
0100
1000
0010
1000
0001
0100
0000
,  // measure 32
0010
0100
0001
0010
0001
1000
0100
0000
,  // measure 33
0001
0100
0010
1000
1000
0100
0010
0001
,  // measure 34
0010
0000
0100
0000
0001
1000
0010
0100
,  // measure 35
0002
0000
0010
0100
,  // measure 36
1000
0000
1000
0000
1003
0000
1000
0100
,  // measure 37
2000
0000
0001
3001
,  // measure 38
0010
1000
0001
0100
0001
1000
0010
0100
,  // measure 39
0002
0000
0010
0100
,  // measure 40
1000
0000
1000
0000
1003
0000
1000
0010
,  // measure 41
2000
0000
0010
3100
,  // measure 42
0010
1000
0100
0010
0001
0100
0010
0100
,  // measure 43
0010
1000
0011
0100
,  // measure 44
1010
0001
0110
1000
,  // measure 45
0110
1001
0110
1001
,  // measure 46
0010
0000
1000
0000
0100
0000
1000
0000
0001
0100
1000
0100
0000
0000
0000
0000
,  // measure 47
0010
0000
1000
0000
0001
0100
0010
0100
,  // measure 48
1000
0000
1000
0000
1000
0000
1000
0001
,  // measure 49
0100
0000
0010
0000
0001
0001
1000
0001
,  // measure 50
0100
0010
0001
0100
,  // measure 51
0010
0000
0100
0000
0001
0010
1000
0010
,  // measure 52
0100
0000
0100
0000
0100
0000
0100
0001
,  // measure 53
1000
0000
0010
0000
1000
0000
0100
0010
,  // measure 54
0001
0100
0001
1000
0100
0010
0100
1000
,  // measure 55
0001
1000
0000
0010
0100
0010
0100
0000
,  // measure 56
1001
0000
0000
0000
;

//---------------dance-double - ----------------
#NOTES:
     dance-double:
     :
     Challenge:
     10:
     0.409973,0.581289,0.109908,0.097696,0.018318,235.000000,226.000000,9.000000,8.000000,0.000000,0.000000,0.409973,0.581289,0.109908,0.097696,0.018318,235.000000,226.000000,9.000000,8.000000,0.000000,0.000000:
00000000
00000000
00000000
00000000
,
00000000
00000000
00000000
00000000
,
00000000
00000000
00000000
00000000
,
00000000
00000000
00000000
00000000
,
00000000
00000000
00000000
00000000
,
00010000
00000000
00000000
00000000
00000000
00000000
00000000
00000010
,
00000100
00000000
00000000
00000000
00000000
00000000
00000000
00010000
,
00100000
00000000
01000000
00000000
,
00100000
00000000
00000000
00000000
01000000
00000000
00000000
00000000
00010000
00000000
00000000
00001000
00010000
00000000
00001000
00000000
,
00200000
00000000
00000000
00000000
,
00302000
00000000
00000000
00000000
,
00003200
00000000
00000000
00000000
,
00000302
00000000
00000000
00000003
,
00001000
00000001
00000010
00000100
,
00001000
00000001
00000100
00001000
,
00010000
01000000
10000000
00010000
,
00100000
01000000
10000000
00100000
,
00010000
00000000
00010000
00000000
00010000
00000000
00010000
00001000
,
00010000
00001000
00010000
00001000
00010000
00001000
00010000
00000100
,
00000000
00001000
00000000
00000001
00000000
00000010
00000000
00000100
,
00000000
00000010
00000000
00001000
00000000
00010000
00000000
00100000
,
00000000
10000000
00000000
00010000
00000000
01000000
00000000
00100000
,
00000000
10000000
00000000
01000000
00000000
00010000
00000000
00001000
,
00000000
00010000
00000000
00000010
00000000
00001000
00000000
00000100
,
00000000
00000010
00000000
00000001
00000000
00000100
00000000
00001000
,
00000000
00010000
00000000
00001000
00000000
00100000
00000000
00010000
,
00000000
01000000
00000000
00100000
00000000
01000000
00000000
00100000
,
10000000
01000000
00010000
01000000
00010000
00001000
00000100
00000000
,
00000001
00000100
00001000
00000100
00001000
00010000
01000000
00000000
,
00100000
00010000
01000000
00100000
10000000
01000000
00010000
00000000
,
00001000
00000100
00000001
00000010
00000001
00001000
00000100
00000000
,
00000010
00001000
00010000
00100000
00010000
00001000
00000100
00000000
,
00001000
00010000
01000000
00010000
00001000
00000100
00000001
00000000
,
00001000
00000001
00001000
00000001
00000100
00001000
00010000
00100000
,
01000000
00000000
00100000
00000000
00010000
00001000
00000010
00000001
,
00000200
00000000
00000000
00000000
,
00000001
00000000
00000001
00000000
00000301
00000000
00000001
00000100
,
00002000
00000000
00000000
00003000
,
00010000
00100000
10000000
01000000
,
02000000
00000000
00000000
00000000
,
10000000
00000000
10000000
00000000
13000000
00000000
10000000
01000000
,
00020000
00000000
00000000
00030000
,
00001000
00000010
00000001
00000100
,
00001001
00000100
00011000
00010000
,
00101000
01000000
01100000
00010000
,
01001000
00011000
00010100
00011000
,
00100000
00000000
00010000
00000000
00001000
00000000
00000100
00000000
00000001
00000100
00000001
00000100
00000000
00000000
00000000
00000000
,
00000010
00000000
00001000
00000000
00000001
00000000
00000100
00001000
,
00010000
00000000
01000000
00000000
10000000
00000000
00010000
00100000
,
00010000
00000000
10000000
00000000
01000000
00000000
00010000
00001000
,
00000010
00000000
00000001
00000000
00001000
00000001
00000100
00001000
,
00010000
00000000
01000000
00000000
10000000
00000000
00010000
00100000
,
01000000
00000000
10000000
00000000
00010000
00000000
10000000
01000000
,
00010000
00000000
00001000
00000000
00010000
00000000
00100000
00010000
,
00001000
00000100
00000001
00000010
00000001
00000100
00001000
00010000
,
00001000
00000100
00000000
00000001
00001000
00000100
00010000
00000000
,
00011000
00000000
00000000
00000000
,
00000000
00000000
00000000
00000000
;

//---------------dance-single - Extreme----------------
#NOTES:
     dance-single:
     :
     Edit:
     14:
     0.565239,0.698676,0.427418,0.000000,0.488478,324.000000,289.000000,35.000000,0.000000,0.000000,0.000000,0.565239,0.698676,0.427418,0.000000,0.488478,324.000000,289.000000,35.000000,0.000000,0.000000,0.000000:
// measure 0
0000
0000
0000
0000
,  // measure 1
0000
0000
0000
0000
,  // measure 2
0000
0000
0000
0000
,  // measure 3
0000
0000
0000
0000
,  // measure 4
0000
0000
0000
0000
,  // measure 5
1000
0000
0010
0000
0000
0100
0000
0000
0001
0000
0000
0010
0000
0000
0001
0000
,  // measure 6
0100
0000
0010
0000
0000
1000
0000
0000
0010
0000
0000
0100
0000
0000
0001
0000
,  // measure 7
0010
0000
0100
0000
0000
1000
0000
0000
0010
0000
0000
0100
0000
0000
0001
0000
,  // measure 8
0010
0000
1000
0000
0010
0000
0000
0000
0001
0000
0000
0100
0001
0000
1000
0000
,  // measure 9
0010
0000
0000
0110
0000
0000
0101
0000
0000
0011
0000
0000
0010
0000
0100
0000
,  // measure 10
1100
0000
0000
1001
0000
0000
0011
0000
0000
1010
0000
0000
0010
0000
0001
0000
,  // measure 11
0101
0000
0000
0110
0000
0000
1010
0000
0000
1100
0000
0000
0100
0000
0010
0000
,  // measure 12
0011
0000
0000
0101
0000
0000
1100
0000
0000
0101
0000
0000
0001
0000
1000
0000
,  // measure 13
1010
0000
0000
0110
0000
0000
0101
0000
0000
0011
0000
0000
0010
0000
1000
0000
,  // measure 14
0010
0000
0000
0001
0000
0000
0100
0000
0000
1000
0000
0000
0100
0000
0001
0000
,  // measure 15
0010
0000
0000
0110
0000
0000
1100
0000
0000
1001
0000
0000
0001
0000
0010
0000
,  // measure 16
0110
0000
0000
0100
0000
0000
1000
0000
0000
0001
0000
0000
0010
0000
0001
0000
,  // measure 17
0101
0000
1010
0000
1001
0000
0001
0100
,  // measure 18
0010
0010
0010
0010
0010
0010
0010
0010
,  // measure 19
1000
0100
1000
0100
0000
0000
0010
0001
0010
0001
0000
0000
0100
0010
0100
0010
,  // measure 20
1000
0000
0100
0000
0010
0000
0001
0000
0100
0001
0100
0000
0010
0000
1000
0000
,  // measure 21
0100
0010
0100
0010
0000
0000
0001
1000
0001
1000
0000
0000
0010
0000
0100
0001
,  // measure 22
0100
0001
1000
0000
0000
0000
0010
0000
1000
0000
0100
0000
0010
0000
0001
0000
,  // measure 23
0100
0010
0100
0010
0000
0000
1000
0010
1000
0010
0000
0000
0001
0010
0001
0000
,  // measure 24
0010
0000
1000
0000
0100
0000
0010
0000
0001
0010
0001
0010
0100
0000
1000
0000
,  // measure 25
0001
0100
0001
0100
0000
0000
1000
0100
1000
0100
0000
0000
0001
0100
0001
0000
,  // measure 26
1000
0010
1000
0000
0010
0000
1000
0000
0100
0000
0010
0000
0001
0010
0001
0000
,  // measure 27
0010
0000
1000
0010
1000
0000
0010
0000
0001
0000
0100
0000
0010
0000
0000
0000
,  // measure 28
1000
0100
0000
0100
0010
0000
0001
0100
0000
0100
0010
0000
1000
0000
0001
0000
,  // measure 29
0010
0000
0100
0010
0100
0000
1000
0001
1000
0000
0001
0000
0010
0000
0100
0000
,  // measure 30
0010
0001
0000
1000
0001
0000
0100
0010
0000
1000
0010
0000
0100
0000
0001
0000
,  // measure 31
0010
0001
1000
0100
0010
0100
1000
0001
,  // measure 32
0010
0001
0010
0000
0100
0000
0010
0000
1000
0000
0000
0000
1010
0000
0000
0000
,  // measure 33
0010
0001
0100
0010
0100
0001
0010
0100
,  // measure 34
1100
0000
1010
0000
0001
0001
0001
0001
,  // measure 35
0001
0010
0000
1000
0000
0010
0000
0001
0000
0100
0000
1000
0100
0000
0001
0000
,  // measure 36
0010
0100
0010
0100
0000
1000
0001
0000
0010
0000
0001
0000
0100
0000
0010
0000
,  // measure 37
0100
0001
0000
1000
0000
0001
0000
1000
0000
0010
0000
1000
0010
0000
0100
0000
,  // measure 38
0001
0010
0001
0010
0000
0100
1000
0000
0001
0000
0010
0000
1000
0000
0010
0000
,  // measure 39
0001
0100
0000
0010
0000
0100
0000
0010
0000
0100
0000
0010
1000
0000
0100
0000
,  // measure 40
0010
0001
0010
0001
0000
0010
0100
0000
0010
0000
0100
0000
1000
0000
0001
0000
,  // measure 41
1000
0010
0000
0001
0000
0010
0000
1000
0000
0010
0000
0001
0010
0000
1000
0000
,  // measure 42
0001
0100
0001
0100
0001
0000
1000
0010
1000
0010
1000
0000
0010
0100
0010
0100
,  // measure 43
1000
0000
0011
0000
0100
0010
1000
0010
,  // measure 44
0100
0000
0011
0000
1000
0100
0001
0100
,  // measure 45
1000
1001
0011
1100
,  // measure 46
0001
0000
0001
0000
0001
0000
0001
0000
0001
0100
0001
0100
0001
0000
0000
0000
,  // measure 47
0010
0100
0000
1000
0000
0100
0000
0010
0000
0001
0000
0100
0001
0000
1000
0000
,  // measure 48
0010
0100
0010
0100
0000
0001
0010
0000
0001
0000
0100
0000
1000
0000
0100
0000
,  // measure 49
0001
0010
0000
1000
0000
0010
0000
0001
0000
0100
0000
1000
0100
0000
0000
0000
,  // measure 50
0001
1000
0010
1000
0010
0000
0100
0001
0000
1000
0001
0000
1000
0000
0010
0000
,  // measure 51
0100
0010
0000
1000
0000
0100
0000
1000
0000
0001
0000
0010
0001
0000
0100
0000
,  // measure 52
0010
1000
0010
1000
0000
0100
0010
0000
0001
0000
0100
0000
0001
0000
1000
0000
,  // measure 53
0010
0100
0000
0001
0000
0100
0000
0001
0000
0100
0000
0001
0010
0000
0000
0000
,  // measure 54
0001
0010
0001
0010
0100
0000
1000
0100
1000
0100
0010
0000
0001
0000
0100
0000
,  // measure 55
0001
0011
0000
1000
1000
1000
1010
0000
,  // measure 56
0220
0000
0330
0000
;
