#TITLE:天ノ弱;
#SUBTITLE:;
#ARTIST:164;
#TITLETRANSLIT:Ama no jyaku;
#SUBTITLETRANSLIT:;
#ARTISTTRANSLIT:;
#GENRE:;
#CREDIT:;
#BANNER:Ama no jyaku.png;
#BACKGROUND:Ama no jyaku-bg.png;
#LYRICSPATH:;
#CDTITLE:;
#MUSIC:Ama no jyaku.ogg;
#OFFSET:0.000000;
#SAMPLESTART:57.590000;
#SAMPLELENGTH:15.000000;
#SELECTABLE:YES;
#DISPLAYBPM:200.000000:205.000000;
#BPMS:0.000000=200.000000
,184.000000=205.000000
,242.000000=200.000000
,254.000000=205.000000
,306.000000=200.000000
,314.000000=205.000000
,320.000000=200.000000
,332.000000=205.000000
,338.000000=200.000000
;
#STOPS:
;
#BGCHANGES:;
#KEYSOUNDS:;
#ATTACKS:;

//---------------dance-single - ----------------
#NOTES:
     dance-single:
     :
     Hard:
     13:
     0.610942,0.647442,0.375461,0.045788,0.032052,467.000000,426.000000,41.000000,5.000000,0.000000,0.000000,0.610942,0.647442,0.375461,0.045788,0.032052,467.000000,426.000000,41.000000,5.000000,0.000000,0.000000:
// measure 0
0000
0000
0000
0000
,  // measure 1
0000
0000
0000
0000
,  // measure 2
0000
0000
0000
0000
,  // measure 3
0000
0000
0000
0000
,  // measure 4
0000
0000
0000
0000
,  // measure 5
0001
0010
0100
0000
0001
0000
0100
1000
,  // measure 6
0100
1000
0001
0010
,  // measure 7
1000
0000
0010
0000
0100
0000
1000
0100
,  // measure 8
1000
0100
0010
0001
,  // measure 9
1000
0001
1000
0000
,  // measure 10
1000
0100
1000
0000
0001
0000
0100
0010
,  // measure 11
0100
0001
1000
0100
1000
0000
0100
0000
,  // measure 12
0001
0100
0010
0000
0010
0000
0001
0000
,  // measure 13
1001
0001
0110
0010
,  // measure 14
0001
0100
0001
0000
1000
0000
0100
0010
,  // measure 15
0100
1000
0001
0100
0001
0000
0100
0000
,  // measure 16
1000
0100
0010
0000
0010
0000
1000
0000
,  // measure 17
1001
1100
0110
0011
,  // measure 18
1000
0100
1000
0100
0000
0000
1000
0000
,  // measure 19
0001
0000
1000
0100
1000
0100
1000
0010
,  // measure 20
0001
0010
0001
0010
1000
0000
0100
0000
,  // measure 21
0002
0103
0200
1300
,  // measure 22
0001
0100
0001
0100
0000
0000
0001
0000
,  // measure 23
1000
0000
0001
0100
0001
0100
0001
0000
,  // measure 24
1001
0000
1000
0010
0001
0000
0010
1000
,  // measure 25
0002
0103
0200
1300
,  // measure 26
1000
0000
0100
0010
0001
0000
0010
1000
,  // measure 27
0100
1000
0010
0000
0001
0010
1000
0000
,  // measure 28
0010
0000
0100
0010
0100
0000
1000
0000
,  // measure 29
0001
1000
0001
0000
0100
0000
0010
0100
,  // measure 30
0001
0000
0100
0010
1000
0000
0010
0001
,  // measure 31
0010
1000
0010
0000
1000
0010
0001
0000
,  // measure 32
0010
0000
0100
0010
0100
0000
0001
0000
,  // measure 33
1000
0001
1000
0000
0100
0000
0010
0100
,  // measure 34
0001
0000
0100
0010
1000
0000
0010
0001
,  // measure 35
0100
0001
0010
0000
1000
0010
0001
0000
,  // measure 36
0010
0000
0100
0010
0100
0000
0001
0000
,  // measure 37
1000
0001
1000
0000
0100
0000
0010
0100
,  // measure 38
1000
0000
0100
0010
0001
0000
0010
1000
,  // measure 39
0010
0001
0010
0000
0001
0010
1000
0000
,  // measure 40
0010
0000
0100
0010
0100
0000
1000
0000
,  // measure 41
0010
0000
1000
0000
0100
0000
1100
0000
1001
0000
0011
0000
,  // measure 42
0001
0010
0100
1000
,  // measure 43
0010
0000
1000
0100
0000
0000
0001
0000
0000
0100
0000
0000
,  // measure 44
0010
1001
0200
0310
,  // measure 45
0001
0000
0000
1100
0000
0000
0110
0000
,  // measure 46
0000
0011
0000
0000
0011
0000
0101
0000
,  // measure 47
1100
1010
0010
0000
,  // measure 48
1001
0000
0110
0000
1000
0001
0010
0001
,  // measure 49
1000
0001
0010
0100
,  // measure 50
1000
0000
0001
0000
0010
0100
0010
0001
,  // measure 51
1000
0001
0100
0000
,  // measure 52
1000
0100
1000
0100
0010
0000
0010
0100
,  // measure 53
0010
0000
0001
0000
1000
0001
0100
0000
,  // measure 54
0001
0001
0010
0001
,  // measure 55
1000
0100
1100
0000
,  // measure 56
1001
0000
0110
0000
0001
1000
0010
1000
,  // measure 57
0100
0000
1000
0000
0101
0000
0100
0010
,  // measure 58
0100
0001
0010
0000
0010
0001
0010
1000
,  // measure 59
0010
0001
0110
0000
,  // measure 60
0011
0000
0000
0000
1000
0100
0000
0100
,  // measure 61
0010
0000
0010
0001
0000
0010
0001
0000
,  // measure 62
1000
0100
0000
1000
0010
1000
0000
0100
,  // measure 63
0010
0110
1001
0000
,  // measure 64
1001
0000
0110
0000
0001
1000
0010
1000
,  // measure 65
0001
1000
0010
0100
,  // measure 66
0001
0000
1000
0000
0010
0100
0010
1000
,  // measure 67
0001
1000
0100
0000
,  // measure 68
0001
0100
0001
0100
0010
0000
0010
0100
,  // measure 69
0010
0000
1000
0000
0001
1000
0100
0000
,  // measure 70
1000
1000
0010
1000
,  // measure 71
0001
0100
0101
0000
,  // measure 72
1001
0000
0110
0000
0001
1000
0100
1000
,  // measure 73
0010
0000
1000
0000
0011
0000
0010
0100
,  // measure 74
0010
0001
0100
0000
0100
0001
0100
1000
,  // measure 75
0100
0010
0001
0000
0011
0000
1010
0000
,  // measure 76
0110
0000
0000
0000
1000
0010
0000
0010
,  // measure 77
0100
0000
0100
0001
0000
0100
0001
0000
,  // measure 78
1000
0010
0000
1000
0100
1000
0000
0010
,  // measure 79
0100
0110
1001
0000
,  // measure 80
0110
0000
0000
0000
1000
0100
1000
0000
,  // measure 81
0001
0010
0001
0100
0010
0100
0001
0000
,  // measure 82
0100
0010
0100
0001
1000
0001
1000
0000
,  // measure 83
0100
0000
1100
0000
,  // measure 84
0100
0000
0000
0000
0010
0000
0000
0000
0100
0000
0000
0000
0001
0000
0000
0100
0000
0000
1000
0000
0000
0000
0000
0000
,  // measure 85
0001
0000
1000
0100
0010
0100
1000
0001
,  // measure 86
0100
0010
0100
0000
0100
1000
0000
1000
,  // measure 87
0100
0000
0100
0001
0000
0001
0010
0100
,  // measure 88
1000
0010
0100
0001
0000
0000
0000
0000
;

//---------------dance-double - ----------------
#NOTES:
     dance-double:
     :
     Hard:
     13:
     0.587394,0.606977,0.247255,0.045788,0.032052,449.000000,422.000000,27.000000,5.000000,0.000000,0.000000,0.587394,0.606977,0.247255,0.045788,0.032052,449.000000,422.000000,27.000000,5.000000,0.000000,0.000000:
00000000
00000000
00000000
00000000
,
00000000
00000000
00000000
00000000
,
00000000
00000000
00000000
00000000
,
00000000
00000000
00000000
00000000
,
00000000
00000000
00000000
00000000
,
00010000
00100000
01000000
00000000
10000000
00000000
01000000
00010000
,
00001000
00000100
00000001
00000010
,
00001000
00000000
00000010
00000000
00000100
00000000
00001000
00000100
,
00010000
01000000
00100000
00010000
,
10000000
00010000
00100000
00000000
,
00001000
00010000
00001000
00000000
00000100
00000000
00000001
00000010
,
00000100
00001000
00000001
00000100
00000001
00000000
00000100
00000000
,
00001000
00010000
00100000
00000000
00100000
00000000
01000000
00000000
,
10010000
00010000
01100000
00010000
,
00001000
00000100
00000001
00000000
00001000
00000000
00000100
00000010
,
00000100
00001000
00000001
00000100
00000001
00000000
00000100
00000000
,
00001000
00010000
00100000
00000000
00100000
00000000
10000000
00000000
,
10010000
11000000
01100000
00110000
,
00001000
00010000
00001000
00000100
00000000
00000000
00000001
00000000
,
00000100
00000000
00001000
00000100
00000010
00000100
00001000
00010000
,
01000000
00100000
00010000
00100000
10000000
00000000
00100000
00000000
,
00020000
01030000
02000000
13000000
,
01000000
00100000
00010000
00001000
00000000
00000000
00000100
00000000
,
00000010
00000000
00000001
00000010
00001000
00000100
00001000
00000000
,
00001001
00000000
00000001
00000010
00001000
00000000
00000010
00000001
,
00002000
00003100
00000200
00000301
,
00000001
00000000
00000100
00000010
00001000
00000000
00010000
00100000
,
01000000
10000000
01000000
00000000
00010000
00100000
10000000
00000000
,
00100000
00000000
01000000
00100000
01000000
00000000
10000000
00000000
,
00010000
10000000
01000000
00000000
00010000
00000000
00001000
00000100
,
00000001
00000000
00000100
00000010
00001000
00000000
00000010
00000001
,
00000010
00001000
00000010
00000000
00001000
00000010
00000001
00000000
,
00000010
00000000
00000100
00001000
00010000
00000000
01000000
00000000
,
10000000
00010000
01000000
00000000
10000000
00000000
01000000
00000000
,
10000000
00000000
01000000
00100000
00010000
00000000
00001000
00000010
,
00000100
00000001
00000100
00000000
00001000
00000010
00000001
00000000
,
00000010
00000000
00000100
00000010
00000100
00000000
00000001
00000000
,
00001000
00000001
00000100
00000000
00001000
00000000
00010000
01000000
,
10000000
00000000
01000000
00100000
00010000
00000000
00100000
10000000
,
00100000
00010000
00100000
00000000
00001000
00100000
00010000
00000000
,
00100000
00000000
01000000
00010000
00001000
00000000
00000100
00000000
,
00000010
00000000
00000001
00000000
00000010
00000000
00001000
00000000
00000010
00000000
00000100
00000000
,
00001000
00010000
00100000
10000000
,
00100000
00000000
10000000
01000000
00000000
00000000
00010000
00000000
00000000
01000000
00000000
00000000
,
00010000
00001000
00000200
00000310
,
00000101
00000000
00000000
00001100
00000000
00000000
00000110
00000000
,
00000000
00000100
00000000
00000000
00001000
00000000
00010000
00000000
,
00100000
10000000
01000000
00010000
,
00001000
00000000
00000000
00000000
00010000
00001000
00000010
00000001
,
00000010
00000001
00000010
00000100
,
00001000
00000000
00000001
00000000
00000010
00000100
00000010
00001000
,
00010000
00001000
01000000
00000000
,
10000000
01000000
10000000
01000000
00100000
00000000
00010000
00001000
,
00010000
00000000
00001000
00000000
00000100
00000010
00000100
00000000
,
00001000
00010000
00100000
00010000
,
00100000
10000000
11000000
00000000
,
10010000
00000000
01100000
00000000
00010000
10000000
00100000
10000000
,
01000000
00000000
00010000
00000000
00001000
00000000
00010000
00000010
,
00000100
00000001
00000010
00000000
00000010
00000001
00000010
00001000
,
00000010
00000001
00000110
00000000
,
00011000
00000000
00000000
00000000
01100000
01000000
00000000
01000000
,
00100000
00000000
00100000
00010000
00000000
00010000
00001000
00000000
,
00001000
00000010
00000000
00000001
00000010
00000001
00000000
00000100
,
00000010
00000110
00001100
00000000
,
00010000
00000000
00000000
00000000
00001000
00010000
00100000
10000000
,
00100000
10000000
00100000
01000000
,
00010000
00000000
10000000
00000000
00100000
01000000
00100000
00010000
,
00001000
00010000
00000100
00000000
,
00000001
00000100
00000001
00000100
00000010
00000000
00001000
00010000
,
00001000
00000000
00010000
00000000
01000000
00100000
01000000
00000000
,
00010000
00001000
00000010
00000001
,
00000001
00000100
00000101
00000000
,
00001001
00000000
00000110
00000000
00001000
00000001
00000010
00000001
,
00000100
00000000
00001000
00000000
00010000
00000000
00001000
00100000
,
01000000
10000000
00100000
00000000
00100000
10000000
00100000
00010000
,
00100000
10000000
01100000
00000000
,
00011000
00000000
00000000
00000000
00000110
00000100
00000000
00000100
,
00000010
00000000
00000010
00001000
00000000
00001000
00010000
00000000
,
00010000
00100000
00000000
10000000
00100000
10000000
00000000
01000000
,
00100000
00001000
00011000
00000000
,
00001010
00000000
00000000
00000000
00001000
00000100
00001000
00000000
,
00000001
00000010
00000001
00000100
00000010
00000100
00000001
00000000
,
00000100
00001000
00010000
00100000
01000000
00100000
01000000
00000000
,
10000000
00000000
11000000
00000000
,
01000000
00000000
00000000
00000000
00100000
00000000
00000000
00000000
00010000
00000000
00000000
00000000
00001000
00000000
00000000
00000100
00000000
00000000
00000001
00000000
00000000
00000000
00000000
00000000
,
00000001
00000000
00001000
00000100
00000010
00000100
00001000
00000001
,
00000100
00000010
00000100
00000000
00000100
00001000
00000000
00010000
,
01000000
00000000
01000000
10000000
00000000
00010000
00100000
01000000
,
10000000
00100000
01000000
00001000
00000000
00000000
00000000
00000000
;

//---------------dance-double - ----------------
#NOTES:
     dance-double:
     :
     Medium:
     10:
     0.427790,0.526047,0.320516,0.054946,0.018315,327.000000,292.000000,35.000000,6.000000,0.000000,0.000000,0.427790,0.526047,0.320516,0.054946,0.018315,327.000000,292.000000,35.000000,6.000000,0.000000,0.000000:
00000000
00000000
00000000
00000000
,
00000000
00000000
00000000
00000000
,
00000000
00000000
00000000
00000000
,
00000000
00000000
00000000
00000000
,
00000000
00000000
00000000
00000000
,
00001000
00001000
00000001
00000000
,
00000001
00000000
00000100
00000000
,
00001000
00010000
00100000
00000000
,
00100000
00000000
10000000
00000000
,
01000000
00100000
01000000
00010000
,
00001000
00000100
00000010
00001000
,
00000100
00000001
00000100
00000010
,
00001000
00010000
00100000
00010000
,
00100000
01000000
10000000
00000000
,
01000000
00100000
00010000
00001000
,
00000100
00000010
00000100
00000000
,
00000001
00000100
00001000
00010000
,
00001000
00100000
01000000
10000000
,
10000000
01000000
10000000
00000000
01000000
00000000
00010000
00000000
,
00001000
00010000
00000100
00001000
,
00000001
00000010
00000001
00000000
00000100
00000000
00001000
00000000
,
00001200
00001300
00002000
00013000
,
00020000
00130000
02000000
13000000
,
20000000
31000000
00200000
01300000
,
00110000
00000000
00011000
00000000
,
00000100
00000001
00000010
00000000
,
00000001
00000000
00000100
00000000
,
00001000
00010000
00001000
00000000
00000000
00000000
00000000
00000000
,
00010000
00000000
01000000
00000000
,
10000000
00010000
10000000
00000000
01000000
00000000
00000000
00000000
,
00010000
00000000
00001000
00000000
,
00010000
00001000
00010000
00000000
00000000
00000000
00000000
00000000
,
00001000
00000000
00000100
00000000
,
00000001
00000010
00000001
00000000
00000100
00000000
00001000
00000000
,
00010000
00000000
01000000
00000000
,
01000000
00010000
01000000
00000000
00000000
00000000
00000000
00000000
,
00100000
00000000
01000000
00000000
,
10000000
01000000
10000000
00000000
01000000
00000000
00110000
00000000
,
00110000
00000000
00011000
00000000
,
00001000
00010000
00001000
00000000
00000100
00000000
00000000
00000000
,
00000010
00000000
00000110
00000000
,
00000001
00000000
00001000
00000000
00000001
00000000
00001000
00000000
00000001
00000000
00001000
00000000
,
00000001
00000010
00000100
00000010
,
00001000
00010000
00100000
01000000
,
00010000
10000000
01000000
00100000
,
00010000
00000000
00000000
00011000
00000000
00000000
00001100
00000000
,
00000000
00011000
00000000
00000000
00010000
00000000
00001000
00000000
,
00000100
00000001
00000010
00000000
,
00001001
00000000
00001000
00000011
,
00000010
00000001
00001000
00000010
,
00000100
00001000
00010000
01000000
,
10000000
11000000
01000000
00000000
,
10000000
00000000
00010000
00000000
01000000
00000000
00100000
01000000
,
00000000
10000000
01000000
00100000
,
00000000
00010000
00001000
00000010
,
00000100
00000001
00000100
00000000
,
00001001
00000000
00000100
00000010
,
00001001
00000100
00001000
00000000
,
00010000
00001000
00010000
00100000
,
00010000
00001000
00000100
00001000
,
00010000
00000000
00000000
00000000
00110000
00000000
00000000
01100000
,
00000000
00000000
10000000
01000000
00000000
00100000
00010000
00000000
,
00011000
00011000
00010000
01000000
,
00100000
10000000
00100000
00000000
,
10010000
00000000
00010000
10100000
,
00100000
10000000
00010000
00100000
,
01000000
00010000
00001000
00000100
,
00000001
00000101
00000100
00000000
,
00000001
00000000
00001000
00000000
00000100
00000000
00000010
00000100
,
00000000
00000001
00000100
00000010
,
00000000
00001000
00010000
00100000
,
01000000
10000000
01000000
00000000
,
10010000
00000000
01000000
01100000
,
10010000
01000000
00010000
00000000
,
00001000
00010000
00000010
00001000
,
00000010
00000001
00000110
00000000
,
00001010
00000000
00000000
00000000
00000101
00000000
00000000
00000110
,
00000000
00000000
00000001
00000100
00000000
00000010
00001000
00000000
,
00011000
00011000
00010000
01000000
,
00100000
10000000
00100000
00000000
,
10010000
00000000
00000000
00000000
10000000
01000000
10000000
00000000
,
01000000
00000000
00000000
00000000
00010000
00001000
00010000
00000000
,
00000100
00000000
00001000
00000000
00000001
00001000
00000001
00000000
,
00000100
00000000
00001100
00000000
,
00011000
00000000
00000000
00000000
00010000
01000000
00010000
00000000
,
01000000
00000000
00000000
00000000
10000000
01000000
10000000
00000000
,
01000000
00000000
00010000
00000000
00001000
00010000
00000000
00001000
,
00000100
00000110
00000100
00000010
,
00000100
00000010
00000100
00000010
00000000
00000000
00000000
00000000
;

//---------------dance-single - ----------------
#NOTES:
     dance-single:
     :
     Medium:
     10:
     0.423866,0.485581,0.228940,0.064103,0.018315,324.000000,299.000000,25.000000,7.000000,0.000000,0.000000,0.423866,0.485581,0.228940,0.064103,0.018315,324.000000,299.000000,25.000000,7.000000,0.000000,0.000000:
0000
0000
0000
0000
,
0000
0000
0000
0000
,
0000
0000
0000
0000
,
0000
0000
0000
0000
,
0000
0000
0000
0000
,
0001
0100
0001
0000
,
1000
0001
1000
0010
,
1000
0100
0100
0000
,
0001
0100
0010
0001
,
1000
0001
1000
0000
,
1000
0001
1000
0010
,
1000
0100
0000
0000
,
0001
0100
0010
0001
,
1000
0100
1000
0000
,
0001
1000
0001
0010
,
0001
0100
0100
0000
,
1000
0100
0010
1000
,
0001
0010
0100
1000
,
1000
0100
1000
0000
0001
0000
0010
0000
,
0001
1000
0100
1000
,
0001
0010
0001
0000
1000
0000
0100
0000
,
0012
0013
0200
1300
,
0002
0013
0200
1300
,
2000
3100
0020
0130
,
1001
0000
1100
0000
,
0001
1000
0100
0000
,
1000
0000
0001
0000
,
1000
0100
1000
0000
0001
0000
0000
0000
,
0100
0000
0010
0000
,
1000
0001
1000
0000
0100
0000
0000
0000
,
0010
0000
0001
0000
,
0010
0001
0010
0000
1000
0000
0000
0000
,
0010
0000
0100
0000
,
1000
0001
1000
0000
0010
0000
0100
0000
,
0001
0000
1000
0000
,
0100
0001
0100
0000
1000
0000
0000
0000
,
0010
0000
0100
0000
,
0001
1000
0001
0000
0100
0000
0000
0000
,
0001
0000
1000
0000
,
0100
1000
0100
0000
0001
0000
0000
0000
,
0100
0000
0010
0000
,
0001
0000
1000
0000
0001
0000
1000
0000
0001
0000
1000
0000
,
0001
0010
0100
1000
,
0010
0100
0001
0010
,
0001
1000
0100
0010
,
0001
0000
0000
1100
0000
0000
0100
0000
,
0000
0011
0000
0000
0010
0000
0001
0000
,
0100
1000
0010
0000
,
1001
0000
1000
0011
,
0010
0001
1000
0010
,
0100
0001
0010
0100
,
1000
1100
0100
0000
,
1000
0000
0001
0000
0100
0000
0010
0100
,
0000
0001
1000
1000
,
0000
0001
0010
0001
,
1000
0100
1000
0000
,
1001
0000
0001
0110
,
1001
1000
0001
0010
,
0100
1000
0010
0001
,
0010
1000
0110
0000
,
0011
0000
0000
0000
1100
0000
0000
0110
,
0000
0000
1000
0100
0000
0010
0001
0000
,
1000
0100
1000
0000
0010
0000
1000
0000
,
0001
0100
0001
0000
,
1001
0000
0000
0000
1000
0001
0100
0001
,
0000
0001
1000
1000
,
0010
0010
0100
0100
,
0001
1000
0110
0000
,
1000
0100
1000
0000
0010
0000
0100
0010
,
0000
1000
1000
0010
,
1000
0001
0100
0001
,
1000
0010
1000
0000
,
1001
1000
0011
0100
,
0000
1000
0001
0100
,
0010
1000
0100
0010
,
0100
0001
0110
0000
,
0101
0000
0000
0000
1010
0000
0000
0110
,
0000
0000
1000
0010
0000
0100
0001
0000
,
1000
0010
1000
0000
0100
0000
1000
0000
,
0001
0010
0002
0000
,
0003
0000
0000
0000
1000
0100
1000
0000
,
0001
0000
0000
0000
0010
0100
0010
0000
,
0100
0000
0000
0000
1000
0001
1000
0000
,
0100
0000
1100
0000
,
0110
0000
0000
0000
0001
0100
0001
0000
,
1000
0000
0000
0000
0010
0100
0010
0000
,
0100
0000
0000
0000
0001
1000
0000
0001
,
1000
0000
0010
1000
0000
0100
0010
0100
,
0000
0010
0100
0010
0000
0000
0000
0000
;

//---------------dance-single - ----------------
#NOTES:
     dance-single:
     :
     Beginner:
     3:
     0.143905,0.239013,0.000000,0.000000,0.000000,110.000000,110.000000,0.000000,0.000000,0.000000,0.000000,0.143905,0.239013,0.000000,0.000000,0.000000,110.000000,110.000000,0.000000,0.000000,0.000000,0.000000:
0000
0000
0000
0000
,
0000
0000
0000
0000
,
0000
0000
0000
0000
,
0000
0000
0000
0000
,
0100
0000
0000
0000
,
0001
0000
0000
0000
,
1000
0000
0000
0000
,
0010
0000
0000
0000
,
0000
0000
0000
0000
,
0001
0000
0001
0000
,
1000
0000
0000
0000
,
1000
0000
1000
0000
,
0001
0000
0000
0000
,
1000
0000
1000
0000
,
0001
0000
0000
0000
,
0001
0000
1000
0000
,
0010
0010
0010
0000
,
1000
0000
0000
0000
,
0001
0000
0001
0000
,
0100
0000
0000
0000
,
0010
0000
0000
0000
,
0100
0100
0000
0000
,
0001
0000
0000
0000
,
1000
0000
1000
0000
,
0001
0000
0000
0000
,
0001
0000
0000
0000
,
0100
0000
0000
0000
,
0001
0000
0000
0000
,
1000
0000
0100
0000
,
1000
0000
0000
0000
,
0001
0000
0000
0000
,
1000
0000
0000
0000
,
0001
0000
1000
0000
,
1000
0000
0000
0000
,
0100
0000
0000
0000
,
1000
0000
0000
0000
,
0001
0000
0100
0000
,
0001
0000
0000
0000
,
1000
0000
0000
0000
,
0001
0000
0000
0000
,
0010
0000
0100
0000
,
1000
0000
0000
0000
,
0010
0000
0000
0000
,
0000
0000
0000
0000
,
0001
0000
0001
0000
,
1000
0000
1000
0000
,
1000
0000
0001
0000
,
0000
0000
0001
0000
,
0001
0000
0100
0000
,
0100
0000
0001
0000
,
0000
0000
1000
0000
,
0000
0000
0100
0000
,
0000
0000
0100
0000
,
0000
0000
0100
0000
,
0000
0000
0100
0000
,
0000
0000
1000
0000
,
0100
0000
0100
0000
,
1000
0000
0000
0000
,
0001
0000
0000
0000
,
0010
0000
0000
0000
,
0010
0000
0000
0000
,
0010
0000
0000
0000
,
0010
0000
0000
0000
,
0010
0000
0001
0000
,
0000
0000
1000
0000
,
0000
0000
0010
0000
,
0000
0000
0010
0000
,
1000
1000
1000
0000
,
0000
0000
0100
0000
,
0000
0000
0100
0000
,
0001
0000
0001
0000
,
0001
0000
0001
0001
,
0001
0000
0000
0000
,
0000
0000
0001
0000
,
0000
0000
1000
0000
,
0000
0000
0001
0000
,
0000
0000
1000
0000
,
0000
0000
0001
0000
,
0000
0000
0100
0000
,
0000
0000
0001
0000
,
0000
0000
1000
0000
,
0000
0000
0001
0000
,
0001
0000
0100
0000
,
0001
0000
1000
0000
,
0000
0000
0001
0000
,
0000
0000
1000
0000
,
1000
0000
1000
0000
,
1000
0000
0000
0000
;

//---------------dance-single - ----------------
#NOTES:
     dance-single:
     :
     Easy:
     6:
     0.260337,0.319600,0.045788,0.036630,0.000000,199.000000,194.000000,5.000000,4.000000,0.000000,0.000000,0.260337,0.319600,0.045788,0.036630,0.000000,199.000000,194.000000,5.000000,4.000000,0.000000,0.000000:
0000
0000
0000
0000
,
0000
0000
0000
0000
,
0000
0000
0000
0000
,
0000
0000
0000
0000
,
0100
0000
0010
0000
,
0001
0000
0001
0000
,
1000
0000
1000
0000
,
0010
0000
0010
0000
,
0100
0000
0100
0000
,
0001
1000
0100
0000
,
1000
0000
1000
0000
,
0010
0000
0001
0000
,
1000
0001
1000
0000
,
1000
0001
0100
0000
,
0001
0000
0001
0000
,
0010
0000
1000
0000
,
0001
0010
0100
1000
,
0100
1000
0000
0000
,
0001
0010
0001
0000
,
0100
0000
0000
0000
,
0010
0000
0000
0000
,
0100
0010
0100
0000
,
0001
0000
0001
0000
,
1000
0000
0000
0000
,
0001
0000
0000
0000
,
0001
0000
0010
0001
,
0100
0000
0000
0000
,
0001
0000
0000
0000
,
1000
0000
0100
0000
,
1000
0000
0001
1000
,
0001
0000
0000
0000
,
1000
0000
0000
0000
,
0001
0000
0100
0000
,
1000
0000
0010
1000
,
0100
0000
0000
0000
,
1000
0000
0000
0000
,
0001
0000
0100
0000
,
0001
0000
1000
0001
,
1000
0000
0000
0000
,
0001
0000
0000
0000
,
0001
1000
0100
0000
,
1000
0100
0010
0001
,
0010
0000
0010
0000
,
0100
0000
0100
0000
,
1000
0000
1000
0000
,
0100
0000
0100
0000
,
0001
0000
0001
0000
,
1001
0000
0001
0010
,
0001
1000
0100
0000
,
0100
0000
0010
0000
,
0001
0000
0010
0000
,
0001
0001
0100
0000
,
1000
0000
0100
0000
,
0001
0000
0001
0010
,
0100
1000
0100
0000
,
0001
0000
1000
0100
,
1000
0000
0001
0010
,
0001
0000
2000
0000
,
0100
0000
3002
0000
,
0100
0000
1003
1001
,
1001
0000
0100
0000
,
0010
0000
1000
0001
,
0010
0001
0100
0000
,
0001
0000
1000
0010
,
1000
0001
0100
0000
,
0100
0000
0010
0000
,
1000
0000
0010
0000
,
1000
1000
0100
0000
,
0001
0000
0100
0000
,
1000
0000
1000
0010
,
0100
0001
0100
0000
,
0001
0000
0001
0100
,
0001
0000
1000
0010
,
1000
0000
0002
0000
,
0100
0000
2003
0000
,
0100
0000
3001
1001
,
1001
0000
0100
0000
,
0010
0000
0001
1000
,
0010
1000
0100
0000
,
0100
0000
1000
0000
,
0001
0000
1000
0010
,
0100
0000
0001
0000
,
0001
0000
0100
0010
,
1000
0000
0001
0000
,
1000
0000
0010
0100
,
0010
0000
1000
0000
,
1000
0000
0001
1000
,
0001
1000
0000
0000
;

//---------------dance-double - ----------------
#NOTES:
     dance-double:
     :
     Easy:
     7:
     0.261646,0.319600,0.009158,0.054946,0.000000,200.000000,199.000000,1.000000,6.000000,0.000000,0.000000,0.261646,0.319600,0.009158,0.054946,0.000000,200.000000,199.000000,1.000000,6.000000,0.000000,0.000000:
00000000
00000000
00000000
00000000
,
00000000
00000000
00000000
00000000
,
00000000
00000000
00000000
00000000
,
00000000
00000000
00000000
00000000
,
00001000
00000000
00000001
00000000
,
00000001
00000000
00000100
00000000
,
00001000
00000000
00010000
00000000
,
00100000
00000000
10000000
00000000
,
01000000
00000000
01000000
00000000
,
10000000
00100000
01000000
00000000
,
10000000
00000000
01000000
00000000
,
00100000
00000000
00010000
00000000
,
00001000
00000100
00000001
00000000
,
00000001
00000010
00000100
00000000
,
00000001
00000000
00000100
00000000
,
00000010
00000000
00001000
00000000
,
00010000
01000000
10000000
01000000
,
10000000
01000000
00010000
00000000
,
00001000
00000100
00000010
00000000
,
00000001
00000000
00000000
00000000
,
00000010
00000000
00000000
00000000
,
00001000
00000001
00001000
00000000
,
00000001
00000001
00000100
00000100
,
00001000
00000000
00010000
00000000
,
00001000
00000000
00010000
00000000
,
00010000
00000000
00100000
00010000
,
00100000
00000000
10000000
00000000
,
00010000
00000000
10000000
00000000
,
01000000
00000000
00010000
00000000
,
01000000
00000000
10000000
01000000
,
00100000
00001000
00000000
00000000
,
00010000
00000000
00000000
00000000
,
00001000
00000000
00000100
00000000
,
00001000
00000000
00010000
00001000
,
00000010
00000000
00000001
00000000
,
00001000
00000000
00000001
00000000
,
00000100
00000000
00001000
00000000
,
00000100
00000000
00000001
00000100
,
00000010
00010000
00000000
00000000
,
00001000
00000000
00010000
00000000
,
01000000
00000000
10000000
00000000
,
10000000
01000000
00010000
00001000
,
00000100
00000000
00000001
00000000
,
00000001
00000000
00000100
00000000
,
00000001
00000000
00000001
00000000
,
00000100
00000000
00001000
00000000
,
00000010
00000000
00000001
00000000
,
00001001
00000000
00000001
00000010
,
00001000
00010000
01000000
00000000
,
01000000
00000000
00100000
00000000
,
00000000
00000000
00010000
00000000
,
10000000
10000000
01000000
00000000
,
00010000
00000000
00001000
00000000
,
00000010
00000000
00000100
00000001
,
00000100
00000010
00001000
00000000
,
00010000
00000000
00010000
01000000
,
10000000
00000000
00010000
00100000
,
00010000
00000000
20000000
00000000
,
01000000
00000000
30020000
00000000
,
02030000
00000000
10000000
00000000
,
13000000
00000000
01000000
00000000
,
00100000
00000000
00010000
00000000
,
00001000
00000000
00000100
00000000
,
00000001
00000000
00000001
00000010
,
00001000
00010000
01000000
00000000
,
01000000
00000000
00100000
00000000
,
00000000
00000000
00010000
00000000
,
10000000
10000000
01000000
00000000
,
00010000
00000000
00001000
00000000
,
00000010
00000000
00000100
00000001
,
00000100
00000010
00001000
00000000
,
00010000
00000000
00010000
01000000
,
10000000
00000000
00010000
00100000
,
00010000
00000000
20000000
00000000
,
01000000
00000000
30020000
00000000
,
02030000
00000000
10000000
00000000
,
13000000
00000000
01000000
00000000
,
00100000
00000000
00010000
00000000
,
00001000
00000000
00000100
00000000
,
00000010
00000000
00000100
00001000
,
00010000
00000000
00010000
00100000
,
01000000
00000000
00010000
00000000
,
00010000
00000000
01000000
00100000
,
10000000
00000000
01000000
00010000
,
00001000
00000000
00001000
00000010
,
00000100
00000000
00001000
00000000
,
00001000
00000000
00000100
00000010
,
00000001
00000100
00000000
00000000
;

//---------------dance-single - ----------------
#NOTES:
     dance-single:
     :
     Challenge:
     16:
     0.922300,1.080367,0.613559,0.155679,0.407513,705.000000,638.000000,67.000000,17.000000,0.000000,0.000000,0.922300,1.080367,0.613559,0.155679,0.407513,705.000000,638.000000,67.000000,17.000000,0.000000,0.000000:
// measure 0
0000
0000
0000
0000
,  // measure 1
0000
0000
0000
0000
,  // measure 2
0000
0000
0000
0000
,  // measure 3
0000
0000
0000
0000
,  // measure 4
0000
0000
0000
0000
,  // measure 5
1000
0100
0001
0000
1100
0000
1000
0010
,  // measure 6
0001
0000
0010
1000
0000
1000
0001
0010
,  // measure 7
0001
0000
0101
0000
0110
0000
0010
1000
,  // measure 8
0001
0000
1000
0000
0000
0000
1001
0000
0000
0000
0001
0000
0010
0100
0010
0000
,  // measure 9
0100
1000
0100
0000
1000
0001
1000
0000
0001
0000
0010
0000
0100
0000
1000
0000
,  // measure 10
0001
0100
0101
0000
0110
0000
0010
1000
,  // measure 11
0100
0000
0010
0000
0001
1000
0001
0000
0100
0000
0010
0000
2000
0000
0000
0000
,  // measure 12
3010
0100
0001
0100
0010
1000
0010
0100
,  // measure 13
0001
0001
0100
0100
1000
1000
0100
0100
,  // measure 14
0001
0010
0001
1000
0100
1000
0010
0100
,  // measure 15
0001
0010
0001
0000
1000
0100
1000
0000
0010
0000
0100
0000
0001
0000
0000
0000
,  // measure 16
1000
0001
1000
0000
0010
0000
0001
0000
0010
0000
1000
0000
0100
0010
0100
0000
,  // measure 17
0010
0000
0011
0000
1000
0100
0010
0001
,  // measure 18
0101
0000
0100
0010
0000
1000
0010
1000
,  // measure 19
0001
0000
0100
0001
0100
0001
0010
0001
,  // measure 20
0010
0001
1000
0001
1000
0100
1000
0010
,  // measure 21
0200
0301
2001
3010
,  // measure 22
0100
0001
1000
0001
0010
0001
1000
0010
,  // measure 23
1000
0100
0010
0001
0100
0010
0100
0000
,  // measure 24
1001
0000
0000
0000
1000
0000
0100
0000
0001
0000
0000
0000
0100
0000
1000
0100
,  // measure 25
1000
0000
0001
0000
0100
0010
0100
0000
0001
1000
0001
0000
1000
0000
0100
0000
,  // measure 26
0010
0000
0001
1000
1010
0000
0001
1000
,  // measure 27
0010
1000
0100
0000
0010
0001
0100
0001
,  // measure 28
1000
0000
0010
1000
0010
0000
0100
0000
0001
0000
0010
0000
0001
0000
0100
0000
,  // measure 29
0010
0100
0010
0000
1000
0000
0100
0000
1000
0000
0001
0000
0010
0000
0001
0000
,  // measure 30
0101
0000
0100
0010
1000
0000
0010
0001
,  // measure 31
0010
0000
0100
0000
0010
0000
1000
0000
0001
0000
0000
0000
0100
0000
0001
1000
,  // measure 32
0001
0000
1000
0000
0100
1000
0100
0000
0010
0000
0000
0000
0001
0000
0010
0000
,  // measure 33
1000
0010
0001
0000
1001
0000
1000
0100
,  // measure 34
0002
0000
0103
1000
0010
0100
0001
0010
,  // measure 35
0001
0000
1000
0000
0200
0000
0000
0000
0310
0000
0000
0000
0010
0000
0001
1000
,  // measure 36
0001
0000
1000
0100
1000
0000
0001
0000
0010
0000
0000
0000
1001
0000
1000
0000
,  // measure 37
0100
0010
0000
0000
0010
0001
0000
0000
0001
1000
0000
0000
1000
0001
0100
0001
,  // measure 38
0200
0000
0310
1000
0001
0100
0001
0010
,  // measure 39
0100
0000
0010
0000
0001
0000
1000
0000
0001
0000
0000
0000
1000
0000
0010
1000
,  // measure 40
0010
0000
0100
0001
0100
0000
0001
0000
1000
0000
0010
0000
1000
0000
0100
0000
,  // measure 41
0010
0000
0011
0000
1001
0000
1100
0000
0110
0000
0011
0000
,  // measure 42
0201
0000
0000
0310
0000
0000
1000
0000
1000
0001
0000
0000
,  // measure 43
0101
0000
0100
0010
0000
0010
1000
0000
1000
0001
0000
0001
,  // measure 44
0100
0000
0000
0110
0000
0000
1010
0000
1000
0100
0000
0010
,  // measure 45
0001
0000
0000
1001
0000
0000
1010
0000
,  // measure 46
0110
0000
0000
0101
0000
0000
1001
0000
1000
0010
0000
0010
,  // measure 47
0100
0000
0000
0000
0000
0000
0000
0000
0100
0000
0000
0000
0001
0000
0000
0000
0000
0000
0000
0000
0001
0000
0000
0000
1000
0000
0000
0000
0000
0000
0000
0000
1000
0000
0000
0000
0010
0000
0000
0100
0000
0000
0010
0000
0000
0100
0000
0000
,  // measure 48
0001
1000
0001
1000
0010
0000
0000
0000
0100
0000
0001
0000
1000
0000
0100
0000
,  // measure 49
1000
0001
0010
0000
0021
0000
0031
0000
,  // measure 50
0100
1000
0100
0001
0020
0100
0130
0001
,  // measure 51
0100
0000
0010
0001
0010
0000
0100
0000
2100
0000
0000
0000
3010
0000
0100
0000
,  // measure 52
0001
1000
0010
1000
0010
0000
0100
0000
0101
0000
0000
0000
0110
0000
0000
0000
,  // measure 53
1010
0000
0000
0000
1000
0000
0100
0000
0010
0000
0001
0000
0100
0010
0100
0000
,  // measure 54
0010
1000
0010
0000
1000
0000
0000
0000
1001
0000
0000
0000
0101
0000
0000
0000
,  // measure 55
0110
0000
1010
0000
1001
0001
0101
0000
,  // measure 56
0100
0000
0010
0000
1000
0000
0001
0000
0010
0001
0010
0000
0001
0000
0100
0000
,  // measure 57
0010
0000
0000
0000
1010
0000
0000
0000
1000
0000
0001
0000
0100
0001
0100
0000
,  // measure 58
0010
0000
1000
0000
0001
0000
0100
0000
1000
0100
1000
0000
0100
0000
0001
0000
,  // measure 59
0010
0000
0100
0000
2001
0000
3001
0100
,  // measure 60
0120
0000
1030
0001
0201
0010
0300
0010
,  // measure 61
1000
0000
1000
0001
0000
0001
0100
0000
,  // measure 62
0100
0010
1000
0001
0011
0010
0001
1000
,  // measure 63
0002
0000
0103
0010
2000
0100
3100
0010
,  // measure 64
0001
0000
1000
0000
0100
0010
0100
0010
0001
0000
1000
0000
0100
0000
1000
0000
,  // measure 65
0010
0000
0110
0000
0100
0001
1000
0001
,  // measure 66
0010
0000
0000
0000
0110
0000
0000
0000
0100
1000
0100
0000
1000
0000
0001
0000
,  // measure 67
0010
0000
0001
0100
0001
0000
1000
0000
0010
1000
0010
1000
0100
0000
0010
0000
,  // measure 68
0011
0001
0100
0010
0110
0000
1000
0001
,  // measure 69
1001
0000
0000
0000
1000
0010
1000
0000
0001
0100
0001
0000
0100
0010
0100
0000
,  // measure 70
0001
0000
1000
0000
0100
0010
0100
0000
0010
0001
0010
0000
0001
1000
0001
0000
,  // measure 71
1000
0100
1000
0100
0010
0001
0010
0001
0100
0000
0100
0000
0010
0000
0010
0000
,  // measure 72
1000
0001
1000
0000
0001
0010
0001
0000
0100
0000
0010
0000
1000
0000
0001
0000
,  // measure 73
0100
0000
0110
0000
1001
0000
1000
0010
,  // measure 74
0100
0000
0010
0000
0001
0000
0010
0000
1000
0001
1000
0000
0001
0000
0100
0010
,  // measure 75
0100
0000
0000
0000
0000
0000
0001
0000
0000
1000
0000
0000
0010
0000
0000
1000
0000
0000
0100
0000
0000
0000
0000
0000
0010
0000
0000
0000
0001
0000
0000
0000
0001
0000
0000
0000
0100
0000
0000
0000
0010
0000
0000
0000
0010
0000
0000
0000
,  // measure 76
1000
0000
0100
0000
0010
0000
0001
0000
0100
0000
0010
0000
1000
0000
0000
1001
0000
0000
0000
0000
0000
0010
0000
0000
,  // measure 77
0101
0000
0100
1001
0000
0100
1010
0000
,  // measure 78
0010
0101
0000
0100
0001
0011
0000
1000
,  // measure 79
1001
0000
0010
0100
0001
0010
0001
1000
,  // measure 80
0100
1000
0010
0000
0101
0001
0010
0100
,  // measure 81
1000
0001
1000
0010
0100
0010
0001
0000
,  // measure 82
0010
0000
1000
0000
0100
0010
0100
0000
0010
0000
0001
0000
1000
0000
0001
0000
,  // measure 83
1000
0100
1000
0000
0010
0000
0000
0000
0101
0000
0000
0000
0001
0000
0000
0000
,  // measure 84
1001
0000
0000
0000
1010
0000
0000
0000
0110
0000
0000
0000
0101
0000
0000
0000
0000
0000
0001
0000
0000
1000
0000
0000
,  // measure 85
0001
0010
0001
0000
0100
0000
0010
0000
1000
0000
0100
0000
0010
0000
0001
0000
,  // measure 86
0100
0001
0100
0000
0001
0100
0001
0000
1000
0000
1000
0000
1000
0000
1000
0000
,  // measure 87
0001
0000
0100
0010
0000
0100
0001
0001
,  // measure 88
0001
0001
0001
1000
0010
1000
0100
0000
,  // measure 89
0110
0000
0000
0011
0000
0001
1000
0000
,  // measure 90
1100
0000
2000
0002
0000
0000
3003
0000
;
