#VERSION:0.83;
#TITLE:Adularia;
#SUBTITLE:;
#ARTIST:DJ TOTTO;
#TITLETRANSLIT:;
#SUBTITLETRANSLIT:;
#ARTISTTRANSLIT:;
#GENRE:;
#ORIGIN:;
#CREDIT:;
#BANNER:Adularia.png;
#BACKGROUND:Adularia-bg.png;
#PREVIEWVID:;
#JACKET:Adularia-jacket.png;
#CDIMAGE:;
#DISCIMAGE:;
#LYRICSPATH:;
#CDTITLE:;
#MUSIC:Adularia.ogg;
#OFFSET:0.000000;
#SAMPLESTART:76.667000;
#SAMPLELENGTH:15.000000;
#SELECTABLE:YES;
#BPMS:0.000=180.000;
#STOPS:;
#DELAYS:;
#WARPS:;
#TIMESIGNATURES:0.000=4=4;
#TICKCOUNTS:0.000=4;
#COMBOS:0.000=1;
#SPEEDS:0.000=1.000=0.000=0;
#SCROLLS:0.000=1.000;
#FAKES:;
#LABELS:0.000=Song Start;
#BGCHANGES:0.000=Adularia.avi=1.000=0=0=0=StretchNoLoop====,
99999=-nosongbg-=1.000=0=0=0 // don't automatically add -songbackground-
;
#KEYSOUNDS:;
#ATTACKS:
;

//---------------dance-single - ----------------
#NOTEDATA:;
#CHARTNAME:;
#STEPSTYPE:dance-single;
#DESCRIPTION:;
#CHARTSTYLE:;
#DIFFICULTY:Beginner;
#METER:3;
#RADARVALUES:0.160114,0.235800,0.008241,0.032965,0.000000,136.000000,135.000000,1.000000,4.000000,0.000000,0.000000,0.000000,0.000000,0.000000,0.160114,0.235800,0.008241,0.032965,0.000000,136.000000,135.000000,1.000000,4.000000,0.000000,0.000000,0.000000,0.000000,0.000000;
#CREDIT:;
#NOTES:
0000
0000
0000
0000
,
0000
0000
0000
0000
,
0000
0000
0000
0000
,
0000
0000
0000
0000
,
0000
0000
0000
0000
,
0000
0000
0000
0000
,
1000
1000
1000
0000
,
0000
0000
0000
0000
,
0001
0001
0001
0000
,
0000
0000
0000
0000
,
1001
0000
0000
0000
,
0000
0000
0000
0000
,
1000
1000
1000
0000
,
0001
0001
0001
0000
,
0100
0100
0100
0000
,
0010
0010
0010
0000
,
1000
1000
1000
0000
,
0100
0100
0100
0000
,
1000
0000
0000
0000
,
0001
0000
0000
0000
,
1000
0000
0000
0000
,
0001
0000
0000
0000
,
1000
0000
0000
0010
,
0020
0000
0030
0000
,
0100
0000
0000
0000
,
0010
0000
0000
0000
,
0010
0000
0000
0000
,
0001
0000
0000
0000
,
1000
0000
0000
0000
,
0001
0000
0000
0000
,
0020
0000
0000
0030
,
0010
0010
0010
0000
,
2000
0000
0000
3000
,
1000
0000
0000
0000
,
0010
0000
0001
0000
,
0100
0000
0000
0000
,
0010
0000
1000
0000
,
0100
0000
0000
0000
,
0010
0000
0001
0000
,
1000
0000
0000
0000
,
0010
0000
1000
0000
,
0001
0000
0000
0000
,
0001
0001
0001
0000
,
0010
0000
0000
0000
,
1000
1000
1000
0000
,
0010
0000
0000
0000
,
0010
0000
0010
0000
,
0100
0100
0100
0000
,
0001
0000
0000
0000
,
0200
0000
0300
0000
,
1000
1000
1000
0000
,
0000
0000
0000
0000
,
0010
0010
0010
0000
,
0000
0000
0000
0000
,
0100
0100
0100
0000
,
0000
0000
0000
0000
,
0010
0010
0010
0000
,
0001
0001
0001
0000
,
1000
0000
1000
0000
,
0001
0000
0001
0000
,
1000
1000
1000
0000
,
0001
0001
0001
0000
,
0010
0000
0000
0000
,
0100
0000
0000
0000
,
0001
0000
0001
0000
,
1000
0000
1000
0000
,
1000
0000
0000
0000
,
0010
0010
0010
0000
,
0001
0000
0000
0000
,
0100
0100
0100
0100
,
0100
0000
0000
0000
,
0010
0000
0000
0000
,
0010
0000
0010
0000
,
1000
0000
0000
0000
,
0001
0000
1000
0000
,
0001
0000
1000
0000
,
0001
0000
1000
0000
,
1000
1000
1000
0000
,
0001
0000
0100
0000
,
1000
0000
0100
0000
,
0001
0000
0100
0000
,
1000
1000
1000
1000
,
0000
0000
0000
0000
;

//---------------dance-single - ----------------
#NOTEDATA:;
#CHARTNAME:;
#STEPSTYPE:dance-single;
#DESCRIPTION:;
#CHARTSTYLE:;
#DIFFICULTY:Easy;
#METER:6;
#RADARVALUES:0.227221,0.306417,0.057688,0.156582,0.000000,193.000000,186.000000,7.000000,19.000000,0.000000,0.000000,0.000000,0.000000,0.000000,0.227221,0.306417,0.057688,0.156582,0.000000,193.000000,186.000000,7.000000,19.000000,0.000000,0.000000,0.000000,0.000000,0.000000;
#CREDIT:;
#NOTES:
0000
0000
0000
0000
,
0000
0000
0000
0000
,
0000
0000
0000
0000
,
0000
0000
0000
0000
,
0000
0000
0000
0000
,
0000
0000
0000
0000
,
1000
0100
1000
0100
,
1000
0100
1000
0000
,
0001
0100
0001
0100
,
0001
0100
0001
0000
,
1001
0000
0000
0000
,
0100
0010
1000
0000
,
1000
0001
1000
0000
,
0100
0010
1000
0000
,
0001
1000
0001
0000
,
0100
0010
0001
0000
,
0010
0010
0010
0100
,
0100
0100
0100
0000
,
0010
0010
0000
0010
,
0000
0010
1000
0100
,
0001
0000
1000
0000
,
0001
0000
0010
0000
,
0010
0100
1000
0010
,
0020
0000
0000
0000
0000
0000
0000
0000
0000
0000
0000
0000
0000
0000
0000
0000
0000
0000
0000
0000
0000
0000
0000
0000
0000
0000
0000
0000
0000
0000
0000
0000
0000
0000
0000
0000
0000
0000
0000
0000
0000
0000
0000
0000
0000
0000
0000
0000
0000
0000
0000
0000
0000
0000
0000
0000
0000
0000
0000
0000
0000
0000
0000
0000
0000
0000
0000
0000
0000
0000
0000
0000
0000
0000
0000
0000
0000
0000
0000
0000
0000
0000
0000
0000
0000
0000
0000
0000
0000
0000
0000
0000
0000
0000
0000
0000
0000
0000
0000
0000
0000
0000
0000
0000
0000
0000
0000
0000
0000
0000
0000
0000
0000
0000
0000
0000
0000
0000
0000
0000
0000
0000
0000
0000
0000
0000
0000
0000
0000
0000
0000
0000
0000
0000
0000
0000
0000
0000
0000
0000
0000
0000
0000
0030
0000
0000
0000
0000
0000
0000
0000
0000
0000
0000
0000
0000
0000
0000
0000
0000
0000
0000
0000
0000
0000
0000
0000
0000
0000
0000
0000
0000
0000
0000
0000
0000
0000
0000
0000
0000
0000
0000
0000
0000
0000
0000
0000
0000
0000
0000
0000
0000
,
0200
0000
0000
0300
,
0020
0000
0000
0030
,
0010
0010
1000
0010
,
0001
0000
1000
0000
,
0001
0010
1000
0010
,
0001
0010
1000
0010
,
0020
0000
0000
0030
,
0010
0010
0010
0010
,
2000
0000
0000
3000
,
1001
0000
0000
0000
,
0100
0000
1000
0000
,
1001
0000
0000
0000
,
1000
0000
0100
0000
,
1001
0000
0000
0000
,
1000
0100
0000
0000
,
0000
0000
0000
0000
,
0001
0100
0000
0000
,
0000
0000
0000
0000
,
0002
0000
0000
0003
,
0020
0000
0000
0030
,
2000
0000
0000
3000
,
0020
0000
0000
0030
,
0001
1000
0010
0000
,
0010
0100
1000
0000
,
0001
0000
0100
0010
,
0200
0000
0300
0000
,
1000
0100
0001
0000
,
0000
0000
0000
0000
,
0001
0100
1000
0000
,
0000
0000
0000
0000
,
1000
0100
0010
0000
,
0000
0000
0000
0000
,
0010
0100
0100
0000
,
0001
1000
0001
0000
,
0002
1000
1003
1000
,
0001
0010
0001
0010
,
1000
0000
1000
0000
,
1000
0100
0001
0000
,
1001
0000
0000
0000
,
1000
0001
1000
0001
,
1000
0000
0001
1000
,
1000
0001
1000
0001
,
0100
1000
0100
0000
,
2000
0001
0002
3003
,
0001
1000
0001
1000
,
1000
0100
0010
0001
,
0010
0010
0000
0010
,
0000
0010
1000
0010
,
0001
0000
0110
0000
,
2002
0000
0000
3003
,
0001
0010
1000
0010
,
0001
0010
2000
0000
,
3002
0000
0000
0003
,
2000
3000
0001
0000
,
1000
0010
0100
0000
,
0001
0010
0100
0000
,
1000
0100
0001
0100
,
1000
0100
0001
0200
,
0000
0000
0000
0000
0000
0300
0000
0000
,
0000
0000
0000
0000
;

//---------------dance-single - ----------------
#NOTEDATA:;
#CHARTNAME:;
#STEPSTYPE:dance-single;
#DESCRIPTION:;
#CHARTSTYLE:;
#DIFFICULTY:Medium;
#METER:10;
#RADARVALUES:0.383803,0.605932,0.296682,0.148341,0.008241,326.000000,290.000000,36.000000,18.000000,0.000000,0.000000,0.000000,0.000000,0.000000,0.383803,0.605932,0.296682,0.148341,0.008241,326.000000,290.000000,36.000000,18.000000,0.000000,0.000000,0.000000,0.000000,0.000000;
#CREDIT:;
#NOTES:
0000
0000
0000
0000
,
0000
0000
0000
0000
,
0000
0000
0000
0000
,
0000
0000
0000
0000
,
0000
0000
0000
0000
,
0000
0000
0000
0000
,
0001
0000
1000
0000
0001
0100
0000
0000
,
0010
0100
0000
0001
0000
0000
0000
0000
,
1000
0000
0001
0000
1000
0100
0000
0000
,
0010
0100
0000
1000
0000
0000
0000
0000
,
1001
0000
1000
0000
0001
0100
0000
0000
,
0010
0100
0000
0001
0000
0000
0000
0000
,
1000
0000
0001
0000
1000
0010
0000
1000
,
0100
0100
0100
0100
,
1000
1100
0001
0100
,
0001
0000
0101
0000
1000
0100
0001
0000
,
0001
0101
1000
0100
,
1000
1010
0022
0033
,
1000
0000
0101
0000
0001
0100
1000
0000
,
1000
0001
0001
0110
,
1000
0100
0001
0100
,
0010
0000
0100
0000
0001
1000
0100
0000
,
0010
0000
0001
0000
0100
0000
0010
0200
,
0000
0000
0000
0000
0000
0000
0000
0000
0000
0000
0000
0000
0000
0000
0000
0000
0000
0000
0000
0000
0000
0000
0000
0000
0000
0000
0000
0000
0000
0000
0000
0000
0000
0000
0000
0000
0000
0000
0000
0000
0000
0000
0000
0000
0000
0000
0000
0000
0001
0000
0000
0000
0000
0000
0000
0000
0000
0000
0000
0000
0000
0000
0000
0000
0000
0000
0000
0000
0000
0000
0000
0000
0000
0000
0000
0000
0000
0000
0000
0000
0000
0000
0000
0000
0000
0000
0000
0000
0000
0000
0000
0000
0000
0000
0000
0000
0001
0000
0000
0000
0000
0000
0000
0000
0000
0000
0000
0000
0000
0000
0000
0000
0000
0000
0000
0000
0000
0000
0000
0000
0000
0000
0000
0000
0000
0000
0000
0000
0000
0000
0000
0000
0000
0000
0000
0000
0000
0000
0000
0000
0000
0000
0000
0300
0001
0000
0000
0000
0000
0000
0000
0000
0000
0000
0000
0000
0000
0000
0000
0000
0000
0000
0000
0000
0000
0000
0000
0000
0020
0000
0000
0000
0000
0000
0000
0000
0000
0000
0000
0000
0000
0000
0000
0000
0000
0000
0000
0000
0000
0000
0000
0000
,
0000
0100
0100
0130
,
2200
0000
0000
3300
,
1000
0101
0010
0100
,
0010
0000
1001
0000
0010
0100
0010
0000
,
0010
0100
1000
0100
,
0010
0001
1000
0000
0100
0000
0001
0200
,
0000
0000
0010
0000
0010
0000
0310
2000
,
0000
0000
0100
0000
0100
0000
3100
0002
,
0000
1000
1000
1003
,
0110
0000
0000
0000
0100
0010
0100
0000
,
0010
0000
0000
0001
0000
0000
0000
0000
,
1001
0000
0000
0000
,
1001
0000
0000
0110
0000
0000
0000
0000
,
1001
0000
0000
0000
,
0001
0000
0000
0001
0000
0000
0001
0000
0000
0000
0000
0000
0000
0000
0000
0000
,
0000
0000
0000
0000
,
1000
0000
0000
1000
0000
0000
1000
0000
0000
0000
0000
0000
0000
0000
0000
0000
,
0000
0000
0000
0000
0001
1000
0100
0000
,
2000
0000
0100
0000
0100
3100
0000
0000
,
0001
0100
0000
0001
0000
0000
0000
0000
,
0010
0000
0100
0000
0010
0100
0000
0000
,
0010
0010
0000
0010
0000
0000
0010
0000
,
1000
0000
0001
0000
0100
0001
0000
0000
,
0100
0001
0000
1000
0000
0000
0000
0000
,
1100
0000
0000
0100
0010
0100
0010
0100
,
0010
1000
0000
0001
0000
0000
0000
0000
,
0001
1000
0010
1000
0000
0000
0000
0000
,
0000
0000
0000
0000
,
1000
0010
1000
0001
0000
0000
0000
0000
,
0000
0000
0000
0000
,
0001
0100
0010
0100
0000
0000
0000
0000
,
0000
0000
0000
0000
,
0100
0010
0100
0010
0000
0000
0000
0000
,
1000
0001
1000
0001
1000
0000
0000
0000
,
1000
0001
0100
0000
0001
0000
1000
0010
,
0100
0101
1000
0100
,
0001
0000
0100
0001
1000
0000
0001
0000
,
0001
0000
0010
0001
1000
0000
1000
0000
,
0001
0000
0100
0000
0100
0010
0100
0000
,
1001
0101
1001
1100
,
1000
0000
0001
0100
0001
0000
1000
0100
,
1000
0001
1000
1000
,
0110
0000
0001
1000
0010
0000
0001
0000
,
0002
1000
1000
1003
,
1000
0001
0010
0000
1000
0000
0010
0000
,
1100
0110
0011
0110
,
0001
1000
0100
0000
1000
0000
0100
0000
,
0010
0000
1000
0001
0100
0000
0001
0000
,
0101
0000
0000
0110
0000
0000
0000
0000
,
2002
0000
0000
3003
,
0001
1000
0100
0000
1000
0000
0001
0000
,
0100
0000
0000
0010
0002
0000
0000
0103
,
2000
0000
0100
0000
0100
0000
3100
0010
,
0002
0000
0003
1000
0001
0000
0000
1000
,
0001
1000
0100
0000
0010
0001
0010
0000
,
1001
0000
0001
0000
1000
0010
0100
0001
,
1000
0001
1000
0001
1000
0001
1000
0000
,
1001
0110
1100
1010
,
0000
0000
0000
0000
0000
0022
0000
0000
,
0000
0000
0000
0000
,
0000
0000
0000
0000
,
0000
0000
0000
0000
,
0000
0000
0033
0000
,
0000
0000
0000
0000
;

//---------------dance-single - ----------------
#NOTEDATA:;
#CHARTNAME:;
#STEPSTYPE:dance-single;
#DESCRIPTION:;
#CHARTSTYLE:;
#DIFFICULTY:Hard;
#METER:14;
#RADARVALUES:0.528612,0.712861,0.181306,0.181306,0.156582,449.000000,427.000000,22.000000,22.000000,0.000000,0.000000,0.000000,0.000000,0.000000,0.528612,0.712861,0.181306,0.181306,0.156582,449.000000,427.000000,22.000000,22.000000,0.000000,0.000000,0.000000,0.000000,0.000000;
#CREDIT:;
#NOTES:
0000
0000
0000
0000
,
0000
0000
0000
0000
,
0000
0000
0000
0000
,
0000
0000
0000
0000
,
0000
0000
0000
0000
,
0000
0000
0000
0000
,
0001
0000
1000
0000
0001
0100
0000
0001
,
0000
0010
0001
1000
0100
0010
0100
0010
,
0001
0000
1000
0000
0001
0100
0000
0001
,
0000
0010
0001
1000
0100
0010
0100
0010
,
1000
0000
0001
0000
1000
0100
0000
1000
,
0000
0010
1000
0001
0010
0100
0010
0100
,
0001
0000
1000
0000
0001
0010
0000
0001
,
0000
0100
0001
1000
0100
0010
0100
1000
,
0001
0000
1000
0000
0001
0100
0000
0001
,
0000
0010
0001
1000
0100
1000
0001
0100
,
0001
0100
0001
0100
1000
0100
1000
0100
,
1000
0000
0010
0000
1000
0010
1000
0010
0200
0000
0000
0000
0300
0000
0000
0000
,
1000
0001
0100
0000
0001
0100
0010
0000
,
1000
0001
0100
0000
0001
0010
0100
0000
,
1000
0100
0010
0000
0001
0100
0010
0000
,
1000
0001
0010
0100
0010
0001
0010
0200
,
0000
0000
0010
0000
0001
0000
0310
0002
,
0000
1000
0000
0100
0000
1003
0000
0020
,
0000
1000
0100
1030
,
0200
0001
0001
0301
,
1000
0001
0100
0000
0010
0100
0001
0000
,
0010
0001
1000
0000
0010
0100
0001
0000
,
1000
0001
1000
0100
0010
0001
1000
0100
,
0000
0010
0000
0001
1000
0100
1000
0200
,
0000
0010
0010
0310
,
1000
0000
0100
0010
0100
0010
0100
0002
,
0000
0000
0000
0000
1000
0000
0000
0000
1000
0000
0000
0000
1003
0000
0010
0100
,
0020
0000
0100
0130
,
1010
0000
0000
0101
0000
0000
0000
0000
,
1001
0000
0000
0000
,
0101
0000
0000
0110
0000
0000
0000
0000
,
1001
0000
0000
0000
,
0011
0000
0000
1100
0000
0000
0011
0000
0000
0000
0000
0000
1000
0000
0010
0000
,
0100
0001
0100
0010
0000
0000
0000
0000
,
0101
0000
0000
1100
0000
0000
0011
0000
0000
0000
0000
0000
0100
0000
0010
0000
,
0001
0010
0100
0000
0001
0010
0100
1000
,
0001
0000
0000
0000
0000
0000
0100
0010
1000
0000
0000
0000
0000
0000
0100
1000
,
0001
0000
0000
1000
0100
0010
0100
0010
,
0001
0000
0000
0000
0000
0000
0100
0010
1000
0000
0000
0000
0000
0000
0100
1000
,
0001
0000
0000
0000
0000
0000
0001
0000
1000
0000
0001
0000
1000
0001
1000
0001
,
1000
0000
0000
0000
0000
0000
0010
1000
0001
0000
0000
0000
0000
0000
0010
0000
,
0100
0000
1000
0000
0000
0000
0001
0000
1000
0000
0001
0000
1000
0010
1000
0010
,
1000
0000
0000
0100
0010
0001
1000
0100
,
1000
0001
0000
1000
0000
0001
0100
0000
,
0001
0100
0010
1000
0000
0000
0000
0000
,
1000
0100
0010
0100
0000
0000
0000
0000
,
1000
0100
0010
0001
0000
0000
0000
0000
,
0001
0100
0010
0100
0000
0000
0000
0000
,
0001
0100
0010
1000
0000
0000
0000
0000
,
1000
0100
0010
0100
0000
0000
0000
0000
,
1000
0100
0010
0001
0100
0010
0100
0010
,
1000
0000
0001
0100
0010
1000
0001
0100
0010
0000
0000
0000
0000
0000
0000
0000
,
2000
0000
0000
0000
0010
0000
0000
0000
3010
0000
0100
0000
0100
0010
0100
0000
,
0001
1000
0001
0000
1000
0001
1000
0000
0001
0000
0100
0000
0010
0000
0001
0000
,
1100
0000
0000
0011
0000
0001
1000
0001
,
1000
0100
0010
0002
0000
1003
0100
1000
,
0001
0000
0000
0000
0100
0000
0000
0000
0100
0000
0010
0000
0100
0001
0100
0001
,
1000
0000
0000
0001
0000
0000
0100
0000
0001
0000
0000
1000
0000
0000
0100
0000
,
1000
0000
0000
0000
1000
0000
0100
0000
0000
0000
0010
0000
0001
0000
0100
0001
,
0100
0000
1000
0000
0001
1000
0100
0010
,
0100
0010
0001
0100
0010
1000
0001
0100
,
0002
0000
1000
0000
1003
0010
0100
0001
,
1000
0000
0100
0000
0010
0000
0001
0000
0010
0000
0001
0000
1000
0001
1000
0001
,
1000
0110
1001
0101
,
0002
0000
0000
0000
0010
0000
0000
0000
0013
0000
0100
0000
1000
0100
1000
0100
,
2000
0010
0001
3100
,
1100
0000
0000
0011
0000
0000
0100
0000
,
2002
0000
0000
3003
,
0020
0000
0000
0000
0000
0000
0000
0000
0000
0000
0000
0000
0030
0000
0100
0010
,
0100
0000
0000
0000
0000
0000
1000
0100
2000
0000
0000
0000
0000
0000
3001
0010
,
0002
0000
0000
0000
0000
0000
0000
0000
0000
0000
0000
0000
0003
0000
1000
0100
,
2000
0000
0000
0000
3000
0000
0001
1000
0001
0000
0000
0000
0000
0000
1000
0001
,
1000
0000
1000
0000
0100
0000
0100
1000
,
1001
0000
1000
0000
0001
0100
0010
1000
,
0010
1000
0100
1000
0100
1000
0001
0100
,
0001
0010
0001
0000
1000
0100
1000
0000
0001
0100
0001
0000
0010
0000
0200
0000
,
0000
0000
0000
0300
0000
2002
0000
0000
,
0000
0000
0000
0000
,
0000
0000
0000
0000
,
0000
0000
0000
0000
,
0000
0000
3003
0000
;

//---------------dance-double - ----------------
#NOTEDATA:;
#CHARTNAME:;
#STEPSTYPE:dance-double;
#DESCRIPTION:;
#CHARTSTYLE:;
#DIFFICULTY:Easy;
#METER:6;
#RADARVALUES:0.229575,0.320788,0.074171,0.173065,0.000000,195.000000,186.000000,9.000000,21.000000,0.000000,0.000000,0.000000,0.000000,0.000000,0.229575,0.320788,0.074171,0.173065,0.000000,195.000000,186.000000,9.000000,21.000000,0.000000,0.000000,0.000000,0.000000,0.000000;
#CREDIT:;
#NOTES:
00000000
00000000
00000000
00000000
,
00000000
00000000
00000000
00000000
,
00000000
00000000
00000000
00000000
,
00000000
00000000
00000000
00000000
,
00000000
00000000
00000000
00000000
,
00000000
00000000
00000000
00000000
,
10000000
01000000
10000000
01000000
,
10000000
01000000
00010000
00000000
,
00001000
00000100
00000001
00000100
,
00000001
00000100
00001000
00000000
,
00011000
00000000
00000000
00000000
,
00001000
00010000
01000000
00000000
,
10000000
00010000
10000000
00000000
,
01000000
00010000
00001000
00000000
,
00000100
00000001
00000010
00000000
,
00000100
00000010
00001000
00000000
,
00000001
00000010
00001000
00010000
,
01000000
10000000
01000000
00000000
,
00100000
00100000
00000000
00100000
,
00000000
00100000
10000000
01000000
,
00010000
00000000
00001000
00000000
,
00000001
00000000
00000010
00000000
,
00000010
00000100
00000001
00000010
,
00002000
00000000
00000000
00003000
,
00020000
00000000
00000000
00030000
,
00200000
00000000
00000000
00300000
,
00100000
00100000
10000000
00100000
,
00010000
00000000
00001000
00000000
,
00001000
00000010
00000001
00000010
,
00000001
00000010
00001000
00010000
,
00200000
00000000
00000000
00300000
,
10000000
10000000
10000000
10000000
,
20000000
00000000
00000000
30000000
,
10010000
00000000
00000000
00000000
,
01000000
00000000
00010000
00000000
,
00011000
00000000
00000000
00000000
,
00001000
00000000
00000100
00000000
,
00000110
00000000
00000000
00000000
,
00000001
00000000
00000000
00000000
,
00000000
00000000
00000000
00000000
,
10000000
00000000
00000000
00000000
,
00000000
00000000
00001000
00010000
,
00022000
00000000
00000000
00033000
,
00200000
00000000
00000000
00300000
,
20000000
00000000
00000000
30000000
,
02000000
00000000
00000000
03000000
,
10000000
01000000
00010000
00000000
,
00001000
00000010
00000001
00000000
,
00000001
00000000
00000100
00001000
,
00022000
00000000
00033000
00000000
,
00001000
00010000
00000100
00000000
,
00000000
00000000
00000000
00000000
,
00001000
00010000
00100000
00000000
,
00000000
00000000
00000000
00000000
,
00000010
00010000
00001000
00000000
,
00000000
00000000
00000000
00000000
,
00100000
00001000
01000000
00000000
,
00010000
10000000
00010000
00000000
,
00020000
10000000
10030000
10000000
,
10000000
00100000
00010000
00001000
,
00000010
00000000
00000001
00000000
,
00000001
00000100
00001000
00000000
,
00001001
00000000
00000000
00000000
,
00000001
00000100
00001000
00010000
,
00100000
00000000
10000000
00010000
,
10000000
01000000
00010000
00001000
,
00000100
00000000
00000001
00000000
,
00000002
00001000
00002000
00003003
,
00001000
00000001
00001000
00000001
,
00000001
00000100
00001000
00010000
,
00100000
01000000
00000000
00100000
,
00000000
00100000
10000000
00100000
,
00010000
00000000
00011000
00000000
,
00000220
00000000
00000000
00000330
,
00000001
00000100
00001000
00010000
,
01000000
10000000
20000000
00000000
,
30020000
00000000
00000000
00030000
,
20000000
30000000
00010000
00000000
,
10000000
01000000
00100000
00000000
,
00001000
00010000
00000100
00000000
,
00000001
00000100
00001000
00010000
,
01000000
10000000
00100000
01000000
,
00000000
00000000
00000000
00000000
00000000
02000000
00000000
00000000
,
00000000
00000000
00000000
00000000
,
00000000
00000000
00000000
00000000
,
00000000
00000000
00000000
00000000
,
00000000
00000000
03000000
00000000
,
00000000
00000000
00000000
00000000
;

//---------------dance-double - ----------------
#NOTEDATA:;
#CHARTNAME:;
#STEPSTYPE:dance-double;
#DESCRIPTION:;
#CHARTSTYLE:;
#DIFFICULTY:Medium;
#METER:9;
#RADARVALUES:0.350838,0.427717,0.156582,0.131859,0.008241,298.000000,279.000000,19.000000,16.000000,0.000000,0.000000,0.000000,0.000000,0.000000,0.350838,0.427717,0.156582,0.131859,0.008241,298.000000,279.000000,19.000000,16.000000,0.000000,0.000000,0.000000,0.000000,0.000000;
#CREDIT:;
#NOTES:
00000000
00000000
00000000
00000000
,
00000000
00000000
00000000
00000000
,
00000000
00000000
00000000
00000000
,
00000000
00000000
00000000
00000000
,
00000000
00000000
00000000
00000000
,
00000000
00000000
00000000
00000000
,
10000000
00000000
01000000
00000000
00010000
00001000
00000000
00000000
,
00000100
00000001
00000000
00000010
00000000
00000000
00000000
00000000
,
00000001
00000000
00001000
00000000
00000001
00000100
00000000
00000000
,
00000001
00000100
00000000
00001000
00000000
00000000
00000000
00000000
,
00011000
00000000
00001000
00000000
00010000
00001000
00000000
00000000
,
00010000
00001000
00000000
00010000
00000000
00000000
00000000
00000000
,
01000000
00000000
10000000
00000000
01000000
00100000
00000000
00010000
,
01000000
01000000
01000000
01000000
,
10000000
01000000
00010000
00001000
,
00001000
00000100
00000001
00001000
,
00000001
00000101
00000001
00000100
,
00001000
00000000
00022000
00033000
,
01000000
00000000
11000000
00000000
10000000
01000000
10000000
00000000
,
10000000
00010000
00010000
01100000
,
10000000
01000000
00010000
00001000
,
00000010
00000010
00000100
00001000
,
00000100
00000000
00000001
00000000
00000100
00000000
00001000
00020000
,
00000000
00000000
00100000
00000000
00130000
00000000
01000000
00200000
,
00000000
10000000
10000000
10300000
,
02000000
00010000
00010000
03010000
,
00001000
00000100
00000010
00000100
,
00000010
00000000
00001001
00000000
00000010
00000100
00000010
00000000
,
00000001
00000100
00001000
00010000
,
00100000
00000000
10000000
00000000
01000000
00000000
00100000
02000000
,
00000000
00100000
00100000
03100000
,
10000000
00000000
01000000
00000000
01000000
00000000
00100000
00020000
,
00000000
00001000
00001000
00031000
,
00011000
00000000
00000000
00000000
00001000
00000100
00000001
00000000
,
00000001
00000000
00000000
00000010
00000000
00000000
00000000
00000000
,
00000100
00000000
00000000
00000000
,
00011000
00000000
00000000
00110000
00000000
00000000
00000000
00000000
,
10100000
00000000
00000000
00000000
,
10000000
00000000
00000000
00010000
00000000
00000000
10000000
00000000
00000000
00000000
00000000
00000000
00000000
00000000
00000000
00000000
,
00000000
00000000
00000000
00000000
,
00000001
00000000
00000000
00001000
00000000
00000000
00000001
00000000
00000000
00000000
00000000
00000000
00000000
00000000
00000000
00000000
,
00000000
00000000
00000010
00001000
,
00020000
00000000
01000000
00000000
01000000
01030000
00000000
00000000
,
10000000
01000000
00000000
00100000
00000000
00000000
00000000
00000000
,
00010000
00000000
10000000
00000000
00100000
01000000
00000000
00000000
,
00001000
00010000
00000000
00001000
00000000
00000000
00000010
00000000
,
00000001
00000000
00001000
00000000
00000100
00001000
00000000
00000000
,
00000001
00000010
00000000
00000100
00000000
00000000
00000000
00000000
,
00011000
00000000
00000000
00010000
00001000
00010000
00001000
00010000
,
00001000
00010000
00000000
01000000
00000000
00000000
00000000
00000000
,
10000000
01000000
00010000
01000000
00000000
00000000
00000000
00000000
,
00000000
00000000
00000000
00000000
,
10000000
00100000
00010000
00001000
00000000
00000000
00000000
00000000
,
00000000
00000000
00000000
00000000
,
00001000
00000100
00000010
00000100
00000000
00000000
00000000
00000000
,
00000000
00000000
00000000
00000000
,
00000001
00000010
00001000
00010000
00000000
00000000
00000000
00000000
,
00010000
00001000
00010000
00000000
,
00100000
00010000
01000000
00000000
00010000
00000000
10000000
00100000
,
01000000
01010000
10000000
01000000
,
00010000
00001000
00000100
00000001
,
00001000
00000000
00000010
00001000
00000001
00000000
00000001
00000000
,
00000010
00001000
00010000
01000000
,
10000000
01000000
00010000
00001000
,
00000100
00000000
00000100
00000001
00000010
00000000
00000001
00000000
,
00000001
00000100
00001000
00010000
,
01100000
00000000
00010000
10000000
00100000
00000000
00010000
00000000
,
00020000
10000000
10000000
10030000
,
10000000
00010000
10000000
01000000
,
00010000
00001000
00000110
00000011
,
00001000
00000100
00000001
00000100
,
00001000
00000000
00000001
00000100
00001000
00000000
00010000
00000000
,
00011000
00000000
00000000
01000000
00000000
00000000
00001000
00000000
,
00022000
00000000
00000000
00033000
,
00010000
00001000
00010000
00000000
00001000
00000000
00010000
00000000
,
00001000
00000000
00000000
00000010
00000002
00000000
00000000
00000103
,
00002000
00000000
00000100
00000000
00000100
00000000
00003100
00000010
,
00020000
00000000
00030000
00001000
01000000
00000000
00000000
10000000
,
00010000
10000000
01000000
00000000
00100000
00000000
00100000
00000000
,
10010000
00000000
00010000
00000000
10000000
01000000
00010000
00000000
,
00001000
00000100
00000001
00000001
,
00001000
00000000
00000001
00000100
00001000
00010000
00100000
00000000
,
00000000
00000000
00000000
00000000
00000000
20200000
00000000
00000000
,
00000000
00000000
00000000
00000000
,
00000000
00000000
00000000
00000000
,
00000000
00000000
00000000
00000000
,
00000000
00000000
30300000
00000000
,
00000000
00000000
00000000
00000000
;

//---------------dance-double - ----------------
#NOTEDATA:;
#CHARTNAME:;
#STEPSTYPE:dance-double;
#DESCRIPTION:;
#CHARTSTYLE:;
#DIFFICULTY:Hard;
#METER:13;
#RADARVALUES:0.473279,0.605932,0.098894,0.123618,0.070050,402.000000,390.000000,12.000000,15.000000,0.000000,0.000000,0.000000,0.000000,0.000000,0.473279,0.605932,0.098894,0.123618,0.070050,402.000000,390.000000,12.000000,15.000000,0.000000,0.000000,0.000000,0.000000,0.000000;
#CREDIT:;
#NOTES:
00000000
00000000
00000000
00000000
,
00000000
00000000
00000000
00000000
,
00000000
00000000
00000000
00000000
,
00000000
00000000
00000000
00000000
,
00000000
00000000
00000000
00000000
,
00000000
00000000
00000000
00000000
,
00000001
00000000
00001000
00000000
00000001
00000100
00000000
00000001
,
00000000
00000010
00000001
00001000
00000001
00000000
00000100
00001000
,
00010000
00000000
01000000
00000000
10000000
01000000
00000000
10000000
,
00000000
00100000
01000000
00010000
01000000
00000000
01000000
00100000
,
00022000
00000000
00000000
00033000
,
00000000
00010000
00001000
00010000
00001000
00000000
00010000
01000000
,
10000000
00000000
10000000
00000000
00010000
00100000
00000000
10000000
,
00000000
01000000
10000000
00010000
10000000
01000000
00010000
00001000
,
00000100
00000000
00000001
00000000
00001000
00000100
00000000
00001000
,
00000000
00000010
00001000
00000001
00000100
00000001
00000100
00001000
,
00010000
01000000
10000000
10000000
,
10000000
01000000
00010000
00001000
00022000
00000000
00033000
00000000
,
00001000
00010000
00000100
00000000
00001000
00000100
00000010
00000000
,
00000001
00001000
00000100
00000000
00000010
00001000
00010000
00000000
,
00001000
00010000
00001000
00000000
00010000
01000000
10000000
00000000
,
10000000
00000000
00000000
10000000
00100000
10000000
00100000
01000000
,
00000000
00000000
00100000
00000000
00010000
00000000
00001000
00000100
,
00000000
00000001
00000000
00000100
00000000
00000001
00000000
00000010
,
00000000
00000001
00000100
00001000
,
00010000
01000000
10000000
00010000
,
10000000
00010000
01000000
00000000
00100000
01000000
00010000
00000000
,
00100000
00010000
10000000
00000000
00100000
01000000
00001000
00000000
,
00010000
00001000
00000000
00000100
00000010
00001000
00000001
00000100
,
00000000
00000010
00000000
00001000
00000001
00000100
00000001
00000200
,
00000000
00001000
00001000
00001300
,
00010000
00000000
01000000
00100000
01000000
00100000
01000000
20000000
,
00000000
00000000
00000000
00000000
00010000
00000000
00000000
00000000
00010000
00000000
00000000
00000000
30010000
00000000
00100000
01000000
,
00200000
00000000
00010000
00310000
,
00011000
00000000
00000000
00010100
00000000
00000000
00000000
00000000
,
00001010
00000000
00000000
00000000
,
00000101
00000000
00000000
00001100
00000000
00000000
00000000
00000000
,
00011000
00000000
00000000
00000000
,
00001000
00000000
00000000
00010000
00000000
00000000
00001000
00000000
00000000
00000000
00000000
00000000
00010000
00000000
01000000
00000000
,
10000000
00010000
01000000
00100000
00000000
00000000
00000000
00000000
,
10000000
00000000
00000000
00010000
00000000
00000000
10000000
00000000
00000000
00000000
00000000
00000000
01000000
00000000
00100000
00000000
,
00010000
00100000
01000000
00000000
10000000
01000000
00010000
00001000
,
00000200
00000300
00000001
00000000
,
00000001
00000100
00000000
00000001
00000100
00001000
00010000
00000000
,
00200000
00300000
10000000
02000000
,
00100000
00100000
00000000
03100000
00000000
00010000
00100000
00010000
,
10000000
00000000
00000000
00000000
00000000
00000000
00100000
10000000
00010000
00000000
00000000
00000000
00000000
00000000
10000000
00000000
,
01000000
00010000
00000000
00001000
00000000
00000100
00000001
00000010
,
00000100
00000000
00000000
00000001
00000100
00001000
00010000
00000000
,
02000000
00000000
03000000
00000000
,
00010000
01000000
00100000
10000000
00000000
00000000
00000000
00000000
,
10000000
01000000
00010000
00001000
00000000
00000000
00000000
00000000
,
00000010
00000100
00000010
00001000
00000000
00000000
00000000
00000000
,
00000001
00000100
00001000
00010000
00000000
00000000
00000000
00000000
,
00001000
00010000
00100000
10000000
00000000
00000000
00000000
00000000
,
10000000
01000000
00100000
00010000
00000000
00000000
00000000
00000000
,
00010000
00001000
00000100
00000001
00000000
00000000
00000000
00000000
,
00001000
00000001
00000100
00000010
00001000
00000000
00000000
00000000
,
00001000
00010000
00000000
00000000
00010000
01000000
00000000
00000000
01000000
10000000
00000000
00000000
10000000
00000000
00010000
00000000
,
10000000
00010000
01000000
00100000
10000000
00000000
01000000
00000000
,
00010000
00000000
00010000
00001000
00000000
00001000
00000100
00000001
,
00001000
00000100
00000010
00000001
00000000
00001000
00000100
00000000
,
00000001
00000000
00000000
00000000
00000100
00000000
00000000
00000000
00001000
00000000
00000000
00000000
00010000
00001000
00010000
00001000
,
00010000
00000000
00000000
00001000
00000000
00000000
00010000
00000000
01000000
00000000
00000000
10000000
00000000
00000000
01000000
00000000
,
10000000
00000000
00000000
00000000
00010000
00000000
01000000
00000000
00000000
00000000
00010000
00000000
10000000
00000000
01000000
10000000
,
01000000
00000000
00000000
00000000
10000000
00000000
00000000
00000000
01000000
00000000
00000000
01000000
00010000
00000000
00001000
00000000
,
00010000
00000000
00000010
00000100
00000010
00001000
00000001
00000010
,
00000001
00000110
00001000
00010000
,
01000000
00100000
01000000
00100000
10000000
00010000
00100000
00010000
,
10000000
01000000
00000000
00000000
01000000
00010000
00000000
00000000
00010000
00001000
00000000
00000000
00001000
00000100
00000000
00000000
,
00000001
00000000
00000010
00000001
00000100
00000001
00001000
00000100
,
00001000
00000010
00000100
00000001
00001000
00000001
00000100
00001000
,
00010000
00000000
00010000
01000000
00000000
01000000
10000000
00000000
,
20020000
00000000
00000000
30030000
,
01000000
00100000
10000000
00000000
00010000
00000000
00100000
01000000
,
00100000
00010000
00100000
01000000
10000000
01000000
00010000
00001000
,
00000100
00000000
00000001
00000000
00001000
00000000
00000001
00001000
,
00000010
00000100
00000001
00001000
00000001
00000100
00001000
00000000
,
00010000
01000000
10000000
01000000
,
10010000
00000000
00100000
01000000
00010000
01000000
00100000
10000000
,
01000000
00010000
00001000
00000000
00000010
00000100
00001000
00000000
,
00000010
00000100
00000001
00001000
00000010
00000100
00001000
00010000
,
00000000
00000000
00000000
00000000
00000000
22000000
00000000
00000000
,
00000000
00000000
00000000
00000000
,
00000000
00000000
00000000
00000000
,
00000000
00000000
00000000
00000000
,
00000000
00000000
33000000
00000000
,
00000000
00000000
00000000
00000000
;

//---------------dance-single - ----------------
#NOTEDATA:;
#CHARTNAME:;
#STEPSTYPE:dance-single;
#DESCRIPTION:;
#CHARTSTYLE:;
#DIFFICULTY:Challenge;
#METER:15;
#RADARVALUES:0.791152,0.931767,0.222512,0.296682,0.531555,672.000000,645.000000,27.000000,36.000000,0.000000,0.000000,0.000000,0.000000,0.000000,0.791152,0.931767,0.222512,0.296682,0.531555,672.000000,645.000000,27.000000,36.000000,0.000000,0.000000,0.000000,0.000000,0.000000;
#CREDIT:;
#NOTES:
// measure 0
0000
0000
0000
0000
,  // measure 1
0000
0000
0000
0000
,  // measure 2
0000
0000
0000
0000
,  // measure 3
0000
0000
0000
0000
,  // measure 4
0000
0000
0000
0000
,  // measure 5
0000
0000
0000
0000
,  // measure 6
1000
0100
1000
0100
0010
0001
0010
0001
,  // measure 7
1000
0100
0010
0001
0100
0010
0100
0010
,  // measure 8
1000
0000
0001
0010
0001
0010
0100
1000
,  // measure 9
0100
1000
0001
0010
0100
1000
0100
0010
,  // measure 10
1001
0000
0001
0100
1000
0100
0000
0101
,  // measure 11
0000
0001
0010
0100
1000
0010
1000
0010
,  // measure 12
0100
0000
0001
0000
1000
0100
0001
0100
,  // measure 13
0010
0001
1000
0010
0100
0001
0010
0100
,  // measure 14
1000
0100
1000
0100
0010
0001
0010
0001
,  // measure 15
0100
0010
0100
0010
1000
0010
1000
0010
,  // measure 16
0100
0001
0100
0001
0010
1000
0010
1000
,  // measure 17
0010
0001
0010
0001
0100
0000
0010
0100
0020
0000
0000
0000
0030
0000
0000
0000
,  // measure 18
1000
0001
1000
0000
0010
0000
0010
0000
0001
1000
0001
0000
0100
0000
0100
0000
,  // measure 19
1000
0001
1000
0000
0010
0000
0010
0000
0001
1000
0001
0000
0100
0000
0010
0000
,  // measure 20
1000
0010
1000
0000
0100
0000
0010
0000
0001
0100
0001
0000
0010
0000
0100
0000
,  // measure 21
1000
0010
1000
0000
0100
0000
0010
0000
0001
0100
0001
0000
1000
0000
0100
0000
,  // measure 22
1000
0001
1000
0000
1000
0000
0000
0000
0010
0100
0010
0000
0010
0000
0000
0000
,  // measure 23
0100
0001
0100
0000
0100
0000
0010
0000
1000
0001
1000
0000
1000
0000
0001
0000
,  // measure 24
0100
0010
0100
0000
0010
1000
0010
0000
1000
0001
1000
0000
0010
0000
0110
0000
,  // measure 25
0000
0000
1000
0100
0010
0001
1000
0100
,  // measure 26
0010
0001
0000
0100
0001
0000
1000
0000
0010
0100
0000
0001
0100
0000
0010
0000
,  // measure 27
1000
0100
1000
0000
0001
0000
0001
0000
0010
0001
0010
0000
0100
0000
1000
0000
,  // measure 28
0010
0100
0010
0000
0100
0000
0001
0000
1000
0100
1000
0000
0010
0000
0100
0000
,  // measure 29
0001
0000
0000
0000
0001
0000
0010
0001
0100
0000
0010
0000
1000
0000
0100
0000
,  // measure 30
0010
0000
0100
0010
0001
0000
1000
0001
0100
0000
0001
1000
0010
0000
1000
0000
,  // measure 31
0001
0000
0010
0001
1000
0000
0010
1000
0001
0000
1000
0010
0100
0000
0010
0000
,  // measure 32
0100
0000
0000
0100
0001
0000
0000
0001
1000
0000
0000
1000
0001
0000
1000
0100
,  // measure 33
0010
0000
0001
0000
1000
0000
0001
0010
0100
0000
1000
0000
0100
0010
0100
0000
,  // measure 34
0020
0000
0000
0000
0000
0000
0030
0001
1000
0001
0000
0000
0000
0000
0100
0010
,  // measure 35
1000
0000
0010
0100
0001
0000
0010
0100
0010
0000
0100
1000
0100
1000
0001
0000
,  // measure 36
0100
0000
0010
0000
1000
0000
0010
0000
0000
0000
0100
0001
0100
0001
0100
0000
,  // measure 37
0020
0000
0000
0000
0000
0000
0000
0000
0030
0000
1000
0000
0001
1000
0001
0000
,  // measure 38
0101
0000
0000
0110
0000
0000
0010
1000
0010
0100
0001
0000
0010
0000
0100
0000
,  // measure 39
1000
0000
0001
0010
0001
0000
0100
0000
0010
0000
1000
0100
1000
0010
1000
0000
,  // measure 40
1001
0000
0000
0011
0000
0000
0110
0000
0000
0000
0100
1000
0100
0000
1000
0000
,  // measure 41
0010
0000
0000
0000
0100
0000
0000
0000
0001
0000
0000
0000
0010
0000
0000
0100
0000
0000
1000
0000
0000
0001
0000
0000
,  // measure 42
0200
0000
0000
0000
0000
0000
0310
1000
0002
0000
0000
0000
0000
0000
0103
0010
,  // measure 43
2000
0010
0000
3100
0001
0010
0100
0010
,  // measure 44
0002
0000
0000
0000
0000
0000
1003
0100
2000
0000
0010
0000
0000
0000
3100
0000
,  // measure 45
0002
0000
1000
0000
0000
0000
0013
0000
0100
0001
0100
0001
0100
0001
0100
0001
,  // measure 46
0200
0000
0000
0000
0000
0000
0310
1000
0002
0000
1000
0000
0000
0000
0013
0000
,  // measure 47
0100
0000
0002
0000
0000
0000
1003
0000
0010
0100
0010
0100
0001
0100
0001
0100
,  // measure 48
0020
0000
0000
1030
0100
0001
0100
1000
,  // measure 49
0002
0000
0100
0000
0000
0000
0103
0000
0000
0000
0010
1000
0100
1000
0100
0010
,  // measure 50
0001
0010
1000
0010
0001
0200
0000
0310
,  // measure 51
1000
0100
0010
0200
0000
1300
0001
0010
,  // measure 52
0001
0100
0010
1000
0010
0200
0000
0301
,  // measure 53
0010
0100
1000
0001
0010
0100
1000
0001
,  // measure 54
0100
0010
1000
0010
0100
0101
0000
0011
,  // measure 55
0000
1010
0000
0010
0001
0100
0010
1000
,  // measure 56
0100
0010
0100
0000
0010
0000
0001
0000
1000
0001
1000
0000
0010
0000
0100
0000
,  // measure 57
0001
0010
0001
0010
0100
1000
0100
1000
0010
0100
0010
0100
0001
0010
0001
0010
,  // measure 58
0200
0000
0000
0000
1000
0000
0000
0000
1300
0000
0001
0000
0100
0001
0010
0000
,  // measure 59
0001
0100
0010
1000
0000
1010
0000
0010
,  // measure 60
0100
0000
0001
0000
0010
0000
0001
0000
1000
0100
1000
0000
0010
0000
0100
0000
,  // measure 61
0001
0000
0100
0000
0010
0000
2000
0000
0000
0000
3001
0100
0001
0100
0001
0000
,  // measure 62
0020
0000
0000
0000
0031
0000
0000
0000
1000
0000
0001
0010
0001
0010
0100
0000
,  // measure 63
1000
0000
0000
1010
0000
0000
0110
0000
0101
0000
0000
0011
0000
0000
1001
0000
,  // measure 64
2010
0000
0000
0000
3001
0000
1000
0000
0020
0000
0000
0000
0130
0000
0001
1000
,  // measure 65
0001
0000
0000
0100
0001
0000
0010
0000
0100
1000
0100
1000
0010
0000
0100
0000
,  // measure 66
0001
0000
0010
0000
1000
0000
0020
0000
0000
0000
0031
0100
0001
0000
1000
0000
,  // measure 67
0010
0000
0100
0001
1000
0000
0100
0000
0010
0000
0001
0000
0100
0000
0010
0000
,  // measure 68
1010
0000
1000
0000
0100
0000
0010
0000
0001
1000
0001
1000
0100
0010
0100
0010
,  // measure 69
0001
0000
1001
0000
1010
0000
0110
0100
,  // measure 70
0102
0000
0000
0000
0013
0100
1000
0100
0020
0000
0001
0000
1030
0001
1000
0010
,  // measure 71
1000
0100
0001
0100
1000
0010
0100
0001
,  // measure 72
0022
0000
0033
2200
0000
3300
1000
0001
,  // measure 73
1000
0010
1000
0010
0100
0001
0100
0001
1000
0100
1000
0100
0010
0001
0010
0001
,  // measure 74
0200
0000
0000
0000
0000
0000
0000
0000
0000
0000
0000
0000
0310
1000
0010
1000
,  // measure 75
0200
0000
0000
0000
0000
0000
0310
0001
2000
0000
0000
0000
0000
0000
3010
0100
,  // measure 76
0002
0000
0000
0000
0103
0000
0001
0000
0100
0000
0010
0000
1000
0000
0100
0010
,  // measure 77
0001
0000
0010
0000
0100
0000
1000
0001
0200
0000
0000
0000
0000
0000
0310
1000
,  // measure 78
0001
0010
0001
0000
1000
0100
1000
0001
,  // measure 79
0011
0000
0000
1000
0100
0010
0100
1000
,  // measure 80
0001
0010
0100
1000
1000
0100
0010
0001
,  // measure 81
0010
0100
0010
0100
1000
0001
1000
0001
0100
0001
0100
0001
0010
0000
0100
1000
,  // measure 82
0100
0000
1000
0000
0001
0000
0010
0001
0010
0000
2002
0000
0000
0000
0000
0000
,  // measure 83
0000
0000
0000
3003
;
