#TITLE:Across the nightmare;
#SUBTITLE:;
#ARTIST:Jimmy Weckl;
#TITLETRANSLIT:;
#SUBTITLETRANSLIT:;
#ARTISTTRANSLIT:;
#GENRE:;
#CREDIT:;
#BANNER:Across the nightmare.png;
#BACKGROUND:Across the nightmare-bg.png;
#LYRICSPATH:;
#CDTITLE:;
#MUSIC:Across the nightmare.ogg;
#OFFSET:0.000000;
#SAMPLESTART:34.396000;
#SAMPLELENGTH:15.000000;
#SELECTABLE:YES;
#DISPLAYBPM:300.000000;
#BPMS:0.000000=300.000000
;
#STOPS:
;
#BGCHANGES:;
#KEYSOUNDS:;
#ATTACKS:;

//---------------dance-single - ----------------
#NOTES:
     dance-single:
     :
     Edit:
     15:
     0.923764,1.107422,1.021635,0.084135,0.096154,538.000000,453.000000,85.000000,7.000000,0.000000,0.000000,0.923764,1.107422,1.021635,0.084135,0.096154,538.000000,453.000000,85.000000,7.000000,0.000000,0.000000:
// measure 0
0000
0000
0000
0000
,  // measure 1
0000
0000
0000
0000
,  // measure 2
0000
0000
0000
0000
,  // measure 3
0000
0000
0000
0000
,  // measure 4
0000
0000
0000
0000
,  // measure 5
0000
0000
0000
0000
,  // measure 6
0000
0000
0000
0000
,  // measure 7
0000
0000
0000
0000
,  // measure 8
0000
0000
0000
0000
,  // measure 9
0000
0000
0000
0000
,  // measure 10
0000
0000
0000
0000
,  // measure 11
1001
0000
0000
1010
0000
0000
0010
0000
,  // measure 12
0110
0000
0000
0101
0000
0000
1000
0000
,  // measure 13
1010
0000
0000
0110
0000
0000
0001
0000
,  // measure 14
1001
0000
0000
2020
0000
0000
3030
0000
,  // measure 15
0110
0000
0000
1010
0000
0000
0001
0000
,  // measure 16
0101
0000
0000
0110
0000
0000
0010
0000
,  // measure 17
1010
0000
0000
1001
0000
0000
0001
0000
,  // measure 18
0101
0000
0000
0110
0000
0000
1010
0000
,  // measure 19
0001
0100
0010
0100
,  // measure 20
0001
0000
1000
0000
0010
1000
0010
0000
,  // measure 21
0100
0001
0100
0001
0100
1000
0100
1000
,  // measure 22
0100
0010
0100
0010
1000
0010
1000
0000
,  // measure 23
1001
0001
0101
0100
,  // measure 24
0110
0000
0010
0100
0000
0001
0100
0000
,  // measure 25
0101
0000
0000
0110
0000
0000
1100
0000
,  // measure 26
0101
0000
0000
0011
0000
0000
0100
0000
,  // measure 27
1010
0010
1001
1000
,  // measure 28
0110
0000
0001
0100
0001
0000
1000
0000
,  // measure 29
1010
0000
0000
0110
0000
0000
0101
0000
,  // measure 30
0011
0000
0000
1001
0000
0000
0000
0000
,  // measure 31
1010
0010
0110
0100
,  // measure 32
0101
0000
0001
1000
0001
0000
1010
0000
,  // measure 33
0110
0000
0000
0101
0000
0000
1001
0000
,  // measure 34
1010
0000
0000
1001
0000
0000
0001
0000
,  // measure 35
1000
0001
1000
0000
0001
0010
0001
0100
,  // measure 36
0010
1000
0010
0100
0001
0000
1000
0100
,  // measure 37
1000
0100
0010
0001
1000
0001
0010
0100
,  // measure 38
1000
0000
0000
0110
0000
0000
0011
0000
,  // measure 39
0001
0100
1000
0100
,  // measure 40
0001
0010
1000
0010
,  // measure 41
0001
0100
0001
0100
0001
1000
0010
1000
,  // measure 42
0010
1000
0001
0100
0001
0100
0010
0000
,  // measure 43
1000
0001
1000
0001
0100
0010
0100
0010
,  // measure 44
1000
0010
1000
0010
0100
0001
0100
0000
,  // measure 45
0001
0100
0001
0100
0010
1000
0010
1000
,  // measure 46
0001
0010
0001
0010
0001
0000
0000
0000
,  // measure 47
1000
0010
1000
0010
1000
0100
1000
0100
,  // measure 48
1000
0100
0010
0001
1000
0001
0010
0100
,  // measure 49
1000
0010
1000
0010
0100
0001
0100
0001
,  // measure 50
0010
0100
0010
0100
1000
0000
0000
0000
,  // measure 51
0010
1000
0010
1000
0010
0100
0010
0100
,  // measure 52
0010
0100
0001
0100
0001
0100
0001
0000
,  // measure 53
1000
0100
1000
0100
1000
0001
1000
0001
,  // measure 54
1000
0001
0010
0001
0010
0000
0000
0000
,  // measure 55
0001
0100
0001
0100
0001
1000
0001
1000
,  // measure 56
0001
1000
0010
1000
0010
1000
0010
0100
,  // measure 57
0001
0010
0100
1000
0010
0100
0001
0010
,  // measure 58
0100
0000
0000
1000
0000
0000
0001
0000
0000
0000
1000
0000
0000
0000
0000
0000
1001
0000
0000
0000
0000
0000
0000
0000
,  // measure 59
0101
0000
0000
0000
1001
0000
0000
0000
1010
0000
0000
0000
,  // measure 60
0110
0000
0000
0000
0101
0000
0000
0000
1001
0000
0000
0000
,  // measure 61
1010
0000
0000
0000
0110
0000
0000
0000
0101
0000
0000
0000
,  // measure 62
0011
0000
0000
0000
0110
0000
0000
0000
1100
0000
0000
0000
,  // measure 63
1001
0000
0000
0000
0101
0000
0000
0000
1100
0000
0000
0000
,  // measure 64
0101
0000
0000
0000
0011
0000
0000
0000
1010
0000
0000
0000
,  // measure 65
1100
0000
0000
0000
0101
0000
0000
0000
1001
0000
0000
0000
,  // measure 66
0110
0000
0110
0010
,  // measure 67
1000
0000
0000
1000
0001
0000
0000
0001
,  // measure 68
0100
0010
0100
0000
0001
0000
1000
0000
,  // measure 69
0010
1000
0001
1000
,  // measure 70
0100
0001
0100
1000
0000
0000
0000
0000
,  // measure 71
1001
0000
0001
0000
0100
0001
0000
1000
,  // measure 72
0001
0100
0001
0000
1000
0000
0010
0000
,  // measure 73
1000
0001
0100
0001
,  // measure 74
0100
0000
0010
0000
1000
0001
1000
0000
,  // measure 75
0001
0000
0100
0001
1000
0000
0000
0001
,  // measure 76
0100
0010
0100
0001
0010
0100
1000
0001
,  // measure 77
1000
0020
0000
0000
0000
0130
0000
0010
,  // measure 78
1000
0100
0010
0001
0000
0000
0000
0000
,  // measure 79
0101
0100
0010
1000
,  // measure 80
0010
0100
0001
0000
0100
0001
1000
0000
,  // measure 81
1000
0010
0100
0001
,  // measure 82
1001
0000
0000
1010
0000
0000
0110
0000
,  // measure 83
0010
1000
0100
0001
,  // measure 84
0100
1000
0001
0010
,  // measure 85
0001
0100
0001
0100
0010
0100
0010
1000
,  // measure 86
0010
1000
0001
0100
0001
0100
0001
0000
,  // measure 87
0100
0010
0000
1000
0010
0000
0100
0001
,  // measure 88
0000
0100
0001
0000
1000
0001
1000
0001
,  // measure 89
0200
0000
0320
0000
,  // measure 90
1030
0010
1000
0010
0100
0000
0000
0000
,  // measure 91
1001
1000
0010
0100
,  // measure 92
0010
0000
1000
0000
0100
0010
0001
0000
,  // measure 93
0101
0100
0010
1000
,  // measure 94
1100
0000
0000
1001
0000
0000
0000
0000
,  // measure 95
0001
0100
0001
0100
0010
0100
0010
0000
,  // measure 96
1000
0100
0001
0000
0100
1000
0001
0000
,  // measure 97
0101
0110
1010
1001
,  // measure 98
0202
0000
0303
0110
0000
0000
0000
0000
,  // measure 99
1000
0100
0001
0100
1000
0010
0001
0010
,  // measure 100
1000
0001
0100
0001
1000
0001
0100
0001
,  // measure 101
1000
0010
0100
0010
0001
0010
0100
0010
,  // measure 102
0011
0000
0000
1001
0000
0000
0000
0000
;

//---------------dance-single - ----------------
#NOTES:
     dance-single:
     :
     Beginner:
     7:
     0.314217,0.369591,0.144231,0.000000,0.000000,183.000000,171.000000,12.000000,0.000000,0.000000,0.000000,0.314217,0.369591,0.144231,0.000000,0.000000,183.000000,171.000000,12.000000,0.000000,0.000000,0.000000:
0000
0000
0000
0000
,
0000
0000
0000
0000
,
0000
0000
0000
0000
,
0000
0000
0000
0000
,
0000
0000
0000
0000
,
0000
0000
0000
0000
,
0000
0000
0000
0000
,
0000
0000
0000
0000
,
0000
0000
0000
0000
,
0000
0000
0000
0000
,
0000
0000
0000
0000
,
1000
0000
0000
0000
,
0100
0000
0000
0000
,
0001
0000
0000
0000
,
0100
0000
0000
0000
,
1000
0000
0000
0000
,
0100
0000
0000
0000
,
0001
0000
0000
0000
,
0100
0000
0000
0110
,
0000
0010
0000
0010
,
0000
0100
0000
0100
,
0000
0001
0000
0001
,
0000
1000
0000
1000
,
1000
0000
0001
0000
,
1000
0000
0001
0000
,
0100
0000
0100
0000
,
0010
0000
0010
0000
,
0001
0000
1000
0000
,
0001
0000
1000
0000
,
0100
0000
0100
0000
,
0010
0000
0010
0000
,
0100
0000
0010
0000
,
0100
0000
0010
0000
,
1000
0000
1000
0000
,
0001
0000
0001
0000
,
1000
0000
0010
0000
,
0100
0000
0001
0000
,
0010
0000
0100
0000
,
1000
0000
0000
1001
,
0000
0100
0000
0100
,
0000
0010
0000
0010
,
0000
1000
0000
0001
,
0000
1000
0000
0001
,
0001
0000
0001
0000
,
0010
0000
0010
0000
,
0100
0000
0100
0000
,
1000
0000
1001
0000
,
0001
0000
0001
0000
,
0010
0000
0010
0000
,
0100
0000
0100
0000
,
1000
0000
1001
0000
,
1000
0000
0001
0000
,
1000
0000
0001
0000
,
0100
0000
0010
0000
,
0100
0000
0110
0000
,
0001
0000
1000
0000
,
0001
0000
1000
0000
,
0100
0000
0010
0000
,
0100
0000
0110
0000
,
1000
0000
0000
0001
,
0001
0000
0000
0100
,
0100
0000
0000
0010
,
0010
0000
0000
1000
,
1000
0000
0000
0100
,
0100
0000
0000
0010
,
0010
0000
0000
0001
,
0001
0000
1001
0000
,
1000
0000
1000
0000
,
0100
0000
0001
0000
,
0100
0000
1000
0000
,
1000
1000
0000
0000
,
0001
0000
0001
0000
,
0100
0000
1000
0000
,
0100
0000
0001
0000
,
0001
0001
0000
0000
,
1000
0000
0100
0000
,
0001
0000
0010
0000
,
0100
0000
1000
0000
,
0100
0100
0000
0000
,
0001
0000
0010
0000
,
1000
0000
0010
0000
,
0001
0000
0010
0000
,
0100
0000
0000
0110
,
0000
0100
0000
0100
,
0000
0010
0000
0010
,
0000
1000
0000
0001
,
0000
1000
0000
0001
,
0001
0000
0000
0000
,
1000
0000
0000
0000
,
0010
0000
0000
0000
,
0100
0000
0110
0000
,
1000
0000
0000
0000
,
0001
0000
0000
0000
,
0010
0000
0000
0000
,
0100
0000
0110
0000
,
1000
0000
1000
0000
,
0100
0000
0100
0000
,
0001
0000
0001
0000
,
0100
0000
0110
0000
,
1000
0000
0010
0000
,
0001
0000
0010
0000
,
1000
0000
0001
0000
,
0100
0000
0110
0000
,
0000
0000
0000
0000
;

//---------------dance-single - ----------------
#NOTES:
     dance-single:
     :
     Easy:
     8:
     0.384615,0.553711,0.228365,0.000000,0.000000,224.000000,205.000000,19.000000,0.000000,0.000000,0.000000,0.384615,0.553711,0.228365,0.000000,0.000000,224.000000,205.000000,19.000000,0.000000,0.000000,0.000000:
0000
0000
0000
0000
,
0000
0000
0000
0000
,
0000
0000
0000
0000
,
0000
0000
0000
0000
,
0000
0000
0000
0000
,
0000
0000
0000
0000
,
0000
0000
0000
0000
,
0000
0000
0000
0000
,
0000
0000
0000
0000
,
0000
0000
0000
0000
,
0000
0000
0000
0000
,
1000
0000
0000
1000
0000
0000
0000
0000
,
0001
0000
0000
0001
0000
0000
0000
0000
,
1000
0000
0000
1000
0000
0000
0000
0000
,
0100
0000
0000
0110
0000
0000
0000
0000
,
0001
0000
0000
0001
0000
0000
0000
0000
,
1000
0000
0000
1000
0000
0000
0000
0000
,
0001
0000
0000
0001
0000
0000
0000
0000
,
0100
0000
0000
0100
0000
0000
0110
0000
,
0000
0010
0000
0010
,
0000
1000
0000
1000
,
0000
0001
0000
0001
,
0000
0100
0000
0010
,
1000
0000
1000
0000
,
1000
0000
0000
1000
0000
0000
1000
0000
,
0001
0000
1001
0000
,
0010
0000
0110
0000
,
0001
0000
0001
0000
,
0001
0000
0000
0001
0000
0000
0001
0000
,
1000
0000
1001
0000
,
0010
0000
0110
0000
,
1000
0000
0001
0000
,
1000
0000
0000
0001
0000
0000
1000
0000
,
0001
0000
1001
0000
,
0100
0000
0110
0000
,
0010
1000
0010
1000
,
0001
1000
0001
1000
,
0001
0100
0001
0100
,
0010
0000
0000
0100
0000
0000
0110
0000
,
0000
0100
0000
0100
,
0000
0010
0000
0010
,
0000
1000
0000
0001
,
0000
1000
0000
0001
,
1000
0000
1000
0000
,
0100
0000
0100
0000
,
0010
0000
0010
0000
,
0001
0000
1001
0000
,
0001
0000
0001
0000
,
0100
0000
0100
0000
,
0010
0000
0010
0000
,
1000
0000
1001
0000
,
1000
0000
0100
0000
,
0001
0000
0100
0000
,
1000
0000
0100
0000
,
0010
0000
0110
0000
,
0001
0000
0010
0000
,
1000
0000
0010
0000
,
0001
0000
0010
0000
,
0100
0000
0110
0000
,
0010
0000
0000
0010
,
0001
0000
0000
0001
,
1000
0000
0000
1000
,
0100
0000
0000
0100
,
0010
0000
0000
0010
,
0001
0000
0000
0001
,
1000
0000
0000
1000
,
0100
0000
0110
0000
,
0010
0000
0010
0000
,
0001
0000
1000
0000
,
0001
0000
0100
0000
,
0010
0100
0000
0000
,
0010
0000
0010
0000
,
1000
0000
0001
0000
,
1000
0000
0100
0000
,
0010
0100
0000
0010
,
1000
0000
0001
0000
,
0100
0000
0001
0000
,
0010
0000
0001
0000
,
0010
0100
0000
0000
,
0001
0000
1000
0000
,
0100
0000
1000
0000
,
0010
0000
1000
0000
,
0100
0000
0000
0010
0000
0000
0110
0000
,
0000
0100
0000
0100
,
0000
0010
0000
0010
,
0000
0001
0000
1000
,
0000
0001
0000
1000
,
0010
0000
0000
0010
0000
0000
0010
0000
,
0000
0010
0000
0000
0010
0000
0000
0000
,
1000
0000
0001
0000
,
1000
0000
0000
1001
0000
0000
0000
0000
,
0100
0000
0100
0000
,
0100
0010
0100
0010
,
1000
0000
0001
0000
,
1000
0000
0000
1001
0000
0000
0000
0000
,
1000
0100
0010
0001
,
0010
0100
1000
0001
,
1000
0000
0001
0000
,
1000
0000
0000
1001
0000
0000
0000
0000
,
0100
0000
0010
0000
,
1000
0000
0000
0001
0000
0000
1000
0000
,
0100
0000
0010
0000
,
0001
0000
0000
1001
0000
0000
0000
0000
,
0000
0000
0000
0000
;

//---------------dance-single - ----------------
#NOTES:
     dance-single:
     :
     Medium:
     10:
     0.496223,0.615234,0.180288,0.156250,0.084135,289.000000,274.000000,15.000000,13.000000,0.000000,0.000000,0.496223,0.615234,0.180288,0.156250,0.084135,289.000000,274.000000,15.000000,13.000000,0.000000,0.000000:
0000
0000
0000
0000
,
0000
0000
0000
0000
,
0000
0000
0000
0000
,
0000
0000
0000
0000
,
0000
0000
0000
0000
,
0000
0000
0000
0000
,
0000
0000
0000
0000
,
0000
0000
0000
0000
,
0000
0000
0000
0000
,
0000
0000
0000
0000
,
0000
0000
0000
0000
,
1000
0000
0000
0100
0000
0000
0000
0000
,
1000
0000
0000
1001
0000
0000
0000
0000
,
0001
0000
0000
0100
0000
0000
0000
0000
,
1000
0000
0000
1001
0000
0000
0000
0000
,
0010
0000
0000
1000
0000
0000
0000
0000
,
0010
0000
0000
0110
0000
0000
0000
0000
,
0100
0000
0000
0001
0000
0000
0000
0000
,
0100
0000
0000
0010
0000
0000
0110
0000
,
0000
0100
0000
0100
,
0000
0010
0000
0010
,
1000
0001
1000
0001
,
1000
0001
1000
0001
,
1000
0010
1000
0010
,
1000
0010
0000
1000
0000
0000
0010
0000
,
1000
0000
0000
1000
0000
0000
0000
0000
,
0001
0000
0000
0001
0000
0000
0000
0000
,
0001
0010
0001
0010
,
0001
0010
0000
0001
0000
0000
0010
0000
,
0001
0000
0000
0001
0000
0000
0000
0000
,
1000
0000
0000
1000
0000
0000
0000
0000
,
0100
0010
0100
0010
,
0100
0000
0010
0100
0000
0010
0000
0000
,
1000
0000
0000
1000
0000
0000
0000
0000
,
0001
0000
0000
1001
0000
0000
0000
0000
,
1000
0100
1000
0100
,
1000
0001
1000
0001
,
0010
0001
0010
0001
,
0010
0000
0000
0100
0000
0000
0110
0000
,
0000
0100
0000
1000
,
0000
0001
0000
0010
,
0100
0010
0100
0010
,
0100
0010
0100
0010
,
0001
0001
0010
0010
,
0100
0100
1000
1000
,
0001
0001
0100
0100
,
0010
0010
0110
0000
,
1000
1000
0010
0010
,
0100
0100
0001
0001
,
1000
1000
0100
0100
,
0010
0010
0110
0000
,
0001
0001
0010
0010
,
1000
1000
0010
0010
,
0001
0001
0100
0100
,
0010
0100
0110
0000
,
1000
1000
0100
0100
,
0001
0001
0100
0100
,
1000
1000
0100
0100
,
0010
0000
0100
0000
0010
0100
0000
0000
,
0001
0000
1000
0000
0001
0000
,
0100
0000
0010
0000
0100
0000
,
0010
0000
0100
0000
0010
0000
,
1000
0000
0001
0000
1000
0000
,
0100
0000
0010
0000
0001
0000
,
0010
0000
0100
0000
1000
0000
,
0001
0000
1000
0000
0001
0000
,
0010
0000
1001
0000
,
2000
0000
0000
3000
,
0001
0100
0010
2000
,
0000
3001
0002
0000
,
1003
0100
0000
0000
,
0001
0000
1000
0000
0100
1000
0000
0000
,
0001
0000
1000
0000
0100
1000
0000
0000
,
0020
0200
0000
0000
,
0000
0330
0100
0010
,
2000
0000
0000
3000
,
1000
0100
0010
0001
,
1000
0000
0001
0000
1000
0000
0001
1000
,
0000
0010
0000
0000
,
0000
0000
0002
0000
0000
0100
0003
0000
,
0001
0100
0001
2000
,
0000
3000
0002
0000
,
1003
0000
0000
0001
0000
0000
1001
0000
,
0000
0100
0000
0010
,
0000
0100
0000
0010
,
0100
0010
0100
0010
,
0100
0010
0100
0010
,
1000
0000
0000
0001
0000
0000
1000
0000
,
0000
0001
0000
0000
1000
0000
0001
0000
,
0020
0000
0032
0000
,
1003
0000
0000
1001
0000
0000
0000
0000
,
2000
3000
0200
0300
,
1000
0001
1000
0100
,
1000
0001
1000
0000
,
0100
0000
0000
0110
0000
0000
0000
0000
,
0001
0010
0001
1000
,
0001
0010
0100
0010
,
0001
1000
0100
1000
,
0010
0000
0000
0110
0000
0000
0000
0000
,
0100
0000
1000
0000
,
0001
0000
0000
1000
0000
0000
0010
0000
,
0100
0000
0001
0000
,
1000
0000
0000
0110
0000
0000
0000
0000
,
0000
0000
0000
0000
;

//---------------dance-single - ----------------
#NOTES:
     dance-single:
     :
     Hard:
     12:
     0.616415,0.922852,0.649038,0.144231,0.084135,359.000000,305.000000,54.000000,12.000000,0.000000,0.000000,0.616415,0.922852,0.649038,0.144231,0.084135,359.000000,305.000000,54.000000,12.000000,0.000000,0.000000:
0000
0000
0000
0000
,
0000
0000
0000
0000
,
0000
0000
0000
0000
,
0000
0000
0000
0000
,
0000
0000
0000
0000
,
0000
0000
0000
0000
,
0000
0000
0000
0000
,
0000
0000
0000
0000
,
0000
0000
0000
0000
,
0000
0000
0000
0000
,
0000
0000
0000
0000
,
1000
0000
0000
1100
0000
0000
0000
0000
,
0100
0000
0000
0110
0000
0000
0000
0000
,
0010
0000
0000
0011
0000
0000
0000
0000
,
0001
0000
0000
1001
0000
0000
0000
0000
,
0001
0000
0000
0101
0000
0000
0000
0000
,
0100
0000
0000
0110
0000
0000
0000
0000
,
0010
0000
0000
1010
0000
0000
0000
0000
,
1000
0000
0000
0001
0000
0000
1001
0000
,
0000
0100
0000
0010
,
0000
1000
0000
0001
,
1000
0010
0100
0001
,
1000
0010
0100
0001
,
1000
0010
1000
0010
,
1000
0000
0010
1000
0000
0000
0010
0000
,
0100
0000
0000
0110
0000
0000
0000
0000
,
0001
0000
0000
1001
0000
0000
0000
0000
,
0001
0010
0001
0010
,
0001
0000
0010
0001
0000
0000
0010
0000
,
0100
0000
0000
0110
0000
0000
0000
0000
,
1000
0000
0000
1001
0000
0000
0000
0000
,
1000
0001
1000
0001
,
1000
0000
0001
1000
0000
0000
0001
0000
,
0100
0000
0000
0110
0000
0000
0000
0000
,
0010
0000
0000
1001
0000
0000
0000
0000
,
1000
0100
1000
0100
,
0010
0001
0010
0001
,
0010
0100
0010
0100
,
0010
0000
0000
1100
0000
0000
1001
0000
,
0100
0001
0100
0001
,
0100
0010
0100
0010
,
1000
0010
1000
0010
,
1000
0001
1000
0001
1000
0001
1000
0000
,
0001
0100
0001
0010
,
0001
0100
0001
0010
,
0001
0100
0001
0010
,
0001
0100
0110
0000
,
1000
0010
1000
0100
,
1000
0010
1000
0100
,
1000
0010
1000
0100
,
1000
0010
0110
0000
,
0001
0100
1000
0100
,
0001
0100
1000
0100
,
0001
0100
1000
0100
,
0001
1000
1001
0000
,
1000
0100
0001
0100
,
1000
0100
0001
0100
,
1000
0100
0001
0100
,
1000
0000
0001
0000
1000
0001
0000
0000
,
1001
0000
1001
0000
1001
0000
,
1100
0000
1100
0000
1100
0000
,
0110
0000
0110
0000
0110
0000
,
0011
0000
0011
0000
0011
0000
,
1001
0000
1001
0000
1001
0000
,
0101
0000
0101
0000
0101
0000
,
0110
0000
0110
0000
0110
0000
,
1010
0000
1001
0000
,
0200
0000
0000
0300
,
0100
0010
0100
0000
0010
0000
0020
0000
,
0000
0031
0002
0000
,
1003
1001
0000
0000
,
0010
0000
0010
0000
0100
0010
0000
0000
,
1000
0000
1000
0000
0001
1000
0000
0010
,
0000
0200
0000
0000
,
0310
0000
0000
0000
0010
0100
0010
0000
,
0002
0000
0000
0003
,
1000
0100
1000
0000
0001
0000
0001
0000
,
1000
0000
1000
0000
0001
0000
1000
0001
,
0000
0010
0000
0000
,
0100
0000
2000
0000
0000
0001
3000
0000
,
1000
0100
1000
0002
,
0000
0003
0200
0000
,
0310
0000
0000
1010
0000
0000
1001
0000
,
0100
0001
1000
0010
,
0100
0001
1000
0010
,
0100
0010
0100
0010
,
0100
0010
0100
0010
0100
0010
0100
0000
,
0010
1000
0000
1000
0001
0000
0001
0100
,
0000
0100
0010
0000
1000
0001
1000
0001
,
2000
3000
0002
0003
,
0100
0000
0000
0110
0000
0000
0000
0000
,
0002
0003
2000
3000
,
0100
0010
0100
1000
,
0001
1000
0001
0000
,
0100
0000
0000
0110
0000
0000
0000
0000
,
1000
0001
1000
0010
,
0100
0010
0100
0001
,
0010
0001
1000
0001
,
0010
0000
0000
0110
0000
0000
0000
0000
,
1100
0000
0110
0000
,
0011
0000
0000
1001
0000
0000
0101
0000
,
0010
0100
0010
0100
0010
0100
0010
0100
,
0010
0000
0000
1001
0000
0000
0000
0000
,
0000
0000
0000
0000
;

//---------------dance-single - ----------------
#NOTES:
     dance-single:
     :
     Challenge:
     13:
     0.748626,1.045898,0.769231,0.000000,0.084135,436.000000,372.000000,64.000000,0.000000,0.000000,0.000000,0.748626,1.045898,0.769231,0.000000,0.084135,436.000000,372.000000,64.000000,0.000000,0.000000,0.000000:
0000
0000
0000
0000
,
0000
0000
0000
0000
,
0000
0000
0000
0000
,
0000
0000
0000
0000
,
0000
0000
0000
0000
,
0000
0000
0000
0000
,
0000
0000
0000
0000
,
0000
0000
0000
0000
,
0000
0000
0000
0000
,
0000
0000
0000
0000
,
0000
0000
0000
0000
,
1010
0000
0000
1001
0000
0000
0100
0000
,
0101
0000
0000
1001
0000
0000
0010
0000
,
0011
0000
0000
1001
0000
0000
0100
0000
,
1100
0000
0000
0110
0000
0000
0000
0000
,
0011
0000
0000
1001
0000
0000
0100
0000
,
1100
0000
0000
1001
0000
0000
0010
0000
,
1010
0000
0000
1001
0000
0000
0100
0000
,
0101
0000
0000
0110
0000
0000
1010
0000
,
1000
0010
1000
0010
,
0100
0001
0100
0001
,
1000
0001
1000
0001
1000
0001
1000
0001
,
1000
0001
1000
0001
1000
0001
1000
0000
,
0100
0010
0100
0010
,
0100
0000
0010
0100
0000
0000
1000
0000
,
1001
0000
0000
1100
0000
0000
0010
0000
,
0011
0000
0000
1001
0000
0000
0001
0000
,
1000
0001
1000
0001
,
1000
0000
0001
1000
0000
0000
0010
0000
,
0110
0000
0000
1010
0000
0000
0100
0000
,
0101
0000
0000
0110
0000
0000
0100
0000
,
0010
1000
0001
0100
,
0010
0000
1000
0001
0000
0000
0100
0000
,
0110
0000
0000
1010
0000
0000
0001
0000
,
1001
0000
0000
1100
0000
0000
0001
0000
,
0010
0001
0010
0000
0001
0000
0001
0000
,
1000
0100
1000
0000
0100
0000
0100
0000
,
0010
0001
0010
0000
0100
1000
0100
0000
,
0010
0000
0000
0100
0000
0000
0010
0000
,
0100
1000
0100
0010
,
0100
0001
0100
0010
,
0100
0010
0100
0010
0100
0010
0100
0010
,
0100
0010
0100
0010
0100
0010
0100
0000
,
0010
0001
0010
0100
,
0010
1000
0010
0100
,
0100
0001
0100
0010
,
0100
1000
1100
0000
,
0010
1000
0010
0100
,
0010
0001
0010
0100
,
0100
1000
0100
0010
,
0100
0001
0101
0000
,
0010
0001
0010
0000
0001
0000
1000
0000
,
0010
1000
0010
0000
1000
0000
0001
0000
,
1000
0001
1000
0000
0001
0000
1000
0000
,
0100
0010
0110
0000
,
0100
1000
0100
0000
1000
0000
0001
0000
,
0100
0001
0100
0000
0001
0000
1000
0000
,
0001
1000
0001
0000
1000
0001
1000
0000
,
0100
0000
0010
0000
0001
1000
0000
0000
,
0011
0000
1001
0000
0101
0000
,
0110
0000
1010
0000
1001
0000
,
1100
0000
1001
0000
1010
0000
,
0110
0000
0101
0000
1001
0000
,
0101
0000
0110
0000
1010
0000
,
1001
0000
1100
0000
0110
0000
,
0011
0000
1001
0000
1100
0000
,
0011
0000
1001
0000
,
0100
0000
0000
0010
1000
0000
0001
0000
,
0100
0001
0100
0000
0010
0000
1000
0000
,
0000
0100
1000
0001
,
1000
1100
0000
0000
,
0001
0000
0010
0000
0100
0010
0000
0100
,
1000
0000
0001
0000
1000
0010
0000
1000
,
0000
0001
0000
0100
,
0010
0000
0100
0000
0010
1000
0010
0000
,
1000
0000
0000
0001
1000
0000
0100
0000
,
1000
0100
1000
0000
0001
0000
0010
0000
,
0100
0000
0010
0000
0001
0000
1000
0100
,
0000
1100
0000
0000
,
0001
0000
0010
0000
0000
0100
0000
0000
,
1000
0100
1000
0000
0001
0000
1000
0000
,
0000
0000
0100
0000
,
0011
0000
0000
1001
0000
0000
1100
0000
,
0100
0010
0100
1000
,
0100
0010
0100
1000
,
0001
1000
0001
1000
0001
1000
0001
1000
,
0001
1000
0001
1000
0001
1000
0001
0000
,
1000
0001
0000
1000
0010
0000
1000
0001
,
0000
1000
0100
0000
1000
0001
1000
0001
,
0010
0000
0100
0000
,
1000
0000
0000
1001
0000
0000
0000
0000
,
0001
0000
0100
0000
,
0001
0010
0001
1000
,
0100
1000
0001
0000
,
1000
0100
0000
1100
0000
0000
0000
0000
,
0001
0010
0001
0000
1000
0000
1000
0000
,
1000
0100
1000
0000
0001
0000
0001
0000
,
1000
0100
0010
0001
,
0010
0000
0000
0110
0000
0000
0000
0000
,
1000
0100
1000
0100
1000
0100
1000
0100
,
1000
0001
1000
0001
1000
0001
1000
0001
,
0010
0001
0010
0001
0010
0001
0010
0001
,
0010
0000
0000
1001
0000
0000
0000
0000
,
0000
0000
0000
0000
;

//---------------dance-double - ----------------
#NOTES:
     dance-double:
     :
     Easy:
     8:
     0.386332,0.553711,0.240385,0.000000,0.000000,225.000000,205.000000,20.000000,0.000000,0.000000,0.000000,0.386332,0.553711,0.240385,0.000000,0.000000,225.000000,205.000000,20.000000,0.000000,0.000000,0.000000:
00000000
00000000
00000000
00000000
,
00000000
00000000
00000000
00000000
,
00000000
00000000
00000000
00000000
,
00000000
00000000
00000000
00000000
,
00000000
00000000
00000000
00000000
,
00000000
00000000
00000000
00000000
,
00000000
00000000
00000000
00000000
,
00000000
00000000
00000000
00000000
,
00000000
00000000
00000000
00000000
,
00000000
00000000
00000000
00000000
,
00000000
00000000
00000000
00000000
,
10000000
00000000
00000000
10000000
00000000
00000000
00000000
00000000
,
01000000
00000000
00000000
01000000
00000000
00000000
00000000
00000000
,
00010000
00000000
00000000
00010000
00000000
00000000
00000000
00000000
,
00001000
00000000
00000000
00011000
00000000
00000000
00000000
00000000
,
00001000
00000000
00000000
00001000
00000000
00000000
00000000
00000000
,
00000100
00000000
00000000
00000100
00000000
00000000
00000000
00000000
,
00000001
00000000
00000000
00000001
00000000
00000000
00000000
00000000
,
00001000
00000000
00000000
00000001
00000000
00000000
00001001
00000000
,
00000000
00000100
00000000
00000100
,
00000000
00001000
00000000
00001000
,
00000000
00010000
00000000
00010000
,
00000000
01000000
00000000
01010000
,
01000000
00000000
00100000
00000000
,
10000000
00000000
00000000
10000000
00000000
00000000
10000000
00000000
,
01000000
00000000
01100000
00000000
,
00100000
00000000
00110000
00000000
,
00001000
00000000
00010000
00000000
,
00001000
00000000
00000000
00001000
00000000
00000000
00001000
00000000
,
00000010
00000000
00000110
00000000
,
00000001
00000000
00001001
00000000
,
00000100
00000000
00001000
00000000
,
00010000
00000000
00000000
00100000
00000000
00000000
00100000
00000000
,
10000000
00000000
10010000
00000000
,
01000000
00000000
01100000
00000000
,
00100000
00010000
00100000
00010000
,
00100000
00001000
00100000
00001000
,
00010000
00001000
00010000
00001000
,
00010000
00000000
00000000
00000100
00000000
00000000
00010100
00000000
,
00000000
00001000
00000000
00001000
,
00000000
00000001
00000000
00000001
,
00000000
00000100
00000000
00001000
,
00000000
00010000
00000000
00100000
,
10000000
00000000
10000000
00000000
,
01000000
00000000
01000000
00000000
,
00010000
00000000
00010000
00000000
,
00001000
00000000
00011000
00000000
,
00010000
00000000
00010000
00000000
,
00001000
00000000
00001000
00000000
,
00000010
00000000
00000010
00000000
,
00000001
00000000
00001001
00000000
,
00000001
00000000
00000001
00000000
,
00000010
00000000
00000010
00000000
,
00001000
00000000
00001000
00000000
,
00010000
00000000
00011000
00000000
,
00001000
00000000
00001000
00000000
,
00010000
00000000
00010000
00000000
,
01000000
00000000
01000000
00000000
,
10000000
00000000
10010000
00000000
,
00010000
00000000
00000000
00010000
,
10000000
00000000
00000000
10000000
,
01000000
00000000
00000000
01000000
,
00100000
00000000
00000000
00100000
,
00001000
00000000
00000000
00001000
,
00010000
00000000
00000000
00010000
,
00000100
00000000
00000000
00000100
,
00000010
00000000
00000110
00000000
,
00000010
00000000
00000010
00000000
,
00000001
00000000
00000100
00000000
,
00000001
00000000
00001000
00000000
,
00000100
00000100
00000000
00000000
,
00010000
00000000
00001000
00000000
,
00100000
00000000
00001000
00000000
,
00100000
00000000
01000000
00000000
,
00100000
00010000
00000000
10000000
,
00010000
00000000
01000000
00000000
,
00001000
00000000
00010000
00000000
,
00000010
00000000
00001000
00000000
,
00000001
00001000
00000000
00000000
,
00000100
00000000
00010000
00000000
,
00001000
00000000
00010000
00000000
,
00001000
00000000
01000000
00000000
,
00010000
00000000
00000000
10000000
00000000
00000000
10010000
00000000
,
00000000
01000000
00000000
01000000
,
00000000
00010000
00000000
00010000
,
00000000
00001000
00000000
00001000
,
00000000
00000010
00000000
00000010
,
00000001
00000000
00000000
00000001
00000000
00000000
00000001
00000000
,
00000000
00000001
00000000
00000000
00000001
00000000
00000000
00000000
,
00000100
00000000
00001000
00000000
,
00010000
00000000
00000000
00011000
00000000
00000000
00000000
00000000
,
00100000
00000000
01000000
00000000
,
00100000
01000000
00100000
01000000
,
00010000
00000000
10000000
00000000
,
01000000
00000000
00000000
11000000
00000000
00000000
00000000
00000000
,
01000000
00010000
00001000
00000010
,
00001000
00000010
00000001
00001000
,
00000001
00000000
00000100
00000000
,
00001000
00000000
00000000
00011000
00000000
00000000
00000000
00000000
,
01000000
00000000
00100000
00000000
,
00001000
00000000
00000000
00010000
00000000
00000000
00000100
00000000
,
00000010
00000000
00000000
00000001
00000000
00000000
00000000
00000000
,
00001000
00000000
00000000
00001001
00000000
00000000
00000000
00000000
,
00000000
00000000
00000000
00000000
;

//---------------dance-double - ----------------
#NOTES:
     dance-double:
     :
     Medium:
     11:
     0.501374,0.615234,0.216346,0.120192,0.084135,292.000000,274.000000,18.000000,10.000000,0.000000,0.000000,0.501374,0.615234,0.216346,0.120192,0.084135,292.000000,274.000000,18.000000,10.000000,0.000000,0.000000:
00000000
00000000
00000000
00000000
,
00000000
00000000
00000000
00000000
,
00000000
00000000
00000000
00000000
,
00000000
00000000
00000000
00000000
,
00000000
00000000
00000000
00000000
,
00000000
00000000
00000000
00000000
,
00000000
00000000
00000000
00000000
,
00000000
00000000
00000000
00000000
,
00000000
00000000
00000000
00000000
,
00000000
00000000
00000000
00000000
,
00000000
00000000
00000000
00000000
,
10000000
00000000
00000000
01000000
00000000
00000000
00000000
00000000
,
01000000
00000000
00000000
00010000
00000000
00000000
00000000
00000000
,
00010000
00000000
00000000
00001000
00000000
00000000
00000000
00000000
,
00001000
00000000
00000000
00011000
00000000
00000000
00000000
00000000
,
00001000
00000000
00000000
00000010
00000000
00000000
00000000
00000000
,
00000010
00000000
00000000
00000001
00000000
00000000
00000000
00000000
,
00000001
00000000
00000000
00000100
00000000
00000000
00000000
00000000
,
00000100
00000000
00000000
00001000
00000000
00000000
00011000
00000000
,
00000000
00100000
00000000
00100000
,
00000000
01000000
00000000
01000000
,
00010000
10000000
00010000
10000000
,
00010000
10000000
00010000
10000000
,
01000000
00010000
01000000
00010000
,
01000000
00010000
00000000
01000000
00000000
00000000
00010000
00000000
,
00001000
00000000
00000000
00011000
00000000
00000000
00000000
00000000
,
00000010
00000000
00000000
00000011
00000000
00000000
00000000
00000000
,
00000001
00000100
00000001
00000100
,
00000001
00000100
00000000
00000001
00000000
00000000
00000100
00000000
,
00001000
00000000
00000000
00011000
00000000
00000000
00000000
00000000
,
00010000
00000000
00000000
00110000
00000000
00000000
00000000
00000000
,
00100000
10000000
00010000
01000000
,
00001000
00000000
00010000
00001000
00000000
01000000
00000000
00000000
,
00100000
00000000
00000000
01100000
00000000
00000000
00000000
00000000
,
10000000
00000000
00000000
10010000
00000000
00000000
00000000
00000000
,
10000000
01000000
00010000
00001000
,
00000010
00000001
00000010
00001000
,
00000010
00000001
00000100
00001000
,
00010000
00000000
00000000
00001000
00000000
00000000
00011000
00000000
,
00000000
00000100
00000000
00000100
,
00000000
00000010
00000000
00000010
,
00000001
00001000
00000001
00001000
,
00000001
00001000
00000001
00001000
,
00000001
00000100
00001000
00010000
,
00100000
10000000
00100000
00010000
,
00001000
00010000
00100000
10000000
,
01000000
00100000
01100000
00000000
,
10000000
01000000
00010000
00001000
,
00000010
00000001
00000010
00001000
,
00010000
00001000
00000010
00000001
,
00000100
00000010
00000110
00000000
,
00000100
00000001
00000100
00001000
,
00010000
00100000
10000000
00100000
,
00010000
00001000
00010000
01000000
,
10000000
00010000
00110000
00000000
,
01000000
10000000
01000000
00010000
,
00001000
00000010
00000001
00000010
,
00001000
00010000
00001000
00000100
,
00000001
00000000
00001000
00000000
00000001
00000010
00000000
00000000
,
00000100
00000000
00000100
00000000
00000100
00000000
,
00010000
00000000
00010000
00000000
00010000
00000000
,
00001000
00000000
00001000
00000000
00001000
00000000
,
00100000
00000000
00100000
00000000
00100000
00000000
,
01000000
00000000
01000000
00000000
01000000
00000000
,
00010000
00000000
00010000
00000000
00010000
00000000
,
00001000
00000000
00001000
00000000
00001000
00000000
,
00000010
00000000
00000110
00000000
,
00000002
00000000
00000000
00000003
,
00000100
00001000
00010000
00002000
,
00003000
00010000
00200000
00300000
,
10000000
00010000
00000000
00000000
,
10000000
00000000
01000000
00000000
01000000
00010000
00000000
00000000
,
00010000
00000000
00001000
00000000
00001000
00000010
00000000
00000000
,
00000002
00002000
00000000
00000000
,
00000000
00003003
00000001
00000100
,
00000020
00000000
00000000
00000030
,
00010000
00001000
01000000
00001000
,
00010000
00000000
01000000
00000000
10000000
00000000
00010000
10000000
,
00000000
00100000
00000000
00000000
,
00000000
00000000
10000000
00000000
00000000
01000000
00000000
00000000
,
00010000
00001000
00000010
00000002
,
00000000
00000003
00002000
00003000
,
00000100
00000000
00000000
00010000
00000000
00000000
00011000
00000000
,
00000000
01000000
00000000
01000000
,
00000000
00100000
00000000
00100000
,
10000000
00010000
10000000
00010000
,
10000000
00010000
10000000
00010000
,
10000000
00000000
00000000
10000000
00000000
00000000
01000000
00000000
,
00000000
01000000
00000000
00000000
00010000
00000000
00010000
00000000
,
00001000
00000000
00000010
00000000
,
00000001
00000000
00000000
00001001
00000000
00000000
00000000
00000000
,
00000002
00000003
00000200
00000300
,
00001000
00010000
00100000
00010000
,
00001000
01000000
00100000
00000000
,
10000000
00000000
00000000
10010000
00000000
00000000
00000000
00000000
,
10000000
01000000
00010000
00001000
,
00000010
00000001
00000010
00001000
,
00000010
00000001
00001000
00000100
,
00000010
00000000
00000000
00001001
00000000
00000000
00000000
00000000
,
00000100
00000000
00001000
00000000
,
00010000
00000000
00000000
00100000
00000000
00000000
00100000
00000000
,
00010000
00000000
00001000
00000000
,
00000100
00000000
00000000
00000110
00000000
00000000
00000000
00000000
,
00000000
00000000
00000000
00000000
;

//---------------dance-double - ----------------
#NOTES:
     dance-double:
     :
     Hard:
     13:
     0.590659,0.922852,0.468750,0.168269,0.084135,344.000000,305.000000,39.000000,14.000000,0.000000,0.000000,0.590659,0.922852,0.468750,0.168269,0.084135,344.000000,305.000000,39.000000,14.000000,0.000000,0.000000:
00000000
00000000
00000000
00000000
,
00000000
00000000
00000000
00000000
,
00000000
00000000
00000000
00000000
,
00000000
00000000
00000000
00000000
,
00000000
00000000
00000000
00000000
,
00000000
00000000
00000000
00000000
,
00000000
00000000
00000000
00000000
,
00000000
00000000
00000000
00000000
,
00000000
00000000
00000000
00000000
,
00000000
00000000
00000000
00000000
,
00000000
00000000
00000000
00000000
,
00100000
00000000
00000000
00110000
00000000
00000000
00000000
00000000
,
00001000
00000000
00000000
00011000
00000000
00000000
00000000
00000000
,
00010000
00000000
00000000
00010100
00000000
00000000
00000000
00000000
,
00000100
00000000
00000000
00000110
00000000
00000000
00000000
00000000
,
00000010
00000000
00000000
00000011
00000000
00000000
00000000
00000000
,
00000001
00000000
00000000
00000101
00000000
00000000
00000000
00000000
,
00000100
00000000
00000000
00001100
00000000
00000000
00000000
00000000
,
00001000
00000000
00000000
00010000
00000000
00000000
00011000
00000000
,
00000000
00100000
00000000
10000000
,
00000000
00100000
00000000
01000000
,
00100000
10000000
01000000
00010000
,
00001000
00000010
00000001
00001000
,
00000001
00000100
00000001
00000100
,
00000001
00000000
00000100
00000001
00000000
00000000
00000100
00000000
,
00001000
00000000
00000000
00011000
00000000
00000000
00000000
00000000
,
00010000
00000000
00000000
00110000
00000000
00000000
00000000
00000000
,
00100000
10000000
00100000
10000000
,
00100000
00000000
10000000
00100000
00000000
00000000
10000000
00000000
,
01000000
00000000
00000000
01010000
00000000
00000000
00000000
00000000
,
00010000
00000000
00000000
00011000
00000000
00000000
00000000
00000000
,
00001000
00000010
00001000
00010000
,
00001000
00000000
00000010
00001000
00000000
00000000
00010000
00000000
,
00001000
00000000
00000000
00011000
00000000
00000000
00000000
00000000
,
00010000
00000000
00000000
00011000
00000000
00000000
00000000
00000000
,
00100000
10000000
01000000
10000000
,
00100000
00010000
00001000
00010000
,
00100000
10000000
01000000
00010000
,
00001000
00000000
00000000
00011000
00000000
00000000
00010100
00000000
,
00001000
00000100
00001000
00000100
,
00000010
00000100
00000010
00000100
,
00000001
00000010
00000001
00000010
,
00000001
00001000
00000001
00001000
00000001
00001000
00000001
00000000
,
00000100
00001000
00010000
00100000
,
10000000
00100000
00010000
00001000
,
00000100
00000001
00000100
00001000
,
00010000
00100000
10100000
00000000
,
01000000
00010000
00001000
00000010
,
00000001
00000010
00001000
00010000
,
01000000
10000000
01000000
00010000
,
00001000
00000010
00000011
00000000
,
00000010
00001000
00010000
01000000
,
10000000
01000000
00010000
00001000
,
00000010
00000001
00000010
00001000
,
00010000
01000000
11000000
00000000
,
00100000
00010000
00001000
00000100
,
00000001
00000100
00001000
00010000
,
00100000
10000000
00100000
00010000
,
00001000
00000000
00000100
00000000
00000001
00001000
00000000
00000000
,
00002001
00000000
00000001
00000000
00003001
00000000
,
00001020
00000000
00001000
00000000
00001030
00000000
,
00020010
00000000
00000010
00000000
00030010
00000000
,
00012000
00000000
00010000
00000000
00013000
00000000
,
02001000
00000000
00001000
00000000
03001000
00000000
,
01020000
00000000
01000000
00000000
01030000
00000000
,
20010000
00000000
00010000
00000000
30010000
00000000
,
11000000
00000000
01100000
00000000
,
00200000
00000000
00000000
00300000
,
00001000
00010000
00001000
00000000
00010000
00000000
00002000
00000000
,
00003000
00000100
00000020
00000030
,
00001000
00001001
00000000
00000000
,
00000001
00000000
00000001
00000000
00000100
00000010
00000000
00000000
,
00001000
00000000
00001000
00000000
00000100
00010000
00000000
00001000
,
00000000
00020000
00000000
00000000
,
00031000
00000000
00000000
00000000
00100000
01000000
00100000
00000000
,
00020000
00000000
00000000
00030000
,
10000000
01000000
10000000
00000000
00100000
00000000
00100000
00000000
,
01000000
00000000
01000000
00000000
00010000
00000000
01000000
00001000
,
00000000
00010000
00000000
00000000
,
00000010
00000000
00001000
00000000
00000000
00000001
00000000
00000000
,
00001000
00000100
00001000
00000002
,
00000000
00000003
00000200
00000300
,
00001000
00000000
00000000
00010000
00000000
00000000
00011000
00000000
,
00010000
00100000
00010000
00100000
,
10000000
00010000
10000000
01000000
,
00100000
00001000
00010000
00001000
,
00010000
00001000
00010000
00001000
00010000
00001000
00010000
00000000
,
00001000
00010000
00000000
00010000
00000100
00000000
00000100
00000010
,
00000000
00000010
00000001
00000000
00000001
00001000
00000001
00001000
,
00000010
00000000
00000100
00000000
,
00001000
00000000
00000000
00011000
00000000
00000000
00000000
00000000
,
00010000
00000000
01000000
00000000
,
00100000
00010000
10000000
01000000
,
00100000
00001000
00010000
00000000
,
00001000
00000000
00000000
00011000
00000000
00000000
00000000
00000000
,
00001000
00000010
00000001
00000010
,
00000001
00000100
00001000
00000100
,
00001000
00010000
00001000
00010000
,
00100000
00000000
00000000
01100000
00000000
00000000
00000000
00000000
,
01010000
00000000
01001000
00000000
,
00011000
00000000
00000000
00010010
00000000
00000000
00001010
00000000
,
00000010
00000100
00000010
00000100
00000010
00000100
00000010
00000100
,
00000010
00000000
00000000
00001001
00000000
00000000
00000000
00000000
,
00000000
00000000
00000000
00000000
;

//---------------dance-double - ----------------
#NOTES:
     dance-double:
     :
     Challenge:
     13:
     0.734890,1.045898,0.757212,0.000000,0.084135,428.000000,365.000000,63.000000,0.000000,0.000000,0.000000,0.734890,1.045898,0.757212,0.000000,0.084135,428.000000,365.000000,63.000000,0.000000,0.000000,0.000000:
00000000
00000000
00000000
00000000
,
00000000
00000000
00000000
00000000
,
00000000
00000000
00000000
00000000
,
00000000
00000000
00000000
00000000
,
00000000
00000000
00000000
00000000
,
00000000
00000000
00000000
00000000
,
00000000
00000000
00000000
00000000
,
00000000
00000000
00000000
00000000
,
00000000
00000000
00000000
00000000
,
00000000
00000000
00000000
00000000
,
00000000
00000000
00000000
00000000
,
10100000
00000000
00000000
11000000
00000000
00000000
01000000
00000000
,
01010000
00000000
00000000
00011000
00000000
00000000
00001000
00000000
,
00001010
00000110
00000000
00000010
,
00000011
00000000
00000000
00001001
00000000
00000000
00000000
00000000
,
00000011
00000000
00000000
00000101
00000000
00000000
00000100
00000000
,
00001100
00000000
00000000
00011000
00000000
00000000
00010000
00000000
,
00110000
01100000
00000000
00100000
,
10100000
00000000
00000000
10010000
00000000
00000000
11000000
00000000
,
01000000
00100000
00010000
00100000
,
00001000
00010000
00001000
00010000
,
00001000
00010000
00001000
00010000
00001000
00010000
00001000
00010000
,
00001000
00010000
00001000
00010000
00001000
00010000
00001000
00000000
,
00010000
00001000
00000010
00001000
,
00010000
00000000
00001000
00010000
00000000
00000000
01000000
00000000
,
01100000
00000000
00000000
11000000
00000000
00000000
00010000
00000000
,
00110000
00000000
00000000
10010000
00000000
00000000
01000000
00000000
,
00010000
00001000
00000010
00000001
,
00001000
00000000
00000001
00000100
00000000
00000000
00000010
00000000
,
00000110
00000000
00000000
00000101
00000000
00000000
00001000
00000000
,
00001001
00000000
00000000
00001100
00000000
00000000
00010000
00000000
,
00001000
00010000
00100000
00010000
,
00001000
00000000
00010000
00001000
00000000
00000000
00000100
00000000
,
00000110
00000000
00000000
00000101
00000000
00000000
00000001
00000000
,
00001001
00001010
00000000
00010000
,
00001000
00010000
00001000
00000000
00010000
00000000
00010000
00000000
,
00001000
01000000
00001000
00000000
01000000
00000000
01000000
00000000
,
00010000
01000000
00010000
00000000
00010000
10000000
00010000
00000000
,
00100000
00000000
00000000
01000000
00000000
00000000
00010000
00000000
,
00001000
00010000
00001000
00000010
,
00001000
00010000
00001000
00000010
,
00000100
00000010
00000100
00000010
00000100
00000010
00000100
00000010
,
00000100
00000010
00000100
00000010
00000100
00000010
00000100
00000000
,
00000010
00000001
00000010
00001000
,
00010000
01000000
00010000
00001000
,
00010000
01000000
10000000
01000000
,
00010000
00001000
00011000
00000000
,
01000000
10000000
01000000
00010000
,
00001000
00000010
00001000
00010000
,
00001000
00000010
00000001
00000010
,
00001000
00010000
00011000
00000000
,
00000010
00000001
00000100
00001000
,
00010000
00100000
00010000
00001000
,
00010000
00100000
10000000
00100000
,
00010000
00001000
00011000
00000000
,
00100000
10000000
01000000
00010000
,
00001000
00000100
00001000
00010000
,
00001000
00000100
00000001
00000100
,
00001000
00000000
00010000
00000000
00001000
00010000
00000000
00000000
,
00011000
00000000
01001000
00000000
01010000
00000000
,
01100000
00000000
10100000
00000000
10010000
00000000
,
11000000
00000000
01100000
00000000
00110000
00000000
,
00101000
00000000
00011000
00000000
00010100
00000000
,
00001100
00000000
00000110
00000000
00000011
00000000
,
00001001
00000000
00000101
00000000
00000110
00000000
,
00001010
00000000
00010010
00000000
00011000
00000000
,
00001000
00000000
00011000
00000000
,
00010000
00000000
00000000
00001000
01000000
00000000
00010000
00000000
,
10000000
00010000
01000000
00000000
00100000
00000000
01000000
00000000
,
00000000
00001000
00010000
00001000
,
00010000
00010100
00000000
00000000
,
00001000
00000000
00000100
00000000
00001000
00000001
00000000
00000010
,
00000100
00000000
00010000
00000000
00001000
00010000
00000000
00000100
,
00000000
00010000
00000000
00001000
,
00010000
00000000
00001000
00000000
01000000
00010000
01000000
00000000
,
00010000
00000000
00000000
10000000
01000000
00000000
00100000
00000000
,
00010000
00100000
00010000
00000000
10000000
00000000
01000000
00000000
,
00010000
00000000
00001000
00000000
00010000
00000000
00000100
00001000
,
00000000
00001001
00000000
00000000
,
00000010
00000000
00000001
00000000
00000000
00000100
00000000
00000000
,
00001000
00010000
00001000
00000000
00010000
00000000
00100000
00000000
,
00000000
00000000
01000000
00000000
,
01100000
00000000
00000000
10100000
00000000
00000000
10010000
00000000
,
01000000
00100000
00001000
00100000
,
00001000
00010000
00000100
00000010
,
00000001
00001000
00000001
00001000
00000001
00001000
00000001
00001000
,
00000001
00001000
00000001
00001000
00000001
00001000
00000001
00000000
,
00001000
00000001
00000000
00001000
00000100
00000000
00010000
00001000
,
00000000
00100000
00001000
00000000
00010000
00001000
00010000
00001000
,
00010000
00000000
00100000
00000000
,
10000000
00000000
00000000
10010000
00000000
00000000
00000000
00000000
,
00010000
00000000
10000000
00000000
,
01000000
00010000
00001000
00010000
,
00000100
00000010
00000001
00000000
,
00001000
00000100
00000000
00001100
00000000
00000000
00000000
00000000
,
00000001
00000010
00000001
00000000
00001000
00000000
00000100
00000000
,
00010000
00001000
00010000
00000000
00001000
00000000
00001000
00000000
,
00010000
00100000
00100000
10000000
,
00010000
00000000
00000000
10010000
00000000
00000000
00000000
00000000
,
10000000
00010000
10000000
00010000
10000000
00010000
10000000
00010000
,
00100000
00010000
00100000
00010000
00100000
00010000
00100000
00010000
,
00100000
00001000
00100000
00001000
00100000
00001000
00100000
00001000
,
00010000
00000000
00000000
00011000
00000000
00000000
00000000
00000000
,
00000000
00000000
00000000
00000000
;
