#TITLE:AFTER THE GAME OF LOVE;
#SUBTITLE:;
#ARTIST:NPD3;
#TITLETRANSLIT:;
#SUBTITLETRANSLIT:;
#ARTISTTRANSLIT:;
#GENRE:;
#CREDIT:;
#BANNER:AFTER THE GAME OF LOVE.png;
#BACKGROUND:AFTER THE GAME OF LOVE-bg.png;
#LYRICSPATH:;
#CDTITLE:;
#MUSIC:AFTER THE GAME OF LOVE.ogg;
#OFFSET:0.000000;
#SAMPLESTART:57.105999;
#SAMPLELENGTH:15.000000;
#SELECTABLE:YES;
#DISPLAYBPM:105.000000;
#BPMS:0.000000=104.956001
,4.000000=104.726997
,20.000000=105.097000
;
#STOPS:
;
#BGCHANGES:;
#KEYSOUNDS:;
#ATTACKS:;

//---------------dance-single - ----------------
#NOTES:
     dance-single:
     :
     Beginner:
     1:
     0.074442,0.106824,0.093797,0.000000,0.000000,50.000000,41.000000,9.000000,0.000000,0.000000,0.000000,0.074442,0.106824,0.093797,0.000000,0.000000,50.000000,41.000000,9.000000,0.000000,0.000000,0.000000:
0000
0000
0000
0000
,
0000
0000
0000
0000
,
0000
0000
0000
0000
,
0000
0000
0000
0000
,
0000
0000
0000
0000
,
0010
0000
0000
0000
,
0010
0000
0000
0000
,
0100
0000
0000
0000
,
0100
0000
0000
0000
,
1001
0000
0000
0000
,
1001
0000
0000
0000
,
0010
0000
0000
0000
,
0100
0000
0000
0000
,
1001
0000
0000
0000
,
1001
0000
0000
0000
,
0010
0000
0000
0000
,
0100
0000
0000
0000
,
0001
0000
0000
0000
,
0001
0000
0000
0000
,
1000
0000
0000
0000
,
1000
0000
0000
0000
,
0001
0000
0000
0000
,
0001
0000
0000
0000
,
1000
0000
0000
0000
,
1000
0000
0000
0000
,
0001
0000
0001
0000
,
0001
0000
0001
0000
,
0010
0000
0000
0000
,
0100
0000
0000
0000
,
1000
0000
1000
0000
,
1000
0000
1000
0000
,
0010
0000
0000
0000
,
0100
0000
0000
0000
,
1001
0000
0000
0000
,
1001
0000
0000
0000
,
0010
0000
0000
0000
,
0100
0000
0000
0000
,
1001
0000
0000
0000
,
1001
0000
0000
0000
,
0010
0000
0000
0000
,
0100
0000
0000
0000
,
1001
0000
0000
0000
,
0000
0000
0000
0000
;

//---------------dance-single - ----------------
#NOTES:
     dance-single:
     :
     Easy:
     2:
     0.108685,0.149554,0.010422,0.000000,0.000000,73.000000,72.000000,1.000000,0.000000,0.000000,0.000000,0.108685,0.149554,0.010422,0.000000,0.000000,73.000000,72.000000,1.000000,0.000000,0.000000,0.000000:
0000
0000
0000
0000
,
0000
0000
0000
0000
,
0000
0000
0000
0000
,
0000
0000
0000
0000
,
0000
0000
0000
0000
,
0001
0000
0000
0000
,
1000
0000
0000
0000
,
0001
0000
0000
0000
,
1000
0000
0000
0000
,
0010
0010
0000
0000
,
0100
0000
0000
0000
,
0010
0010
0000
0000
,
0001
0000
0000
0000
,
0010
0000
0010
0000
,
0001
0000
0001
0000
,
1000
0000
1000
0000
,
0100
0000
0100
0000
,
0010
0000
0000
0000
,
0001
0001
0000
0000
,
1000
1000
0000
0000
,
0010
0100
0010
0100
,
0010
0000
0000
0000
,
0001
0001
0000
0000
,
1000
1000
0000
0000
,
0010
0100
0010
0000
,
0001
0000
1000
0000
,
0001
0000
1000
0000
,
0010
0010
0100
0000
,
0010
0001
0100
0000
,
1000
0000
0001
0000
,
1000
0000
0001
0000
,
0010
0010
0100
0000
,
0010
0001
0100
1000
,
0000
0000
0000
0000
,
0001
0000
0010
0000
,
1000
0000
0010
0000
,
0010
0010
0100
0000
,
0001
0000
0100
0000
,
1000
0000
0100
0000
,
0001
0000
1000
0000
,
0010
0000
0100
0000
,
1001
0000
0000
0000
,
0000
0000
0000
0000
;

//---------------dance-single - ----------------
#NOTES:
     dance-single:
     :
     Medium:
     6:
     0.272458,0.320473,0.156328,0.000000,0.000000,183.000000,168.000000,15.000000,0.000000,0.000000,0.000000,0.272458,0.320473,0.156328,0.000000,0.000000,183.000000,168.000000,15.000000,0.000000,0.000000,0.000000:
0000
0000
0000
0000
,
0000
0000
0000
0000
,
0000
0000
0000
0000
,
0000
0000
0000
0000
,
0000
0000
0000
0000
,
0010
0000
1000
0000
0010
0000
0001
0100
,
0001
0000
0001
0000
0010
0000
1000
0100
,
1000
0000
0001
0000
0100
0000
1000
0010
,
0100
0001
0001
0000
,
0011
0001
0100
0010
,
1000
0000
0100
0000
0010
0000
0001
0100
,
1000
0001
0100
0010
,
1001
0100
0000
0000
,
0001
1000
0001
0000
0100
0000
0010
0001
,
0010
0100
1000
0001
,
0100
0000
1000
0001
0010
0000
0100
1000
,
0010
0001
0100
0010
,
1001
1001
1001
0000
0010
0000
0001
0000
,
0100
0000
1000
0000
0010
0001
0010
0000
,
0001
0100
1000
0010
,
1000
0010
0001
0011
,
1001
0010
0010
1000
,
0100
0000
0001
0000
0010
1000
0010
0000
,
1000
0100
0001
0010
,
0010
0100
0010
0100
0010
0000
1001
0000
,
0010
0000
0001
0000
1000
0100
0010
0000
,
0010
0000
1000
0000
0001
0100
0010
0000
,
0010
0100
1000
0010
,
0010
0001
0010
0000
0010
1000
0010
0000
,
0010
0000
1000
0000
0001
0100
0010
0000
,
0010
0000
0001
0000
1000
0100
0010
0100
,
0100
0000
0010
0000
0010
1000
0010
0000
,
1000
0000
0010
0001
0010
0000
1010
0000
,
0001
0010
0100
1000
,
1000
0010
1001
0011
,
1100
0000
0010
0000
0010
0000
0001
0100
,
1000
0000
0010
0100
,
1000
0010
0100
0001
,
1001
1001
0010
0001
,
1000
0000
0010
0000
0010
1000
0010
0100
,
0001
0000
1001
0000
0010
1000
0100
0001
,
0010
0000
0000
0000
,
0000
0000
0000
0000
;

//---------------dance-single - ----------------
#NOTES:
     dance-single:
     :
     Hard:
     8:
     0.345411,0.363202,0.260547,0.000000,0.000000,232.000000,207.000000,25.000000,0.000000,0.000000,0.000000,0.345411,0.363202,0.260547,0.000000,0.000000,232.000000,207.000000,25.000000,0.000000,0.000000,0.000000:
// measure 0
0000
0000
0000
0000
,  // measure 1
0000
0000
0000
0000
,  // measure 2
0000
0000
0000
0000
,  // measure 3
0000
0000
0000
0000
,  // measure 4
0000
0000
0000
0000
,  // measure 5
0010
0000
0001
0000
1000
0000
0001
0010
,  // measure 6
0100
0000
0010
0000
0001
0000
1000
0010
,  // measure 7
0100
0000
0001
0000
0100
0000
1000
0010
,  // measure 8
0100
0101
0011
0000
,  // measure 9
1001
0000
0110
0000
0010
0100
0010
1000
,  // measure 10
0100
0000
1000
0000
0010
1000
0001
0100
,  // measure 11
0101
0000
0110
0000
0010
0100
0010
0001
,  // measure 12
1000
0000
0100
0000
0000
0000
0100
1000
,  // measure 13
0001
1000
0001
0000
0010
0100
0010
0001
,  // measure 14
0100
0000
0001
0000
0010
0001
1000
0100
,  // measure 15
1100
0000
0110
0000
0010
0100
0010
0001
,  // measure 16
1000
0000
0100
0000
1000
0001
0100
0000
,  // measure 17
1001
1001
1001
0000
0010
0000
0001
0000
,  // measure 18
0100
0001
1000
0000
0010
0001
0010
0000
,  // measure 19
0010
1000
0100
1000
0001
0100
0010
0000
,  // measure 20
1000
0001
1000
0001
1000
0000
0110
0000
,  // measure 21
0001
0001
0010
0000
0010
0001
1000
0000
,  // measure 22
1000
1000
0100
0000
0010
1000
0001
0000
,  // measure 23
1100
0101
0011
1010
,  // measure 24
0010
0100
0010
0100
0010
0000
1001
0000
,  // measure 25
0010
1000
0001
0000
1000
0100
0010
0000
,  // measure 26
0010
0001
1000
0000
0001
0100
0010
0000
,  // measure 27
0010
0001
0100
0000
1000
0100
0010
0000
,  // measure 28
0010
0001
1000
0010
0100
0001
0100
0100
,  // measure 29
0100
0000
1000
0000
0100
0001
0100
0000
,  // measure 30
0010
1000
0001
0010
0100
1000
0100
0100
,  // measure 31
0100
0000
0010
0000
0010
1000
0010
0000
,  // measure 32
1000
0000
0010
0001
0010
0000
1010
0000
,  // measure 33
1000
0001
0100
0000
0001
1000
0100
0000
,  // measure 34
0001
1000
0100
1000
0010
0000
0011
0000
,  // measure 35
1100
0000
0010
0001
0010
0000
1000
0100
,  // measure 36
0001
0000
0010
0100
1000
0000
0110
0000
,  // measure 37
0001
1000
0100
0001
1000
0000
0100
0000
,  // measure 38
1000
0001
0100
0001
1001
0000
1010
0000
,  // measure 39
0101
0000
0010
0000
0010
0001
1000
0100
,  // measure 40
0001
0000
1001
0000
0010
0001
0100
1000
,  // measure 41
0010
0000
0000
0000
;

//---------------dance-double - ----------------
#NOTES:
     dance-double:
     :
     Easy:
     5:
     0.174194,0.213648,0.031266,0.000000,0.000000,117.000000,114.000000,3.000000,0.000000,0.000000,0.000000,0.174194,0.213648,0.031266,0.000000,0.000000,117.000000,114.000000,3.000000,0.000000,0.000000,0.000000:
00000000
00000000
00000000
00000000
,
00000000
00000000
00000000
00000000
,
00000000
00000000
00000000
00000000
,
00000000
00000000
00000000
00000000
,
00000000
00000000
00000000
00000000
,
00010000
00000000
10000000
00000000
,
00010000
00000000
10000000
00000000
,
00100000
00000000
00001000
00000000
,
00000100
00000000
00000001
00000000
,
00000010
00001000
00000100
00000000
,
00000010
00000001
00000100
00000000
,
00000010
00001000
00010000
00000000
,
00100000
10000000
01000000
00000000
,
00100000
00100000
00100000
00000000
00000000
00000000
00000000
00000000
,
01000000
00010000
00100000
00000000
,
00100000
10000000
00010000
00000000
,
00100000
00010000
00001000
00000100
,
00000001
00000001
00000001
00000000
00000000
00000000
00000000
00000000
,
00000010
00000010
00000001
00000000
,
00000010
00000010
00001000
00000000
,
00000010
00000100
00000001
00000000
,
00000010
00001000
00010000
00000000
,
00100000
00100000
00100000
00000000
00000000
00000000
00000000
00000000
,
00100000
00010000
10000000
00000000
,
00010000
00100000
00010000
00011000
,
00001000
00000010
00000100
00000001
,
00000010
00000001
00000100
00000100
,
00000001
00000000
00001000
00000000
,
00001000
00010000
01000000
10000000
,
00100000
10000000
01000000
01000000
,
00100000
00010000
01000000
01000000
,
00010000
00000000
10000000
00000000
,
00010000
00001000
00000100
00000001
,
00001001
00000000
00000000
00000000
,
00100000
00010000
00100000
00000000
,
01000000
00010000
00001000
00000010
,
00000001
00000100
00001000
00000010
,
00000000
00001000
00010000
01000000
,
01000000
00010000
01000000
00010000
,
00100000
00010000
01000000
10000000
,
00100000
01000000
00010000
00100000
,
10010000
00000000
00000000
00000000
,
00000000
00000000
00000000
00000000
;

//---------------dance-double - ----------------
#NOTES:
     dance-double:
     :
     Medium:
     6:
     0.269480,0.320473,0.145906,0.000000,0.000000,181.000000,167.000000,14.000000,0.000000,0.000000,0.000000,0.269480,0.320473,0.145906,0.000000,0.000000,181.000000,167.000000,14.000000,0.000000,0.000000,0.000000:
00000000
00000000
00000000
00000000
,
00000000
00000000
00000000
00000000
,
00000000
00000000
00000000
00000000
,
00000000
00000000
00000000
00000000
,
00000000
00000000
00000000
00000000
,
00100000
00000000
10000000
00000000
00100000
00000000
00010000
00001000
,
00000100
00000000
00000001
00000000
00000010
00000000
00000001
00000010
,
00000100
00000000
00001000
00000000
00000010
00000000
00001000
00010000
,
00100000
00010000
10000000
00000000
,
00110000
00000000
00010000
00000000
01000000
00000000
00100000
00010000
,
00001000
00000000
00000100
00000000
00000010
00000000
00000001
00000100
,
00001000
00000000
00001000
00010000
,
10010000
01000000
00000000
00000000
,
00010000
10000000
00010000
00000000
00000000
00000000
00100000
00010000
,
00001000
00000001
00000010
00000100
,
00001000
00000000
00010000
10000000
00100000
00000000
01000000
10000000
,
00100000
10000000
00100000
00010000
,
00011000
00011000
00011000
00000000
00000010
00000000
00001000
00000000
,
00000100
00000000
00000001
00000000
00000010
00000100
00001000
00000000
,
00010000
00000100
00010000
00001000
,
01000000
00001000
00000100
00000010
,
00001001
00000010
00000010
00001000
,
00000100
00000000
00000010
00000000
00001000
00010000
01000000
00000000
,
00100000
00001000
00000100
00001000
,
00000010
00000100
00000010
00000100
00000010
00000000
00001001
00000000
,
00000010
00000000
00001000
00000000
00010000
01000000
00100000
00000000
,
00100000
00000000
10000000
00000000
00010000
01000000
00100000
00000000
,
00100000
01000000
10000000
00100000
,
00100000
00010000
00001000
00000000
00000010
00000100
00000001
00000000
,
00000010
00000000
00001000
00000000
00000001
00000100
00000010
00000000
,
00000010
00000000
00000001
00000000
00000100
00001000
00010000
00010000
,
00010000
00000000
00000010
00000000
00000010
00001000
00000010
00000000
,
00001000
00000000
00000010
00001000
00010000
00000000
00110000
00000000
,
10000000
00100000
01000000
00010000
,
00001000
00010000
00110000
00011000
,
00001001
00000000
00000010
00000000
00000010
00000000
00000001
00000100
,
00001000
00000000
00100000
01000000
,
10000000
00010000
00001000
00000001
,
00001001
00011000
00100000
01000000
,
10000000
00000000
00100000
00000000
00100000
00010000
00001000
00000100
,
00000001
00000000
00001001
00000000
00000010
00001000
00000100
00000001
,
00000010
00000000
00000000
00000000
,
00000000
00000000
00000000
00000000
;

//---------------dance-double - ----------------
#NOTES:
     dance-double:
     :
     Hard:
     8:
     0.343922,0.363202,0.250125,0.000000,0.000000,231.000000,207.000000,24.000000,0.000000,0.000000,0.000000,0.343922,0.363202,0.250125,0.000000,0.000000,231.000000,207.000000,24.000000,0.000000,0.000000,0.000000:
00000000
00000000
00000000
00000000
,
00000000
00000000
00000000
00000000
,
00000000
00000000
00000000
00000000
,
00000000
00000000
00000000
00000000
,
00000000
00000000
00000000
00000000
,
00100000
00000000
00010000
00000000
10000000
00000000
00010000
00001000
,
00000100
00000000
00000010
00000000
00000001
00000000
00001000
00000010
,
00000100
00000000
00000001
00000000
00000100
00000000
00001000
00010000
,
01000000
11000000
01010000
00000000
,
10010000
00000000
01100000
00000000
00100000
01000000
00100000
00010000
,
00001000
00000000
00000100
00000000
00000010
00000001
00001000
00000100
,
00001001
00000000
00000110
00000000
00000010
00000100
00000010
00001000
,
00010000
00000000
00100000
00000000
00000000
00000000
01000000
10000000
,
00010000
10000000
00010000
00000000
00001000
00000100
00000010
00000001
,
00000100
00000000
00000010
00000000
00000001
00000100
00001000
00010000
,
01000000
00000000
01100000
00000000
00100000
01000000
00100000
00010000
,
10000000
00000000
00010000
00000000
01000000
00001000
00010000
00000000
,
00011000
00011000
00011000
00000000
00100000
00000000
00010000
00000000
,
01000000
00010000
10000000
00000000
00100000
00001000
00010000
00000000
,
00000010
00001000
00000001
00000100
00001000
00010000
01000000
00000000
,
10000000
00010000
10000000
00010000
10000000
00000000
01100000
00000000
,
00001000
00001000
00010000
00000000
00000010
00001000
00000100
00000000
,
00010000
00010000
00001000
00000000
00100000
00010000
10000000
00000000
,
11000000
01010000
00011000
00001010
,
00000010
00000100
00000010
00000100
00000010
00000000
00001001
00000000
,
00000010
00001000
00000100
00000000
00010000
00001000
01000000
00000000
,
00100000
10000000
01000000
00000000
00010000
00000010
00000100
00000000
,
00001000
00000001
00000100
00000000
00001000
00000100
00000010
00000000
,
00000010
00000100
00001000
00010000
01000000
00100000
10000000
10000000
,
10000000
00000000
00010000
00000000
10000000
00010000
01000000
00000000
,
00100000
01000000
00010000
00001000
00000100
00000010
00000001
00000001
,
00000001
00000000
00000010
00000000
00000010
00001000
00000010
00000000
,
00001000
00000000
00100000
00010000
00100000
00000000
10100000
00000000
,
10000000
00010000
01000000
00000000
00010000
00001000
00000100
00000000
,
00000001
00001000
00000100
00001000
00000010
00000000
00000011
00000000
,
00001100
00000000
00000010
00000001
00000010
00000000
00000001
00000100
,
00001000
00000000
00100000
01000000
10000000
00000000
01100000
00000000
,
00010000
10000000
01000000
00010000
00001000
00000000
00000100
00000000
,
00001000
00000001
00000100
00000001
00001001
00000000
00011000
00000000
,
01010000
00000000
00100000
00000000
00100000
00010000
10000000
01000000
,
00010000
00000000
10010000
00000000
00100000
00010000
01000000
10000000
,
00100000
00000000
00000000
00000000
,
00000000
00000000
00000000
00000000
;

//---------------dance-couple - ----------------
#NOTES:
     dance-couple:
     :
     Medium:
     5:
     0.193549,0.341838,0.125063,0.000000,0.000000,130.000000,118.000000,12.000000,0.000000,0.000000,0.000000,0.193549,0.341838,0.125063,0.000000,0.000000,130.000000,118.000000,12.000000,0.000000,0.000000,0.000000:
00000000
00000000
00000000
00000000
,
00000000
00000000
00000000
00000000
,
00000000
00000000
00000000
00000000
,
00000000
00000000
00000000
00000000
,
00000000
00000000
00000000
00000000
,
00100000
00000000
00010000
00000000
10000000
00000000
00010000
00100000
,
01000000
00000000
00100000
00000000
00010000
00000000
10000000
00100000
,
00000010
00000000
00000001
00000000
00001000
00000000
00000001
00000010
,
00000100
00000000
00000010
00000000
00000001
00000000
00001000
00000010
,
00110000
00010100
01000000
00100100
,
10000000
00000000
01000100
00000000
00100000
00000000
00010100
01000000
,
10000000
00010100
01000000
00100100
,
10010000
01000100
00000000
00100100
,
00000011
00100001
00000100
00100010
,
00001000
00000000
00100100
00000000
00000010
00000000
00100001
00000100
,
00001000
00100001
00000100
00100010
,
00001001
00100100
00000000
00100100
,
10011001
10011001
10011001
00000000
00100010
00000000
00010001
00000000
,
01000100
00010001
10001000
00000000
00100010
00010001
00100010
00000000
,
00100010
10001000
01000100
10001000
00010001
01000100
00100010
00000000
,
10001000
00010001
10001000
00010001
10001000
00000000
01100110
00000000
,
00010001
00010001
00100010
00000000
00100010
00010001
10001000
00000000
,
10001000
10001000
01000100
00000000
00100010
10001000
00010001
00000000
,
11001100
01010101
00110011
10101010
,
00100010
01000100
00100010
01000100
00100010
00000000
10011001
00000000
,
00100100
00000000
00010000
00000000
10000000
01000000
00100000
00000000
,
00100100
00000000
10000000
00000000
00010000
01000000
00100000
00000000
,
00100100
01000000
10000000
00100000
,
00100100
00010000
00100000
00000000
00100000
10000000
00100000
00000000
,
01000010
00000000
00000001
00000000
00001000
00000100
00000010
00000000
,
01000010
00000000
00001000
00000000
00000001
00000100
00000010
00000000
,
01000010
00000100
00001000
00000010
,
01000010
00000001
00000010
00000000
00000010
00001000
00000010
00000000
,
00000000
00000000
00000000
00000000
,
00010001
00000000
00100010
00000000
,
10001000
00000000
00100010
00000000
,
00100010
00100010
01000100
00000000
,
00010001
00000000
01000100
00000000
,
10001000
00000000
01000100
00000000
,
00000001
00000000
10000000
00000000
,
00000010
00000000
01000000
00000000
,
10011001
00000000
00000000
00000000
;

//---------------dance-solo - ----------------
#NOTES:
     dance-solo:
     :
     Easy:
     2:
     0.128040,0.192284,0.000000,0.000000,0.000000,86.000000,86.000000,0.000000,0.000000,0.000000,0.000000,0.128040,0.192284,0.000000,0.000000,0.000000,86.000000,86.000000,0.000000,0.000000,0.000000,0.000000:
000000
000000
000000
000000
,
000000
000000
000000
000000
,
000000
000000
000000
000000
,
000000
000000
000000
000000
,
000000
000000
000000
000000
,
000001
000000
100000
000000
,
000010
000000
010000
000000
,
000001
000000
100000
000000
,
000010
000000
010000
000000
,
000010
000000
000001
000000
,
010000
000000
100000
000000
,
000100
000000
000100
000000
,
100000
000000
000001
000000
,
000010
000000
000001
000000
,
010000
000000
100000
000000
,
000100
000000
000100
000000
,
100000
000000
000001
000000
,
000010
000000
000010
000000
,
010000
000000
010000
000000
,
000001
000000
001000
000000
,
100000
000000
001000
000000
,
000010
000000
000010
000000
,
010000
000000
010000
000000
,
000001
000000
100000
000000
,
000100
000100
000100
001000
,
000100
000001
100000
001000
,
000100
100000
000001
001000
,
000010
000000
010000
000000
,
000001
000000
100000
000001
,
000100
000001
100000
001000
,
000100
100000
000001
001000
,
000010
000000
010000
000000
,
000010
000000
010000
000000
,
000100
000000
001000
000000
,
000100
000000
100000
000001
,
001000
000000
000010
000000
,
010000
000000
001000
000000
,
000100
000000
001000
000000
,
000100
000000
010000
000010
,
010000
000000
001000
000000
,
000100
000000
001000
000000
,
000010
000000
000000
000000
;

//---------------dance-solo - ----------------
#NOTES:
     dance-solo:
     :
     Medium:
     4:
     0.259058,0.320473,0.364766,0.000000,0.000000,174.000000,139.000000,35.000000,0.000000,0.000000,0.000000,0.259058,0.320473,0.364766,0.000000,0.000000,174.000000,139.000000,35.000000,0.000000,0.000000,0.000000:
000000
000000
000000
000000
,
000000
000000
000000
000000
,
000000
000000
000000
000000
,
000000
000000
000000
000000
,
000000
000000
000000
000000
,
000010
000001
010000
100000
,
000001
001000
100000
001000
,
000001
000001
100000
100000
,
001000
001000
000100
000100
,
000100
010000
000100
100001
,
000100
000010
000100
100001
,
000010
101000
000010
101000
,
100000
000001
001000
001000
,
000100
010000
000100
100001
,
000100
000010
000100
100001
,
010000
001001
010000
001001
,
000001
100000
001000
001000
,
000010
000100
001000
000001
,
000010
000100
001000
000001
,
000010
000010
001100
100001
,
000101
100100
101000
001001
,
010000
000100
001000
100000
,
010000
000100
001000
100000
,
010000
010000
000101
100100
,
100001
001100
000010
010000
,
000100
001000
000100
001000
,
000010
100001
000010
100001
,
000010
000000
010000
000000
,
000100
000100
101000
001001
,
000100
001000
000100
001000
,
000010
100001
000010
100001
,
000010
001001
010000
101000
,
000010
001000
010000
001000
,
000001
000010
000100
000010
,
000001
000010
001100
100010
,
010001
000000
000100
000000
,
000010
100001
001000
001000
,
100000
010000
000100
010000
,
100000
010000
001100
010001
,
100010
000000
000100
000000
,
000010
100001
100000
000001
,
001100
000000
000000
000000
;

//---------------dance-solo - ----------------
#NOTES:
     dance-solo:
     :
     Hard:
     6:
     0.320101,0.384567,0.364766,0.000000,0.000000,215.000000,180.000000,35.000000,0.000000,0.000000,0.000000,0.320101,0.384567,0.364766,0.000000,0.000000,215.000000,180.000000,35.000000,0.000000,0.000000,0.000000:
000000
000000
000000
000000
,
000000
000000
000000
000000
,
000000
000000
000000
000000
,
000000
000000
000000
000000
,
000000
000000
000000
000000
,
000100
000001
001000
000000
000100
100000
001000
000000
,
000100
000001
001000
000000
000100
100000
001000
000000
,
000010
000001
010000
100000
,
000010
000000
010000
000000
001100
001100
100001
000000
,
000100
000000
000100
000000
001000
000001
010000
000000
,
000100
000000
000100
000000
001000
100000
000010
000000
,
000100
000000
000100
000000
001000
000101
100100
000000
,
000100
000000
000100
000000
001000
000110
010100
000000
,
001000
000000
000001
000000
001001
101000
100100
000000
,
001000
000000
000001
000000
000101
100100
101000
000000
,
001000
000000
100000
000000
000101
001001
000101
000000
,
001000
000000
000001
000000
100100
101000
100100
000000
,
000010
000010
000010
101000
,
010000
010000
010000
001001
,
000100
000010
000001
001000
,
000100
010000
100000
001000
,
000010
000010
000010
100100
,
010000
010000
010000
000101
,
010000
001000
000010
001000
,
000101
100100
011000
001010
,
000100
000001
000100
000000
010000
010000
010000
010000
,
000100
100000
000100
000000
000010
000010
000010
000010
,
100000
000100
010000
001000
,
000001
000100
000010
010000
000001
010000
001000
000000
,
000100
000010
100000
000000
000001
000001
000001
000001
,
000100
010000
000001
000000
100000
100000
100000
100000
,
000100
000000
000001
000000
000010
010000
001000
000000
,
000100
000000
010000
000010
001000
000000
000100
000000
,
000100
000010
100000
000000
001000
001000
001000
000000
,
010000
000100
101000
000110
,
001001
001000
010000
001000
,
000010
000000
001000
000000
010000
001000
100001
000000
,
000100
010000
000001
000000
001000
001000
001000
000000
,
000010
000100
001001
010100
,
101000
001000
000010
001000
,
010000
001000
000010
001000
,
010010
000000
000000
000000
;

//---------------dance-single - ----------------
#NOTES:
     dance-single:
     :
     Challenge:
     11:
     0.488339,0.557180,0.135484,0.479406,0.270969,328.000000,315.000000,13.000000,46.000000,0.000000,0.000000,0.488339,0.557180,0.135484,0.479406,0.270969,328.000000,315.000000,13.000000,46.000000,0.000000,0.000000:
// measure 0
0000
0000
0000
0000
,  // measure 1
0000
0000
0000
0000
,  // measure 2
0000
0000
0000
0000
,  // measure 3
0000
0000
0000
0000
,  // measure 4
0000
0000
0000
0000
,  // measure 5
0100
0000
0100
0000
0010
0000
1000
0002
0000
0023
0000
0230
0000
2300
0000
3001
,  // measure 6
0020
0000
0031
2000
0100
3000
0010
0000
0001
0000
1000
0001
1000
0000
0010
0000
,  // measure 7
0210
0000
0000
0000
0302
0000
0000
1003
0010
1000
0010
0000
0100
0001
0010
0000
,  // measure 8
0100
2000
0000
0000
3010
0000
0100
0001
0100
0000
0010
0000
2002
0000
3003
0000
,  // measure 9
0110
0000
0010
0000
1000
0000
0001
0000
1000
0000
0000
0000
0100
0001
0000
0100
,  // measure 10
1000
0010
1000
0100
0010
0001
0010
0001
,  // measure 11
0200
0000
0000
0000
0310
0000
1000
0001
1000
0010
2000
0000
3200
0000
0320
0000
,  // measure 12
0032
0000
1003
0010
1000
0001
1000
0100
,  // measure 13
0010
0000
0001
0100
0001
0000
1000
0001
1000
0000
0010
0000
0100
0000
0001
0000
,  // measure 14
0010
0100
1000
0010
1002
0000
0203
0000
,  // measure 15
0310
1000
0001
1000
0010
0010
0110
0000
,  // measure 16
0100
0000
0001
0000
0010
0000
1000
0000
0010
0001
0100
0000
0001
0000
0010
0000
,  // measure 17
1010
1010
1001
0000
0001
0100
0010
0100
,  // measure 18
0001
1000
0001
0000
0100
0010
0100
0000
,  // measure 19
0001
0000
1000
0001
1000
0000
0010
0000
1000
0000
0100
0010
0001
1000
0001
1000
,  // measure 20
0010
1000
0010
1000
0001
0100
0001
0100
0010
0000
1000
0000
0100
0000
0010
0000
,  // measure 21
0001
0000
0101
0000
0200
0000
0320
0000
2030
0000
3002
0000
1003
0100
0010
0001
,  // measure 22
1000
0010
2000
0000
3002
0000
0000
0000
0103
0000
0010
0000
1000
0001
1000
0001
,  // measure 23
0200
0000
0310
0000
0000
0000
2000
0000
3020
0000
0230
0000
0302
0000
0013
0001
,  // measure 24
0100
0010
0100
0010
1000
0100
1000
0100
0020
0000
0032
0000
0203
0000
0320
0000
,  // measure 25
1030
0000
0001
0000
1000
0000
0010
0000
0100
0001
0010
0000
0100
0000
1100
0000
,  // measure 26
1000
0000
0001
0010
0001
0100
0001
0000
1000
0000
0010
0000
0100
0000
0010
0000
,  // measure 27
1000
0000
0001
0010
0001
0000
0100
0000
0010
0000
0010
0000
1000
0000
0001
0000
,  // measure 28
0010
0001
0100
0010
1000
0100
0010
0001
,  // measure 29
0101
0000
0100
0000
0010
0000
1000
0000
0001
1000
0001
0000
0100
0000
0010
0000
,  // measure 30
0100
0000
0001
0000
0010
0000
0100
0000
1000
0001
1000
0001
0010
0000
0001
0000
,  // measure 31
0200
0320
1030
0001
2000
3200
0320
0031
,  // measure 32
0100
0001
0100
0010
1000
0000
0010
0000
1000
0000
0100
0000
0010
0000
0001
0000
,  // measure 33
0101
0100
0010
1000
0100
0010
0002
0000
,  // measure 34
1003
0000
0100
0000
1000
0000
0010
0100
0001
0000
0010
0000
0001
0000
1000
0000
,  // measure 35
0100
0000
1000
0010
0001
1000
0100
0001
,  // measure 36
1000
0000
0010
0100
0001
0100
0010
0000
,  // measure 37
1000
0001
0010
0001
0010
0100
1000
0001
,  // measure 38
0200
0000
0000
0000
0301
0000
0010
0001
0100
0000
0001
0000
1000
0000
0100
0000
,  // measure 39
2000
0000
3010
0100
0002
0000
0023
0000
0031
0000
1000
0000
0100
1000
0010
1000
,  // measure 40
0001
0000
0002
0000
0000
0000
0103
0010
0100
0000
0001
0000
0010
0000
0100
0000
,  // measure 41
2002
3003
0000
0000
0000
0000
0000
0000
;
