#TITLE:ÆTHER;
#SUBTITLE:;
#ARTIST:TAG underground;
#TITLETRANSLIT:;
#SUBTITLETRANSLIT:;
#ARTISTTRANSLIT:;
#GENRE:;
#CREDIT:;
#BANNER:AETHER.png;
#BACKGROUND:AETHER-bg.png;
#LYRICSPATH:;
#CDTITLE:;
#MUSIC:AETHER.ogg;
#OFFSET:0.000000;
#SAMPLESTART:1.250000;
#SAMPLELENGTH:15.000000;
#SELECTABLE:YES;
#DISPLAYBPM:192.000000:384.000000;
#BPMS:0.000000=387.096985
,4.000000=383.699005
,72.000000=383.989014
,266.000000=192.000000
,362.000000=191.488998
,364.000000=384.000000
;
#STOPS:72.000000=0.933000,
362.000000=0.627000
;
#BGCHANGES:;
#KEYSOUNDS:;
#ATTACKS:;

//---------------dance-single - ----------------
#NOTES:
     dance-single:
     :
     Beginner:
     6:
     0.272147,0.582642,0.131950,0.090716,0.000000,231.000000,215.000000,16.000000,11.000000,0.000000,0.000000,0.272147,0.582642,0.131950,0.090716,0.000000,231.000000,215.000000,16.000000,11.000000,0.000000,0.000000:
0000
0000
0000
0000
,
0000
0000
0000
0000
,
0000
0000
0000
0000
,
0000
0000
0000
0000
,
0000
0000
0000
0000
,
0000
0000
0000
0000
,
0000
0000
0000
0000
,
0000
0000
0000
0000
,
0000
0000
0000
0000
,
0000
0000
0000
0000
,
0100
0000
0000
0000
,
0100
0000
0000
0000
,
1000
0000
0000
0000
,
1000
0000
0000
0000
,
0001
0000
0000
0000
,
0001
0000
0000
0000
,
0100
0000
0000
0000
,
0100
0000
0000
0000
,
0100
0000
0001
0000
,
0000
0000
0001
0000
,
0000
0000
0001
0000
,
0001
0000
0002
0000
,
0003
0000
1000
0000
,
0000
0000
1000
0000
,
0000
0000
1000
0000
,
1000
0000
2000
0000
,
3000
0000
0100
0000
,
0000
0000
0100
0000
,
0000
0000
0100
0000
,
0100
0000
0200
0000
,
0300
0000
1000
0000
,
0000
0000
0001
0000
,
0000
1001
0000
0000
,
0000
0000
0000
0000
,
0000
0000
0010
0000
,
0000
0000
1000
0000
,
0000
0000
0001
0000
,
0001
0000
2000
0000
,
3000
0000
0100
0000
,
0000
0000
0001
0000
,
0000
0000
1000
0000
,
1000
0000
0020
0000
,
0030
0000
0100
0000
,
0000
0000
1000
0000
,
0000
0000
0001
0000
,
0001
0000
0020
0000
,
0030
0000
0001
0000
,
0000
0000
1000
0000
,
0000
1001
0000
0000
,
0000
0000
0000
0000
,
0000
0000
1000
0000
,
1000
0000
1000
0000
,
0000
0000
0001
0000
,
0001
0000
0010
0000
,
0010
0000
0100
0000
,
0100
0000
0100
0000
,
0000
0000
0001
0000
,
0001
0000
1000
0000
,
1000
0000
0010
0000
,
0010
0000
0010
0000
,
0000
0000
0001
0000
,
0001
0000
0100
0000
,
0100
0000
1000
0000
,
1000
0000
1000
0000
,
0000
1001
0000
0000
,
0000
0000
0000
0000
,
0000
0000
0001
0000
,
0000
0000
0100
0000
,
0000
0000
1000
0000
,
0000
0000
0010
0000
,
0000
0000
1000
0000
,
0000
0000
0100
0000
,
0000
0000
0001
0000
,
0000
0000
0010
0000
,
0000
0000
1000
0000
,
1000
0000
0100
0000
,
0100
0000
0001
0000
,
0001
0000
0010
0000
,
0010
0000
1001
0000
,
1001
0000
1001
0000
,
1001
0000
0010
0010
,
0010
0010
0100
0100
,
0100
0100
0200
0000
,
0000
0000
0000
0000
,
0000
0000
0000
0000
,
0000
0000
0000
0000
,
0000
0300
0020
0000
,
0000
0030
0020
0000
,
0000
0030
0020
0030
,
0020
0030
0010
0010
,
0010
0010
0010
0000
,
0001
0000
0001
0000
,
0000
0000
0001
0000
,
0000
0000
0001
0000
,
1000
0000
1000
0000
,
0010
0000
0010
0000
,
0000
0000
0010
0000
,
0000
0000
0010
0000
,
1000
0000
1000
0000
,
0100
0000
0100
0000
,
0000
0000
0100
0000
,
0000
0000
0100
0000
,
1000
0000
1000
0000
,
0001
0000
0001
0000
,
0001
0000
0000
1000
,
0000
0001
0000
0000
,
1001
0000
0000
0000
,
1000
0000
1000
0000
,
0001
0000
0001
0000
,
1000
0000
1000
0000
,
1000
0000
0000
0000
,
0010
0000
0010
0000
,
0001
0000
0001
0000
,
0010
0000
0010
0000
,
0010
0000
0000
0000
,
0001
0000
0001
0000
,
0100
0000
0100
0000
,
0010
0000
0010
0000
,
0010
0000
0000
0000
,
0010
0000
0010
0000
,
0010
0000
0000
1000
,
0000
0001
0000
0000
,
1001
0000
0000
0000
,
0100
0000
0000
0100
,
0000
0000
0100
0000
,
0000
0100
0000
0000
,
0100
0000
0110
0000
,
0001
0000
0000
0001
,
0000
0000
0001
0000
,
0000
0001
0000
0000
,
0001
0000
1001
0000
,
1000
0000
0000
1000
,
0000
0000
1000
0000
,
0000
1000
0000
0000
,
1000
0000
1001
0000
,
0010
0000
0010
0000
,
0010
0000
0010
0000
,
0100
0000
0100
0000
,
0100
0000
0100
0000
,
0001
0000
0000
1000
,
0000
0000
0001
0000
,
0000
1000
0000
0000
,
0001
0000
1001
0000
,
0010
0000
0000
0100
,
0000
0000
0010
0000
,
0000
0100
0000
0000
,
0010
0000
0110
0000
,
0001
0000
0000
1000
,
0000
0000
0001
0000
,
0000
1000
0000
0000
,
0001
0000
1001
0000
,
0010
0000
0010
0000
,
0010
0000
0000
0100
,
0000
0100
0000
0100
,
0000
0100
0000
0100
,
0000
0100
0000
0100
,
0000
0100
0000
0000
,
1001
0000
0000
0000
,
0000
0000
0000
0000
;

//---------------dance-single - ----------------
#NOTES:
     dance-single:
     :
     Easy:
     9:
     0.485388,0.857675,0.329875,0.222666,0.000000,412.000000,372.000000,40.000000,27.000000,0.000000,0.000000,0.485388,0.857675,0.329875,0.222666,0.000000,412.000000,372.000000,40.000000,27.000000,0.000000,0.000000:
0000
0000
0000
0000
,
0000
0000
0000
0000
,
0000
0000
0000
0000
,
0000
0000
0000
0000
,
0000
0000
0000
0000
,
0000
0000
0000
0000
,
0000
0000
0000
0000
,
0000
0000
0000
0000
,
0000
0000
0000
0000
,
0000
0000
0000
0000
,
0001
0000
0100
0000
,
0001
0000
0100
0000
,
0010
0000
1000
0000
,
0001
0000
0010
0000
,
0001
0000
1000
0000
,
0001
0000
0010
0100
,
0000
0100
0000
0100
,
0000
0100
0010
0000
,
1001
0000
1000
0000
,
1000
0000
0001
0100
,
0000
0100
0010
0000
,
1000
0000
0200
0000
,
1000
0000
0310
0000
,
0001
0000
0100
0001
,
0000
1000
0000
0010
,
0000
0001
2000
0000
,
0010
0000
0000
0000
0000
0000
0000
0000
0000
0000
0000
0000
0000
0000
0000
0000
0000
0000
0000
0000
0000
0000
0000
0000
0000
0000
0000
0000
0000
0000
0000
0000
0000
0000
0000
0000
0000
0000
0000
0000
0000
0000
0000
0000
0000
0000
0000
0000
0000
0000
0000
0000
0000
0000
0000
0000
0000
0000
0000
0000
0000
0000
0000
0000
0000
0000
0000
0000
0000
0000
0000
0000
0000
0000
0000
0000
0000
0000
0000
0000
0000
0000
0000
0000
0000
0000
0000
0000
0000
0000
0000
0000
0000
0000
0000
3000
0001
0000
0000
0000
0000
0000
0000
0000
0000
0000
0000
0000
0000
0000
0000
0000
0000
0000
0000
0000
0000
0000
0000
0000
0000
0000
0000
0000
0000
0000
0000
0000
0000
0000
0000
0000
0000
0000
0000
0000
0000
0000
0000
0000
0000
0000
0000
0000
0000
0000
0000
0000
0000
0000
0000
0000
0000
0000
0000
0000
0000
0000
0000
0000
0000
0000
0000
0000
0000
0000
0000
0000
0000
0000
0000
0000
0000
0000
0000
0000
0000
0000
0000
0000
0000
0000
0000
0000
0000
0000
0000
0000
0000
0000
0000
0000
,
0001
0000
1000
0100
,
0000
0100
0010
0000
,
0001
0000
0200
0000
,
0001
0000
0310
0000
,
1000
0000
0001
0100
,
0000
0010
0000
1000
,
0000
0110
0000
1000
,
0001
0000
0100
0000
,
0100
0000
0001
0010
,
0000
0010
0100
0000
,
1000
0000
0002
0000
,
1000
0000
0103
0000
,
0010
0000
1000
0100
,
0000
0010
0000
0100
,
0000
0010
0002
0000
,
0203
0000
0310
0000
,
0010
0000
1000
0100
,
0000
0100
0010
0000
,
0001
0000
2000
0000
,
0001
0000
3010
0000
,
0100
0000
0001
1000
,
0000
1010
0000
0110
,
0000
0101
0000
0100
,
0010
0000
1000
0000
,
1000
0000
0010
1000
,
0010
0000
1000
0000
,
0001
0000
1000
0010
,
0100
0000
0001
0000
,
0010
0000
0001
0010
,
0001
0000
1000
0000
,
0001
0000
1000
0100
,
0010
0000
0001
0000
,
1000
0000
0001
0100
,
0001
0000
0010
0000
,
0100
0000
0001
0100
,
0010
0000
1000
0000
,
0100
0000
0010
0100
,
0000
0010
0000
1100
,
0000
0101
0000
1000
,
0001
0000
2000
0000
,
3020
0000
0230
0000
,
0302
0000
2003
0000
,
3200
0000
0320
0000
,
0032
0000
0203
0000
,
0320
0000
2030
0000
,
3002
0000
0023
0000
,
0230
0000
2300
0000
,
3002
0000
0103
0100
,
0100
0100
0100
0100
,
0100
0010
0100
0000
0101
0000
1100
0000
,
0001
0001
1000
1000
,
0001
1000
0001
0000
1001
0000
0000
0000
,
1100
0000
0101
0000
,
0011
0000
0110
0110
,
0110
0000
0001
1000
0000
0001
0000
1000
,
0000
0001
0000
1000
0000
0010
0000
0010
,
0000
0010
0000
0010
0000
0100
0000
0100
,
0000
0100
0000
0100
0010
0000
1001
0000
,
0000
0010
0000
0010
0000
0100
0000
0100
,
0000
0100
0000
0100
0010
0000
0000
1000
,
0010
0000
0000
0001
0010
0000
0000
0100
,
0010
0000
0000
1000
0001
0000
1000
0000
,
0001
0000
1001
0000
0110
0000
0000
1001
,
0000
0000
0001
1000
0002
0000
0003
0000
,
0100
0000
0010
1000
,
0010
0000
1000
0001
,
1000
0000
0001
0000
,
1000
0100
0010
0000
,
0001
0000
0010
0001
,
0010
0000
0001
1000
,
0001
0000
0100
0000
,
0010
1000
0001
0000
,
0100
0000
0001
0100
,
0001
0000
0010
0100
,
0010
0000
0001
0000
,
0100
0010
1000
0000
,
0001
0000
0010
0000
,
0100
0000
1000
1000
,
0000
1001
0000
0010
,
0100
0000
0010
0000
,
1000
0100
0010
0001
,
0000
1000
0100
0010
,
0000
1000
0100
0010
,
0001
0000
1000
0000
,
0001
0100
0010
1000
,
0000
0001
0100
0010
,
0000
0001
0100
0010
,
1000
0000
0001
0000
,
1000
0100
0010
0001
,
0000
1000
0100
0010
,
0000
1000
0100
0010
,
0001
0000
1000
0000
,
0001
0000
0100
0000
,
1000
0000
0010
0001
,
0000
1000
0000
0001
,
0200
0000
0000
0300
,
1010
0000
0000
1100
,
0000
0000
0101
0000
,
0000
0011
0000
0000
,
0100
0000
1000
0000
,
1010
0000
0000
0011
,
0000
0000
0101
0000
,
0000
1100
0000
0000
,
0010
0000
0100
0000
,
0101
0000
0000
0011
,
0000
0000
1010
0000
,
0000
1100
0000
0000
,
0001
0000
1000
0000
,
0100
0000
0010
0000
,
0100
0000
1000
0001
,
0000
0100
0000
0100
,
0000
0100
0010
0100
,
0001
0000
0001
1000
,
0000
1000
0100
0000
,
0100
0010
0000
0010
,
0001
0010
0100
0000
,
1000
0000
1000
0010
,
0000
0010
0100
0000
,
0100
0001
0000
0001
,
1000
0010
0100
0001
,
0010
0000
0010
0100
,
0000
0100
1000
0000
,
1000
0001
0000
0001
,
0100
0010
1000
0001
,
0100
0000
0010
0000
,
0100
0000
0001
1000
,
0000
1100
0000
0101
,
0000
1100
0000
0101
,
0000
1100
0000
0101
,
0000
1000
0001
0000
,
0220
0000
0000
0000
,
0000
0000
0000
0000
,
0000
0000
0000
0000
,
0330
0000
0000
0000
,
0000
0000
0000
0000
;

//---------------dance-single - ----------------
#NOTES:
     dance-single:
     :
     Medium:
     14:
     0.722191,1.187551,0.511306,0.214419,0.008247,613.000000,551.000000,62.000000,26.000000,0.000000,0.000000,0.722191,1.187551,0.511306,0.214419,0.008247,613.000000,551.000000,62.000000,26.000000,0.000000,0.000000:
0000
0000
0000
0000
,
0000
0000
0000
0000
,
0000
0000
0000
0000
,
0000
0000
0000
0000
,
0000
0000
0000
0000
,
0000
0000
0000
0000
,
0000
0000
0000
0000
,
0000
0000
0000
0000
,
0000
0000
0000
0000
,
0000
0000
0000
0000
,
0010
1000
0010
1000
,
0001
0010
0001
0010
,
0100
1000
0100
1000
,
0001
0100
0001
0100
,
0010
0000
1000
0000
,
0001
0000
1000
0010
,
0000
0101
0000
1001
,
0000
0100
0010
0100
,
0001
0000
1000
0100
,
2000
0000
3001
0010
,
0100
0010
0001
0100
,
0001
0000
0000
0000
0001
1000
0001
0000
,
0100
0000
0010
1000
,
0020
0000
1030
0100
,
0010
0001
0100
0001
,
0010
0001
0200
0320
,
2030
3002
0103
0001
,
0200
0000
0310
1000
,
0001
0100
0010
1000
,
0100
0000
0000
0000
0100
1000
0100
0000
,
0010
0000
0001
1000
,
0002
0000
0103
0100
,
0010
0010
0000
0100
,
0000
0001
0000
1000
,
0001
0000
0010
1000
,
0002
0000
0013
0001
,
1000
0010
1000
0001
,
0010
0000
0001
0000
0100
0010
0100
0000
,
0001
0000
1000
0001
,
0200
0000
0301
1000
,
0100
0010
0100
1000
,
0001
0010
0002
0203
,
0320
2030
3001
0100
,
0020
0000
1030
0100
,
0010
0100
1000
0001
,
0100
0000
0001
0000
1000
0010
1000
0000
,
0001
0000
0001
0100
,
0020
0000
1030
0001
,
0000
0011
0000
0101
,
0000
1100
0000
0010
,
1000
0000
0001
0100
,
0001
0001
1000
0100
,
1000
0001
0100
0001
,
0100
0000
0010
0000
0100
0010
0100
0000
,
0001
0000
0001
0100
,
0001
0001
1000
0100
,
0100
1000
0001
1000
,
0100
0000
0010
0000
0100
0010
0100
0000
,
1000
0000
1000
0001
,
0010
0010
0001
1000
,
0010
1000
0001
0010
,
0001
0000
0010
0000
0100
0010
0100
0000
,
1000
0000
1000
0100
,
0010
0010
0001
1000
,
0010
1010
0000
1100
,
0000
0101
0000
0010
,
0001
0000
0200
1000
,
0000
1000
0000
1300
,
1000
0010
0001
0000
2000
0000
0100
0000
,
0000
0100
0000
3100
,
0001
0100
1000
0000
0002
0000
0010
0000
,
0000
0010
0000
0013
,
0001
0010
1000
0000
0010
0000
0001
0000
,
0100
0000
0010
0100
0000
0001
0000
1000
,
2002
3003
0010
0010
,
0010
0010
0010
0010
,
0010
0001
0100
0001
0011
0000
1100
0000
,
0100
0100
0100
0100
,
0100
1000
0010
1000
1010
0000
1000
0000
,
1100
0100
0110
0010
,
0011
0001
0101
1100
,
1010
0000
0110
0110
0000
0101
0000
0011
,
0000
1010
0000
1100
0000
0001
0000
1000
,
0000
0001
0000
1000
0000
0001
0000
1000
,
0000
0001
0000
1000
0010
0001
0010
1000
,
0000
0001
0000
1000
0000
0001
0000
1000
,
0000
0001
0000
1000
0100
0001
0000
0001
,
0100
1000
0000
1000
0010
0001
0000
0001
,
0010
1000
0000
1000
0100
0001
0100
1000
,
0010
0000
0001
0000
0010
0000
1000
0000
0100
0000
0000
0010
0000
0000
0001
0000
,
0000
0100
0000
0000
0010
0000
1000
0000
2002
0000
0000
0000
3003
0000
0000
0000
,
0010
0001
0100
0001
,
0010
0100
1000
0100
,
0010
0001
0100
0010
,
0100
0001
0100
0000
0010
0000
0000
0000
,
0010
1000
0100
1000
,
0010
0100
0001
0100
,
0010
1000
0100
0010
,
0001
0100
0001
0000
1000
0000
0000
0000
,
1000
0100
0010
0100
,
1000
0010
0100
0001
,
0010
0100
1000
0001
,
0100
0001
0100
0000
0010
0000
1000
0000
,
0100
0000
0010
0000
,
0001
0000
1001
1001
,
0000
1010
0000
0100
,
0010
0000
1000
0001
1000
0000
0010
0000
,
0100
0001
1000
1000
,
0001
0100
0001
0001
,
0010
0001
0100
0010
,
1000
0100
1000
0000
0001
0100
0001
0000
,
1000
0010
0100
0100
,
0010
1000
0100
0100
,
0010
0001
0100
0001
,
1000
0010
1000
0000
0001
0010
0001
0000
,
1000
0010
0001
0001
,
0010
0100
0100
0010
,
1000
0100
0010
0001
,
1000
0001
1000
0000
0010
0100
0010
0000
,
1000
0000
0100
0000
,
0010
0000
0110
0110
,
0000
1100
0000
0001
,
0200
0010
0310
0000
,
0110
0000
0100
1100
,
0000
1000
1010
0000
,
0010
0011
0000
0001
,
0100
0010
1010
0000
,
1100
0000
0100
0101
,
0000
0001
0011
0000
,
0010
1010
0000
1000
,
0100
0010
0011
0000
,
1001
0000
1010
1010
,
0000
0101
0101
0000
,
0011
0011
0000
0010
,
0100
1000
1001
0000
,
1100
0000
1010
0000
,
0011
0000
0001
0100
,
0000
0100
0000
0100
,
0000
0100
0100
0100
,
1000
0100
1000
0000
0001
0000
0100
0001
,
0100
0000
0001
0000
1000
0100
1000
0000
,
0001
0000
0100
0001
0100
0000
0001
0000
,
1000
0100
0100
0000
,
0010
0001
0010
0000
0001
0000
1000
0010
,
1000
0000
0001
0000
0010
0001
0010
0000
,
0001
0000
1000
0010
1000
0000
0001
0000
,
0100
0010
0010
0000
,
1000
0001
1000
0000
0010
0000
0100
0010
,
0100
0000
0001
0000
1000
0001
1000
0000
,
0100
0000
0010
0100
0010
0000
0100
0000
,
1000
0001
1000
0000
0010
0000
0100
0000
,
0001
0100
1000
0100
,
0001
1000
0100
1100
,
0000
1010
0000
0011
,
0000
0101
0000
1100
,
0000
0101
0000
0011
,
0000
1010
1010
0000
,
2002
0000
0000
0000
,
0000
0000
0000
0000
,
0000
0000
0000
0000
,
3003
0000
0000
0000
,
0000
0000
0000
0000
;

//---------------dance-single - ----------------
#NOTES:
     dance-single:
     :
     Hard:
     17:
     0.942500,1.517426,0.791700,0.074222,0.032988,800.000000,704.000000,96.000000,9.000000,0.000000,0.000000,0.942500,1.517426,0.791700,0.074222,0.032988,800.000000,704.000000,96.000000,9.000000,0.000000,0.000000:
// measure 0
0000
0000
0000
0000
,  // measure 1
0000
0000
0000
0000
,  // measure 2
0000
0000
0000
0000
,  // measure 3
0000
0000
0000
0000
,  // measure 4
0000
0000
0000
0000
,  // measure 5
0000
0000
0000
0000
,  // measure 6
0000
0000
0000
0000
,  // measure 7
0000
0000
0000
0000
,  // measure 8
0000
0000
0000
0000
,  // measure 9
0000
0000
0000
0000
,  // measure 10
0010
1000
0100
1000
,  // measure 11
0010
0100
0001
0010
,  // measure 12
0001
0100
0010
1000
,  // measure 13
0100
0010
0001
0100
,  // measure 14
0001
1000
0001
1000
,  // measure 15
0010
0100
0001
1001
,  // measure 16
0000
1010
0000
0101
,  // measure 17
0000
0010
0100
0010
,  // measure 18
0220
0330
0001
0100
,  // measure 19
0001
0001
1000
0010
,  // measure 20
0100
0100
0001
1000
,  // measure 21
0010
0000
1000
0000
0001
0100
0001
0100
,  // measure 22
0010
1000
0010
1000
0001
0000
1000
0000
,  // measure 23
0100
0100
1000
0100
,  // measure 24
0010
0001
1000
0100
,  // measure 25
1000
0000
0001
0000
0010
0001
0010
0001
,  // measure 26
1000
0100
1000
0100
0010
0000
0001
0000
,  // measure 27
1000
1000
0001
0100
,  // measure 28
0010
0100
0001
0010
,  // measure 29
0100
0000
1000
0000
0001
1000
0001
1000
,  // measure 30
0010
0100
0010
0100
0001
0000
1000
0000
,  // measure 31
0001
0001
0100
0010
,  // measure 32
0100
1010
0000
1001
,  // measure 33
0000
1100
0000
0011
,  // measure 34
1001
1000
0010
1000
,  // measure 35
0100
0100
0010
0100
,  // measure 36
1000
1000
0001
0010
,  // measure 37
0001
0000
0100
0000
0001
0010
0001
0010
,  // measure 38
0100
1000
0100
1000
0010
0000
1000
0000
,  // measure 39
0001
0001
0010
0100
,  // measure 40
0010
0001
0100
0001
,  // measure 41
0010
0000
0001
0000
1000
0010
1000
0010
,  // measure 42
0100
0001
0100
0001
1000
0000
0100
0000
,  // measure 43
1000
1000
0001
0100
,  // measure 44
0010
0100
0001
0010
,  // measure 45
0100
0000
1000
0000
0100
0010
0100
0010
,  // measure 46
0001
1000
0001
1000
0010
0000
0000
0000
,  // measure 47
1000
0000
0000
0000
0001
1000
0010
0100
,  // measure 48
0001
1000
0010
0000
0000
0000
0101
0000
,  // measure 49
0000
1001
0000
0011
,  // measure 50
1001
0000
1000
0001
0100
0000
0010
0000
,  // measure 51
1000
1000
0100
1000
,  // measure 52
0001
0001
0100
0010
,  // measure 53
1000
0000
0001
0000
1000
0001
0100
0001
,  // measure 54
1000
0010
0100
0010
1000
0000
0100
0000
,  // measure 55
0010
0010
0001
0100
,  // measure 56
0100
0010
1000
0100
,  // measure 57
1000
0000
0010
0000
1000
0010
0100
0010
,  // measure 58
1000
0001
0010
0001
0100
0000
0010
0000
,  // measure 59
1000
1000
0001
1000
,  // measure 60
0010
0010
0100
0001
,  // measure 61
1000
0000
0001
0000
0010
0100
1000
0100
,  // measure 62
0010
0001
1000
0001
0010
0000
0001
0000
,  // measure 63
0100
0100
0001
1000
,  // measure 64
0010
1010
0000
1100
,  // measure 65
0000
0101
0000
1100
,  // measure 66
1001
0000
0000
0000
1000
0100
0010
0001
,  // measure 67
0000
1000
0100
0010
0000
1000
0010
0001
,  // measure 68
1000
0100
0010
0001
0001
0100
0010
1000
,  // measure 69
0000
0001
0100
0010
0000
0001
0010
1000
,  // measure 70
0001
0100
0010
1000
0010
1000
0100
0001
,  // measure 71
0000
0010
0001
0100
0000
0010
1000
0100
,  // measure 72
0001
0100
1000
0010
0100
0000
0001
0000
,  // measure 73
1000
0000
0010
0100
0000
0100
0000
0100
,  // measure 74
0010
0000
1000
0000
0001
0100
0001
0100
0010
0000
0000
0000
0010
0000
0000
0000
,  // measure 75
0010
0010
0010
0010
,  // measure 76
0010
0100
0001
1000
1100
0000
0011
0000
,  // measure 77
0010
0010
0010
0010
,  // measure 78
0010
0000
0001
0000
1000
0010
1000
0010
0100
0000
0000
0000
1000
0000
0100
0000
,  // measure 79
0011
0000
0001
0100
1010
0000
1000
0100
,  // measure 80
0011
0000
0001
0100
1010
0000
1100
0000
,  // measure 81
0011
0000
0101
1001
0000
1010
0000
0011
,  // measure 82
0000
1010
0000
0011
0210
1000
0000
0001
,  // measure 83
0000
1000
0000
0001
0000
1000
0000
0001
,  // measure 84
0000
1000
0000
0301
0101
0010
1100
0020
,  // measure 85
0000
0001
0000
1000
0000
0001
0000
1000
,  // measure 86
0000
0001
0000
1030
0110
0001
0100
1000
,  // measure 87
0001
0010
1000
0100
0010
0001
0100
1000
,  // measure 88
0001
0010
1000
0100
0110
0001
0101
0000
,  // measure 89
0110
0000
1000
0000
1100
0000
0000
0000
0011
0000
0000
0101
0000
0000
1010
0000
,  // measure 90
0000
1100
0000
0000
0010
0001
0010
0001
2000
0000
0000
0000
3000
0000
0000
0000
,  // measure 91
0010
0000
1000
0100
1000
0000
0001
0000
,  // measure 92
1000
0000
0010
1000
0010
0000
0100
0000
,  // measure 93
0001
0000
0010
0001
0010
0000
0001
0000
,  // measure 94
0100
0001
0100
0000
0010
0000
0100
0000
,  // measure 95
0001
0000
0010
0001
0010
0000
0001
0000
,  // measure 96
0100
0000
0010
0100
0010
0000
0100
0000
,  // measure 97
0001
0000
0010
0100
0010
0000
0001
0000
,  // measure 98
0100
0010
1000
0100
,  // measure 99
1000
0000
0001
0010
0001
0000
1000
0000
,  // measure 100
0001
0000
0100
0001
0100
0000
0010
0000
,  // measure 101
1000
0000
0100
1000
0100
0000
0010
0000
,  // measure 102
0001
1000
0001
0000
1000
0100
1000
0000
,  // measure 103
0001
0100
0010
0100
,  // measure 104
0001
0000
1000
0100
1000
0000
1100
0000
,  // measure 105
0000
0011
0000
0101
,  // measure 106
1001
0000
0100
0000
0100
0001
0100
0000
,  // measure 107
0010
0000
1000
0010
0100
0000
0010
0000
,  // measure 108
1000
0000
0100
1000
0010
0000
1000
0000
,  // measure 109
0100
0000
0010
0001
0100
0000
0010
0000
,  // measure 110
0100
0001
1000
0000
0001
1000
0010
0000
,  // measure 111
1000
0000
0001
0010
0100
0000
0010
0000
,  // measure 112
0001
0000
0100
0001
0010
0000
0100
0000
,  // measure 113
0010
0000
0001
0100
0010
0000
0100
0000
,  // measure 114
0010
1000
0001
0000
0100
0001
1000
0000
,  // measure 115
0010
0000
0100
0001
0010
0000
0100
0000
,  // measure 116
1000
0000
0010
1000
0100
0000
0010
0000
,  // measure 117
0001
0000
0100
0010
1000
0000
0001
0000
,  // measure 118
0100
0010
0001
0000
0010
0100
1000
0000
,  // measure 119
0100
0000
0001
0000
,  // measure 120
0010
0000
1000
0100
,  // measure 121
0000
0110
0000
1001
,  // measure 122
2002
0000
0000
3003
,  // measure 123
1010
0000
0101
1001
,  // measure 124
0000
1100
1001
0000
,  // measure 125
0101
1001
0000
1100
,  // measure 126
0010
0001
1001
0000
,  // measure 127
0011
0000
1100
0110
,  // measure 128
0000
0101
0110
0000
,  // measure 129
1100
0110
0000
0101
,  // measure 130
0010
0100
0110
0000
,  // measure 131
1001
0000
1010
1100
,  // measure 132
0000
0011
0101
0000
,  // measure 133
1010
1100
0000
0011
,  // measure 134
0101
1000
1001
0000
,  // measure 135
0100
0001
0010
0001
,  // measure 136
1000
0000
0010
0100
0010
0100
0010
0000
,  // measure 137
0000
0010
0000
0010
,  // measure 138
0000
0010
0110
0110
,  // measure 139
1000
0010
1000
0010
1000
0000
0001
0010
,  // measure 140
0001
0010
0001
0000
1000
0100
1000
0100
,  // measure 141
1000
0000
0001
0100
0001
0100
0001
0000
,  // measure 142
1000
0010
1000
0010
0100
0000
0001
0100
,  // measure 143
0010
1000
0010
1000
0001
0000
1000
0100
,  // measure 144
1000
0100
0010
0000
0001
1000
0001
1000
,  // measure 145
0100
0000
1000
0010
1000
0010
0100
0000
,  // measure 146
0001
0010
0001
0010
0100
0000
1000
0100
,  // measure 147
0010
0001
1000
0001
0100
0000
0010
1000
,  // measure 148
0001
1000
0100
0000
1000
0010
0100
0001
,  // measure 149
1000
0000
0001
0010
0100
1000
0001
0000
,  // measure 150
0100
0010
1000
0100
0010
0000
0001
0100
,  // measure 151
0010
0100
0001
1000
0100
0010
0001
0100
,  // measure 152
0010
0100
0001
1000
0010
0100
0001
0000
,  // measure 153
0000
0101
0101
0011
,  // measure 154
0011
1010
1010
1100
,  // measure 155
1100
0011
0011
0101
,  // measure 156
0101
1010
1001
0000
,  // measure 157
0220
0000
0000
0000
,  // measure 158
0000
0000
0000
0000
,  // measure 159
0000
0000
0000
0000
,  // measure 160
0330
0000
0000
0000
;

//---------------dance-double - ----------------
#NOTES:
     dance-double:
     :
     Easy:
     9:
     0.478319,0.857675,0.313381,0.214419,0.000000,406.000000,368.000000,38.000000,26.000000,0.000000,0.000000,0.478319,0.857675,0.313381,0.214419,0.000000,406.000000,368.000000,38.000000,26.000000,0.000000,0.000000:
00000000
00000000
00000000
00000000
,
00000000
00000000
00000000
00000000
,
00000000
00000000
00000000
00000000
,
00000000
00000000
00000000
00000000
,
00000000
00000000
00000000
00000000
,
00000000
00000000
00000000
00000000
,
00000000
00000000
00000000
00000000
,
00000000
00000000
00000000
00000000
,
00000000
00000000
00000000
00000000
,
00000000
00000000
00000000
00000000
,
00010000
00000000
00001000
00000000
,
00000100
00000000
00000001
00000000
,
00000100
00000000
00000001
00000000
,
00000010
00000000
00001000
00000000
,
00010000
00000000
00100000
00000000
,
10000000
00000000
01000000
00100000
,
00000000
00100000
00000000
00100000
,
00000000
00100000
00010000
00000000
,
10010000
00000000
01000000
00000000
,
01000000
00000000
10000000
00010000
,
00000000
01000000
00100000
00000000
,
01000000
00000000
00020000
00000000
,
00001000
00000000
01030000
00000000
,
01000000
00000000
00100000
00010000
,
00000000
00001000
00000000
00010000
,
00000000
00000100
00002000
00000000
,
00010000
00000000
00003100
00000000
,
00000100
00000000
00001000
00000001
,
00000000
00000010
00000100
00000000
,
00000010
00000000
00002000
00000000
,
00010000
00000000
00003010
00000000
,
00000010
00000000
00000001
00001000
,
00000000
00000100
00000000
00001000
,
00000000
00011000
00000000
00010000
,
00001000
00000000
00100000
00000000
,
00100000
00000000
00010000
01000000
,
00000000
00100000
10000000
00000000
,
00100000
00000000
00020000
00000000
,
00001000
00000000
00130000
00000000
,
00100000
00000000
10000000
01000000
,
00000000
00010000
00000000
00001000
,
00000000
00010000
00002000
00000000
,
00000100
00000000
00013000
00000000
,
00010000
00000000
00000010
00001000
,
00000000
00000001
00000010
00000000
,
00000100
00000000
00002000
00000000
,
00010000
00000000
00003100
00000000
,
00000100
00000000
00000001
00001000
,
00000000
00001100
00000000
00001001
,
00000000
00001010
00000000
00000010
,
00000100
00000000
00000001
00000000
,
00000001
00000000
00001000
00000010
,
00001000
00000000
00000100
00000000
,
00000010
00000000
00000100
00010000
,
00001000
00000000
00010000
00000000
,
00010000
00000000
00100000
00010000
,
00100000
00000000
10000000
00000000
,
00010000
00000000
10000000
01000000
,
00100000
00000000
00010000
00000000
,
00010000
00000000
10000000
00100000
,
10000000
00000000
00010000
00000000
,
01000000
00000000
00100000
00010000
,
00001000
00000000
00010000
00000000
,
00010000
00000000
00001000
00010000
,
00000000
00101000
00000000
00011000
,
00000000
00010100
00000000
00001000
,
00000010
00000000
00002000
00000000
,
00003200
00000000
00000320
00000000
,
00000032
00000000
00002003
00000000
,
00003020
00000000
00020030
00000000
,
00032000
00000000
00203000
00000000
,
02300000
00000000
23000000
00000000
,
30020000
00000000
02030000
00000000
,
03200000
00000000
00320000
00000000
,
00032000
00000000
00013000
00010000
,
00010000
00010000
00010000
00010000
,
00010000
00001000
00000100
00000000
00000110
00000000
00000110
00000000
,
00000001
00000001
00000001
00000001
,
00000001
00000010
00001000
00000000
00011000
00000000
00000000
00000000
,
00110000
00000000
00011000
00000000
,
00001010
00000000
00011000
00011000
,
00011000
00000000
00010000
00100000
00000000
00100000
00000000
00100000
,
00000000
00100000
00000000
00100000
00000000
10000000
00000000
10000000
,
00000000
01000000
00000000
01000000
00000000
00010000
00000000
00010000
,
00000000
00001000
00000000
00001000
00010000
00000000
00011000
00000000
,
00000000
00000100
00000000
00000100
00000000
00000001
00000000
00000001
,
00000000
00000010
00000000
00000010
00001000
00000000
00000000
00001000
,
00010000
00000000
00000000
00010000
00100000
00000000
00000000
00100000
,
10000000
00000000
00000000
10000000
00100000
00000000
00010000
00000000
,
00001000
00000000
00000010
00000000
00001001
00000000
00000000
00000100
,
00000000
00000000
00001000
00010000
00002000
00000000
00003000
00000000
,
00010000
00000000
00001000
00010000
,
00001000
00000000
00100000
00000000
,
00010000
00000000
10000000
00000000
,
01000000
10000000
00010000
00000000
,
01000000
00000000
00100000
01000000
,
00100000
00000000
10000000
00000000
,
00010000
00000000
00100000
00000000
,
00001000
00010000
00000100
00000000
,
00000010
00000000
00000001
00000010
,
00000001
00000000
00001000
00000000
,
00000010
00000000
00000100
00000000
,
00000001
00001000
00000010
00000000
,
00000100
00000000
00001000
00000000
,
00010000
00000000
00001000
00001000
,
00000000
00010000
00000000
00100000
,
01000000
00000000
00100000
00000000
,
10000000
01000000
00100000
00010000
,
00000000
01000000
00100000
00010000
,
00000000
10000000
01000000
00100000
,
00010000
00000000
00001000
00000000
,
00100000
00010000
00001000
00000100
,
00000000
00010000
00001000
00000100
,
00000000
00000010
00010000
00001000
,
00000100
00000000
00000010
00000000
,
00010000
00001000
00000100
00000010
,
00000000
00001000
00000100
00000010
,
00000000
00010000
00001000
00000100
,
00000010
00000000
00000001
00000000
,
00000010
00000000
00001000
00000000
,
00000100
00000000
00000010
00000100
,
00000000
00001000
00000000
00000001
,
00000020
00000000
00000000
00000030
,
00000101
00000000
00000000
00001100
,
00000000
00000000
00011000
00000000
,
00000000
01010000
00000000
00000000
,
01000000
00000000
00100000
00000000
,
10100000
00000000
00000000
00110000
,
00000000
00000000
00011000
00000000
,
00000000
00001010
00000000
00000000
,
00000100
00000000
00000010
00000000
,
00000011
00000000
00000000
00001100
,
00000000
00000000
00010010
00000000
,
00000000
00101000
00000000
00000000
,
00010000
00000000
01000000
00000000
,
00010000
00000000
10000000
00000000
,
00100000
00000000
01000000
01000000
,
00000000
01000000
00000000
01000000
,
00000000
01000000
00100000
00100000
,
10000000
00000000
10000000
00100000
,
00000000
01000000
00010000
00000000
,
00010000
00001000
00000000
00001000
,
00000100
00000010
00000001
00000000
,
00000001
00000000
00000001
00000100
,
00000000
00000010
00001000
00000000
,
00001000
00010000
00000000
00010000
,
00100000
01000000
10000000
00000000
,
10000000
00000000
10000000
00010000
,
00000000
01000000
00001000
00000000
,
00010000
00000010
00000000
00001000
,
00000001
00000100
00000010
00001000
,
00000001
00000000
00000010
00000000
,
00000100
00000000
00000010
00000001
,
00000000
00000101
00000000
00000101
,
00000000
00001100
00000000
00001100
,
00000000
00011000
00000000
00011000
,
00000000
00010000
00100000
00000000
,
02200000
00000000
00000000
00000000
,
00000000
00000000
00000000
00000000
,
00000000
00000000
00000000
00000000
,
03300000
00000000
00000000
00000000
,
00000000
00000000
00000000
00000000
;

//---------------dance-double - ----------------
#NOTES:
     dance-double:
     :
     Medium:
     14:
     0.712766,1.055600,0.453578,0.181431,0.008247,605.000000,550.000000,55.000000,22.000000,0.000000,0.000000,0.712766,1.055600,0.453578,0.181431,0.008247,605.000000,550.000000,55.000000,22.000000,0.000000,0.000000:
00000000
00000000
00000000
00000000
,
00000000
00000000
00000000
00000000
,
00000000
00000000
00000000
00000000
,
00000000
00000000
00000000
00000000
,
00000000
00000000
00000000
00000000
,
00000000
00000000
00000000
00000000
,
00000000
00000000
00000000
00000000
,
00000000
00000000
00000000
00000000
,
00000000
00000000
00000000
00000000
,
00000000
00000000
00000000
00000000
,
00001000
00000010
00001000
00000010
,
00010000
00001000
00010000
00001000
,
00100000
00010000
00100000
00010000
,
10000000
01000000
00100000
00010000
,
01000000
00000000
00100000
00000000
,
00010000
00000000
00001000
00010000
,
00000000
00011000
00000000
00001100
,
00000000
00001000
00000100
00000010
,
00000001
00000000
00000100
00000001
,
00000200
00000000
00000310
00001000
,
00000001
00000100
00001000
00010000
,
00001000
00000000
00000100
00000000
00000010
00001000
00000010
00000000
,
00000100
00000000
00001000
00010000
,
00002000
00000000
00013000
00001000
,
00010000
00100000
10000000
00100000
,
00010000
00100000
10000000
01000000
,
00100000
00010000
10000000
00100000
,
20000000
00000000
30010000
10000000
,
01000000
00010000
00001000
00010000
,
01000000
00000000
00100000
00000000
00010000
00100000
00010000
00000000
,
10000000
00000000
01000000
00010000
,
00002000
00000000
00013000
00000100
,
00001000
00000010
00000000
00000100
,
00000000
00001001
00000000
00000010
,
00000100
00000000
00000001
00000100
,
00002000
00000000
00013000
00001000
,
00000100
00000010
00000100
00001000
,
00010000
00000000
00100000
00000000
01000000
00100000
01000000
00000000
,
00010000
00000000
10000000
01000000
,
00020000
00000000
00031000
00010000
,
01000000
00100000
01000000
10000000
,
01000000
00010000
01000000
10000000
,
00100000
00010000
00001000
00010000
,
00002000
00000000
00013000
00001000
,
00000010
00000100
00000010
00001000
,
00010000
00000000
01000000
00000000
00100000
01000000
00100000
00000000
,
00010000
00000000
10000000
00100000
,
00020000
00000000
00031000
00000010
,
00000001
00000100
00000000
00000101
,
00000000
00000011
00000000
00000010
,
00001000
00000000
00010000
00001000
,
00000100
00000100
00000001
00001000
,
00000100
00010000
00001000
00010000
,
01000000
00000000
10000000
00000000
01000000
00100000
01000000
00000000
,
00010000
00000000
00001000
00010000
,
00100000
00100000
10000000
00010000
,
00100000
00001000
00010000
00000100
,
00001000
00000000
00000010
00000000
00001000
00000100
00001000
00000000
,
00000100
00000000
00010000
00001000
,
00000100
00000100
00000001
00001000
,
00000010
00010000
00001000
00100000
,
00010000
00000000
01000000
00000000
00100000
10000000
00100000
00000000
,
10000000
00000000
10000000
01000000
,
00010000
00010000
00001000
00000100
,
00000001
00000101
00000000
00000011
,
00000000
00001100
00000000
00000010
,
00000100
00000000
00002000
00000000
,
00000010
00000000
00000001
00003000
,
00000100
00001000
00010000
00000000
00002000
00000000
00000000
00000000
,
00100000
00000000
01000000
00003000
,
00001000
00010000
00100000
01000000
00020000
00000000
00000000
00000000
,
01000000
00000000
10000000
00030000
,
00100000
00010000
10000000
00000000
00100000
00000000
01000000
00000000
,
00010000
00000000
00100000
01000000
00000000
00010000
00000000
00001000
,
00022000
00033000
00000100
00000010
,
00000100
00000010
00000100
00000010
,
00000100
00000001
00000010
00000100
00001100
00000000
00011000
00000000
,
00100000
01000000
00100000
01000000
,
00100000
10000000
01000000
00100000
00120000
00000000
00031000
00000000
,
00001200
00000310
00000012
00000103
,
00002100
00013000
01010000
11000000
,
10100000
00000000
00100000
01000000
00000000
01010000
00000000
01001000
,
00000000
00011000
00000000
00010100
00000000
00001000
00000000
00001000
,
00000000
00000010
00000000
00000010
00000000
00001000
00000000
00001000
,
00000000
00010000
00000000
00010000
01000000
00100000
01000000
00100000
,
00000000
00010000
00000000
00010000
00000000
00001000
00000000
00001000
,
00000000
00000010
00000000
00000010
00000100
00001000
00000000
00001000
,
00000100
00010000
00000000
00010000
01000000
00100000
00000000
00100000
,
01000000
00010000
00000000
00010000
00000010
00001000
00000100
00000010
,
00000100
00000000
00001000
00000000
00000100
00000000
00010000
00000000
00001000
00000000
00000000
01000000
00000000
00000000
00100000
00000000
,
00000000
01000000
00000000
00000000
00010000
00000000
00001000
00000000
00022000
00000000
00000000
00000000
00033000
00000000
00000000
00000000
,
00010000
00001000
00000100
00000010
,
00000100
00001000
00000100
00000010
,
00001000
00000100
00000010
00000001
,
00001000
00000100
00001000
00000000
00000010
00000000
00000000
00000000
,
00000001
00000100
00000010
00001000
,
00000100
00000001
00000100
00000010
,
00000001
00000100
00000010
00001000
,
00000100
00001000
00000100
00000000
00010000
00000000
00000000
00000000
,
00001000
00010000
00100000
01000000
,
00100000
00010000
00100000
01000000
,
00001000
00010000
00100000
01000000
,
00010000
10000000
00010000
00000000
10000000
00000000
01000000
00000000
,
00010000
00000000
00001000
00000000
,
00010000
00000000
00011000
00011000
,
00000000
00001010
00000000
00000100
,
00000010
00000000
00001000
00000001
00001000
00000000
00000001
00000000
,
00000100
00001000
00010000
00010000
,
00000100
00001000
00010000
00010000
,
00000100
00010000
00001000
00100000
,
00010000
00100000
00010000
00000000
10000000
01000000
10000000
00000000
,
01000000
00010000
00001000
00001000
,
01000000
00010000
00001000
00001000
,
01000000
00001000
00010000
00000100
,
00001000
00000100
00001000
00000000
00000001
00000010
00000001
00000000
,
00000100
00001000
00010000
00010000
,
00000010
00001000
00010000
00010000
,
00001000
00100000
00010000
01000000
,
00100000
10000000
00100000
00000000
01000000
00010000
01000000
00000000
,
10000000
00000000
00100000
00000000
,
00010000
00000000
00011000
00011000
,
00000000
00001100
00000000
00000010
,
00000002
00000000
00001003
00000000
,
00000101
00000000
00000100
00001100
,
00000000
00001000
00011000
00000000
,
00010000
01010000
00000000
01000000
,
10000000
00010000
10010000
00000000
,
10100000
00000000
00100000
00110000
,
00000000
00010000
00011000
00000000
,
00001000
00001010
00000000
00000010
,
00000001
00001000
00001001
00000000
,
00000101
00000000
00000010
00001010
,
00000000
00010000
00011000
00000000
,
00100000
00110000
00000000
00010000
,
00100000
01000000
11000000
00000000
,
01100000
00000000
00101000
00000000
,
00011000
00000000
00001000
00000100
,
00000000
00000100
00000000
00000100
,
00000000
00000010
00000010
00000010
,
00000100
00000001
00000100
00000000
00000001
00000000
00000100
00001000
,
00000100
00000000
00001000
00000000
00010000
00001000
00010000
00000000
,
00001000
00000000
00010000
01000000
00010000
00000000
01000000
00000000
,
10000000
01000000
01000000
00000000
,
00100000
10000000
00100000
00000000
10000000
00000000
00100000
00010000
,
00100000
00000000
00010000
00000000
00001000
00010000
00001000
00000000
,
00010000
00000000
00001000
00000010
00001000
00000000
00000010
00000000
,
00000001
00000100
00000100
00000000
,
00000001
00001000
00000001
00000000
00001000
00000000
00000010
00000100
,
00000010
00000000
00000100
00000000
00001000
00010000
00001000
00000000
,
00010000
00000000
01000000
00100000
01000000
00000000
00100000
00000000
,
00010000
10000000
00010000
00000000
10000000
00000000
00000000
00000000
,
10000000
01000000
00100000
00010000
,
00001000
00000100
00000010
00000011
,
00000000
00000101
00000000
00001100
,
00000000
00011000
00000000
01010000
,
00000000
11000000
00000000
10100000
,
00000000
01000000
00010000
00000000
,
00022000
00000000
00000000
00000000
,
00000000
00000000
00000000
00000000
,
00000000
00000000
00000000
00000000
,
00033000
00000000
00000000
00000000
,
00000000
00000000
00000000
00000000
;

//---------------dance-double - ----------------
#NOTES:
     dance-double:
     :
     Hard:
     17:
     0.917760,1.451451,0.750466,0.090716,0.024741,779.000000,688.000000,91.000000,11.000000,0.000000,0.000000,0.917760,1.451451,0.750466,0.090716,0.024741,779.000000,688.000000,91.000000,11.000000,0.000000,0.000000:
00000000
00000000
00000000
00000000
,
00000000
00000000
00000000
00000000
,
00000000
00000000
00000000
00000000
,
00000000
00000000
00000000
00000000
,
00000000
00000000
00000000
00000000
,
00000000
00000000
00000000
00000000
,
00000000
00000000
00000000
00000000
,
00000000
00000000
00000000
00000000
,
00000000
00000000
00000000
00000000
,
00000000
00000000
00000000
00000000
,
00000001
00000010
00000001
00001000
,
00000100
00001000
00000010
00010000
,
00000010
00010000
00001000
00010000
,
01000000
10000000
00100000
10000000
,
01000000
00100000
00010000
01000000
,
00001000
00010000
00000100
00001100
,
00000000
00000011
00000000
00000101
,
00000000
00000100
00001000
00010000
,
00022000
00033000
00010000
01000000
,
00100000
00100000
00010000
01000000
,
00100000
01000000
00010000
01000000
,
00100000
00000000
10000000
00000000
00010000
10000000
00010000
10000000
,
00010000
01000000
00010000
01000000
00001000
00000000
00010000
00000000
,
00000010
00000010
00000100
00000010
,
00001000
00000001
00000100
00000010
,
00000100
00000000
00000001
00000000
00001000
00000001
00001000
00000001
,
00001000
00000010
00001000
00000010
00000100
00000000
00000001
00000000
,
00001000
00001000
00000100
00000010
,
00000100
00010000
00001000
01000000
,
00010000
00000000
00100000
00000000
00010000
00100000
00010000
00100000
,
00010000
10000000
00010000
10000000
01000000
00000000
10000000
00000000
,
00100000
00100000
01000000
00100000
,
10000000
01000000
00000000
00110000
,
00000000
00011000
00000000
00001010
,
00000010
00001000
00000100
00000010
,
00000001
00000001
00000100
00000010
,
00001000
00000010
00010000
00000010
,
00000100
00000000
00000010
00000000
00001000
00000010
00001000
00000010
,
00010000
00001000
00010000
00001000
01000000
00000000
00010000
00000000
,
00100000
00100000
01000000
00100000
,
00010000
01000000
10000000
01000000
,
00010000
00000000
01000000
00000000
00010000
01000000
00010000
01000000
,
00100000
10000000
00100000
10000000
00010000
00000000
10000000
00000000
,
01000000
01000000
00100000
01000000
,
00010000
00001000
01000000
00001000
,
00010000
00000000
00000010
00000000
00001000
00000010
00001000
00000010
,
00000100
00000001
00000100
00000001
00001000
00000000
00000000
00000000
,
00010000
00001000
00000100
00000010
,
00000100
00000101
00000000
00001010
,
00000000
00010100
00000000
00001000
,
00100000
00100000
00010000
10000000
,
01000000
00010000
00001000
00000100
,
00000010
00001000
00000100
00000010
,
00001000
00000000
00000010
00000000
00000001
00000010
00000001
00001000
,
00000100
00001000
00000001
00000100
00000001
00000000
00000100
00000000
,
00000010
00001000
00010000
01000000
,
00100000
01000000
00010000
00100000
,
01000000
00000000
10000000
00000000
00010000
01000000
00010000
10000000
,
01000000
10000000
00010000
00100000
00010000
00000000
01000000
00000000
,
00100000
00010000
00001000
00000010
,
00000100
00001000
00000001
00000100
,
00001000
00000000
00000100
00000000
00000001
00000100
00000001
00001000
,
00000100
00001000
00000010
00000100
00000010
00000000
00000100
00000000
,
00001000
00010000
01000000
00100000
,
01000000
11000000
00000000
01010000
,
00000000
00011000
00000000
00000100
,
00001100
00000000
00000000
00000000
00000010
00000001
00000010
00000100
,
00000000
00000010
00000100
00001000
00000000
00010000
00001000
00000100
,
00000010
00000001
00000010
00000100
00001000
00010000
00001000
00000100
,
00000000
00010000
00001000
00000100
00000000
00010000
00001000
00000100
,
00000010
00000100
00001000
00010000
00100000
01000000
00100000
00010000
,
00000000
01000000
00100000
00010000
00000000
10000000
01000000
00100000
,
00010000
00001000
00010000
00100000
01000000
00000000
10000000
00000000
,
00100000
00000000
00010000
01000000
00000000
00100000
00000000
00020000
,
00002000
00033000
00011000
00001100
,
00000011
00000101
00001100
00000101
,
00000010
00000100
00001000
00010000
00011000
00000000
00010100
00000000
,
00101000
00011000
01001000
01010000
,
01000000
10000000
00100000
00010000
00011000
00000000
00001000
00000010
,
00000011
00000000
00000001
00000100
00001100
00000000
00001000
00010000
,
01010000
00000000
01000000
00100000
01010000
00000000
00011000
00000000
,
00001100
00000000
00000101
00000101
00000000
00000011
00000000
00001010
,
00000000
00000000
00001001
00000000
00000100
00010000
00000100
00010000
00002000
00000000
00010000
00000000
00000000
00000000
00010000
00000000
,
00000000
00000010
00000000
00000010
00000000
00010000
00000000
00010000
,
00000000
00000100
00000000
00003100
00001100
00001000
00021000
00001000
,
00000000
00100000
00000000
00100000
00000000
00001000
00000000
00001000
,
00000000
01000000
00000000
01030000
01010000
00010000
01000000
10000000
,
11000000
10000000
00100000
00010000
00011000
00001000
00000100
00000001
,
00000101
00000001
00000010
00001000
00001010
00000000
00011000
00000000
,
00101000
00000000
00000000
00000000
00011000
00000000
00000000
00000000
01010000
00000000
00000000
11000000
00000000
00000000
10100000
00000000
,
00000000
00110000
00000000
00000000
00010000
00001000
00010000
00001000
00000020
00000000
00000000
00000000
00000030
00000000
00000000
00000000
,
00000001
00000000
00000100
00000010
00000100
00000000
00000001
00000000
,
00000010
00000000
00000100
00000010
00000100
00000000
00000010
00000000
,
00000001
00000000
00000100
00000010
00000100
00000000
00001000
00000000
,
00010000
00001000
00010000
00000000
01000000
00000000
00100000
00000000
,
00010000
00000000
01000000
00100000
01000000
00000000
00010000
00000000
,
10000000
00000000
00100000
01000000
00100000
00000000
10000000
00000000
,
01000000
00000000
00100000
01000000
00100000
00000000
00010000
00000000
,
00001000
00000100
00001000
00000010
,
00000100
00000000
00000001
00000100
00000010
00000000
00001000
00000000
,
00000001
00000000
00001000
00000010
00000100
00000000
00000010
00000000
,
00001000
00000000
00000100
00010000
00001000
00000000
00010000
00000000
,
00001000
00010000
00000010
00000000
00001000
00000000
00010000
00000000
,
01000000
00100000
10000000
00010000
,
00100000
00000000
01000000
00100000
01000000
00000000
11000000
00000000
,
00000000
00110000
00000000
00101000
,
00011000
00010000
00001000
00000100
,
00000001
00000000
00001000
00000100
00000010
00000100
00001000
00000000
,
00000000
00000000
00000100
00010000
00001000
00010000
00000100
00000000
,
00000000
00000000
00000100
00000010
00000100
00000000
00001000
00000000
,
00000010
00010000
00001000
00000000
00010000
00001000
00100000
00000000
,
00001000
00000000
00010000
00001000
01000000
00001000
00010000
00000000
,
00000000
00000000
01000000
00100000
00010000
00100000
01000000
00000000
,
00000000
00000000
10000000
00010000
10000000
00000000
00010000
00000000
,
01000000
00100000
00010000
00000000
00001000
00000100
00000010
00000000
,
00000010
00000000
00001000
00000100
00000010
00000001
00001000
00000000
,
00000000
00000000
00000010
00001000
00000001
00000100
00000010
00000000
,
00000000
00000000
00001000
00000001
00001000
00000000
00000100
00000000
,
00001000
00000010
00001000
00000000
00010000
00100000
00010000
00000000
,
01000000
00000000
10000000
00000000
,
00100000
00000000
00010000
00001000
,
00000000
00000100
00000000
00000010
,
00002002
00000000
00000000
00003003
,
00000011
00000000
00000101
00000110
,
00000000
00001100
00010100
00000000
,
00101000
00110000
00000000
01010000
,
00100000
10000000
11000000
00000000
,
11000000
00000000
10100000
01100000
,
00000000
00110000
00101000
00000000
,
00010100
00001100
00000000
00001010
,
00000100
00000001
00000011
00000000
,
00000101
00000000
00001100
00011000
,
00000000
01010000
11000000
00000000
,
10100000
00110000
00000000
00011000
,
00001000
00000010
00000110
00000000
,
00001001
00000000
00010010
00000000
,
01001000
00000000
10010000
11000000
,
00000000
01000000
00000000
00010000
,
00000000
00001000
00000100
00000100
,
00000001
00001000
00000001
00001000
00000001
00000000
00000100
00000010
,
00000100
00000010
00000100
00000000
00000010
00010000
00000010
00010000
,
00000010
00000000
00001000
00000100
00001000
00000100
00001000
00000000
,
00000100
00010000
00000100
00010000
00000100
00000000
00010000
00001000
,
00100000
00001000
00100000
00001000
00100000
00000000
00010000
00100000
,
00010000
00100000
01000000
00000000
10000000
00010000
10000000
00010000
,
00100000
00000000
01000000
10000000
01000000
10000000
00010000
00000000
,
00100000
00010000
00100000
00010000
00100000
00000000
00001000
00100000
,
00001000
00010000
00001000
00010000
00000100
00000000
00001000
00000001
,
00001000
00000001
00000100
00000000
00000010
00001000
00000010
00010000
,
00001000
00000000
00010000
00001000
01000000
00010000
01000000
00000000
,
00010000
10000000
00100000
10000000
00010000
00000000
00100000
00010000
,
00100000
00001000
00100000
00001000
00010000
00000100
00010000
00000100
,
00001000
00000001
00000100
00000001
00001000
00000010
00000100
00000000
,
00000000
00010000
00100000
00010000
,
00001000
00000010
00001000
00010000
,
01000000
00010000
00001000
00000100
,
00001000
00010000
00011000
00000000
,
02200000
00000000
00000000
00000000
,
00000000
00000000
00000000
00000000
,
00000000
00000000
00000000
00000000
,
03300000
00000000
00000000
00000000
,
00000000
00000000
00000000
00000000
;

//---------------dance-single - ----------------
#NOTES:
     dance-single:
     :
     Challenge:
     18:
     1.151029,1.517426,0.907157,0.395850,0.078345,977.000000,867.000000,110.000000,48.000000,0.000000,0.000000,1.151029,1.517426,0.907157,0.395850,0.078345,977.000000,867.000000,110.000000,48.000000,0.000000,0.000000:
// measure 0
0000
0000
0000
0000
,  // measure 1
0000
0000
0000
0000
,  // measure 2
0000
0000
0000
0000
,  // measure 3
0000
0000
0000
0000
,  // measure 4
0000
0000
0000
0000
,  // measure 5
0000
0000
0000
0000
,  // measure 6
0000
0000
0000
0000
,  // measure 7
0000
0000
0000
0000
,  // measure 8
0000
0000
0000
0000
,  // measure 9
0000
0000
0000
0000
,  // measure 10
1010
0000
1000
0000
0100
1000
0001
0000
,  // measure 11
0010
0000
0100
1000
0001
0000
0010
0000
,  // measure 12
0001
1000
0001
0000
1000
0000
0010
0100
,  // measure 13
0010
0001
0010
1000
0100
0010
0001
0000
,  // measure 14
0001
0010
0001
0100
0001
1000
0001
0010
,  // measure 15
0100
1000
0100
0010
0100
0010
0001
0000
,  // measure 16
0000
1010
0000
0101
,  // measure 17
0000
0110
0100
0010
,  // measure 18
0220
0330
1001
0010
,  // measure 19
0100
0000
0001
0000
1000
0100
0001
0000
,  // measure 20
0100
0000
1000
0001
1000
0000
0010
1000
,  // measure 21
0010
1000
0001
1000
0001
0100
0001
0100
,  // measure 22
0010
1000
0010
1000
0001
0000
0011
0000
,  // measure 23
0100
1000
0100
0100
,  // measure 24
0010
0000
0001
1000
0001
0000
1000
0100
,  // measure 25
1000
0000
0001
0010
0001
0100
0010
0100
,  // measure 26
0001
0010
0100
1000
0010
0000
0001
0000
,  // measure 27
1000
0100
1000
0000
0001
0100
0010
1000
,  // measure 28
0010
0000
0100
0000
0001
0010
0001
1000
,  // measure 29
0100
0010
0001
0000
1000
0001
1000
0001
,  // measure 30
0100
0010
0100
0010
1000
0000
0010
0000
,  // measure 31
1000
1000
0001
0100
,  // measure 32
1000
0110
0000
1001
,  // measure 33
0000
0011
0000
0101
,  // measure 34
1001
0000
1100
0000
0010
1000
0001
0000
,  // measure 35
0010
0000
0010
0000
0100
1000
0100
0000
,  // measure 36
0010
0000
0001
1000
0001
0000
0010
0100
,  // measure 37
1000
0100
0010
0000
0100
1000
0100
1000
,  // measure 38
0001
0010
0001
0100
0010
0000
1010
0000
,  // measure 39
1000
0000
0001
0000
0010
0100
1000
0000
,  // measure 40
0010
1001
0100
0101
,  // measure 41
0010
0000
0001
0000
1000
0010
1000
0010
,  // measure 42
0100
0001
0100
0001
1000
0000
0100
0000
,  // measure 43
1000
0001
0100
0000
0001
1000
0100
1000
,  // measure 44
0010
0100
0001
0010
,  // measure 45
0100
0000
1000
0000
0100
0001
0100
0001
,  // measure 46
0100
1000
0100
1000
0010
0100
0001
0000
,  // measure 47
1000
0100
0010
0000
0001
0010
0001
0010
,  // measure 48
0100
1000
0100
0000
0000
0000
1001
0000
,  // measure 49
0000
1010
0000
0101
,  // measure 50
1001
0000
1000
0001
0010
0000
0100
0000
,  // measure 51
1000
0010
1000
0000
0100
0010
0001
1000
,  // measure 52
0001
0000
1000
0000
0100
0010
0001
0010
,  // measure 53
0100
1000
0001
0000
1000
0001
0100
0001
,  // measure 54
1000
0010
0100
0010
1000
0000
0100
0000
,  // measure 55
0010
0000
0010
0000
0001
0100
0001
0000
,  // measure 56
0100
1010
1000
0100
,  // measure 57
1000
0000
1010
0000
0001
0010
0100
1000
,  // measure 58
0001
1000
0100
0010
0001
0000
0010
0000
,  // measure 59
0001
0000
1000
0000
0010
0100
0010
0000
,  // measure 60
0100
0000
1000
0000
0100
0001
0100
0000
,  // measure 61
0001
1000
0001
1000
0100
0010
0001
0010
,  // measure 62
0100
1000
0001
1000
0100
0010
0001
0000
,  // measure 63
0010
0000
0100
0000
1000
0001
0100
0000
,  // measure 64
0010
0000
1000
0100
1000
0100
1000
0100
,  // measure 65
0010
0001
0010
0001
0100
0010
0100
0010
,  // measure 66
1000
0100
1000
0100
1000
0100
0010
0012
,  // measure 67
0003
1000
0010
0120
0030
1000
0100
0001
,  // measure 68
1000
0010
0001
0011
0100
0010
1000
2001
,  // measure 69
3000
0001
0100
0120
0030
0001
0010
1000
,  // measure 70
0001
0100
0010
1000
0010
1000
0100
0201
,  // measure 71
0300
0010
0001
1002
0003
0010
1000
0010
,  // measure 72
0001
0010
1000
0010
0110
0000
1001
0000
,  // measure 73
1001
0000
0010
0110
0000
0101
0000
0001
,  // measure 74
0010
0000
0100
0000
1000
0010
1000
0010
0100
0000
0001
0000
1000
0000
1010
0000
,  // measure 75
0000
0000
1000
0001
1000
0000
0001
0000
0000
0000
0010
0000
0100
0000
1000
0000
,  // measure 76
0100
0000
0010
0000
0001
0000
1000
0000
1100
0000
0100
0000
0011
0000
0010
0001
,  // measure 77
0010
0001
1000
0000
0010
0000
0120
0000
0030
0000
1000
0000
0100
0000
0001
0000
,  // measure 78
0100
0000
1000
0000
0001
0010
1000
0010
0100
0000
1000
0000
0010
0000
0100
0000
,  // measure 79
0011
0001
0100
0010
1100
0010
1000
0100
,  // measure 80
0011
0100
0001
0100
1010
0000
1100
0000
,  // measure 81
1001
0000
0101
1001
0000
0101
0000
1010
,  // measure 82
1000
0001
1000
0001
0100
0010
0100
0010
0100
0000
0002
0000
0000
0000
2003
0000
,  // measure 83
0000
3002
0000
2003
0000
3002
0000
2003
,  // measure 84
0000
3002
0000
0103
0101
0010
1100
0020
,  // measure 85
0000
0032
0000
2003
0000
3002
0000
2003
,  // measure 86
0000
0000
3001
0000
1000
0100
1000
0100
0010
0000
0001
0000
0100
0000
0010
0000
,  // measure 87
0011
0001
0010
0100
0110
0010
0100
1000
,  // measure 88
0100
0001
1000
0100
0011
0001
1001
0000
,  // measure 89
1010
0000
0010
0000
0110
0000
0000
0000
0011
0000
0000
1001
0000
0000
1100
0000
,  // measure 90
0000
0110
0000
0000
0010
0001
0010
0001
2000
0000
0000
0000
3001
0010
0001
0010
,  // measure 91
0100
0000
1000
0100
1000
0000
0001
0000
,  // measure 92
1000
0000
0010
1000
0010
1000
0100
0000
,  // measure 93
1000
0000
0001
0010
0001
0010
0100
0000
,  // measure 94
1000
0100
0010
0001
0010
0100
1000
0000
,  // measure 95
0001
0000
0010
0001
0010
0001
1000
0000
,  // measure 96
0100
0000
0010
0100
0010
0100
1000
0000
,  // measure 97
0100
0000
0010
0100
0010
0001
1000
0000
,  // measure 98
0100
0010
0001
0010
0100
1000
0100
0000
,  // measure 99
1000
0000
0001
0010
0001
1000
0100
0000
,  // measure 100
1000
0000
0001
0100
0010
1000
0010
0000
,  // measure 101
1000
0000
0100
1000
0100
0010
0100
0000
,  // measure 102
0010
0001
0010
0100
1000
0100
1000
0000
,  // measure 103
0001
0010
0100
1000
0001
0010
0100
1000
,  // measure 104
0001
0010
0100
1000
0001
0000
1010
0000
,  // measure 105
0000
0101
0000
1001
,  // measure 106
1001
0000
0100
0000
0100
0001
0100
0000
,  // measure 107
0010
1000
0010
0100
0001
0000
0010
0100
,  // measure 108
0010
0000
0001
1000
0010
1000
0100
0000
,  // measure 109
0010
0000
0010
0001
0100
0010
0100
0001
,  // measure 110
0100
0010
1000
0001
1000
0010
1000
0000
,  // measure 111
1000
0000
0001
0010
0100
0010
0001
0000
,  // measure 112
1000
0000
0100
0001
0100
1000
0100
0000
,  // measure 113
0010
0000
0001
0100
0010
0100
0001
0010
,  // measure 114
0100
1000
0001
0100
0001
1000
0001
0000
,  // measure 115
1000
0000
0010
1000
0100
0010
0001
0000
,  // measure 116
0100
0000
0010
1000
0100
0010
0100
0000
,  // measure 117
0010
0000
0001
0010
0100
1000
0100
0010
,  // measure 118
0001
0100
0010
1000
0100
1000
0001
0000
,  // measure 119
0100
0010
0100
0010
1000
0001
1000
0001
,  // measure 120
0010
0100
0010
0100
1000
0100
1000
0000
,  // measure 121
0000
1001
0000
0110
,  // measure 122
2002
0000
0000
3003
,  // measure 123
2020
3030
0011
2020
,  // measure 124
3030
1010
2002
3003
,  // measure 125
0011
0202
0303
1100
,  // measure 126
0010
0001
0010
0000
2002
0000
3003
0000
,  // measure 127
0022
0033
1010
0220
,  // measure 128
0330
1001
0220
0330
,  // measure 129
1010
0220
0330
0101
,  // measure 130
0010
0000
0100
0000
0100
0010
0100
0010
,  // measure 131
1001
0000
0000
0000
1010
0000
1000
0100
,  // measure 132
0010
0000
0011
0000
0001
0010
0100
0000
,  // measure 133
1010
0000
1000
0100
0010
0000
0011
0000
,  // measure 134
0001
0010
1000
0010
0001
0000
0010
0000
,  // measure 135
0100
0000
1000
0000
0010
0001
0010
0000
,  // measure 136
1000
0100
0010
0100
0010
0001
1000
0000
,  // measure 137
0000
2002
3003
0220
,  // measure 138
0330
0010
0110
1001
,  // measure 139
1000
0010
0001
0010
1000
0000
0001
0100
,  // measure 140
1000
0100
0001
0000
1000
0100
0010
0100
,  // measure 141
1000
0000
0001
0010
0100
0010
0001
0000
,  // measure 142
1000
0100
0010
1000
0010
0001
0100
1000
,  // measure 143
0100
0001
0010
0100
1000
0000
0001
0100
,  // measure 144
1000
0100
0010
0000
1000
0010
0001
0010
,  // measure 145
1000
0000
0001
0010
0100
0010
0100
0000
,  // measure 146
1000
0100
0010
0001
0100
0000
0010
1000
,  // measure 147
0010
0100
0001
1000
0100
0010
0001
1000
,  // measure 148
0001
0010
0100
1000
0001
0010
0100
1000
,  // measure 149
0100
0001
0100
1000
0100
0010
0001
0000
,  // measure 150
0100
0010
1000
0100
0010
0001
1000
0100
,  // measure 151
0010
0100
0001
0100
1000
0010
0100
0010
,  // measure 152
1000
0100
0010
0001
0010
0100
1000
0000
,  // measure 153
1001
0101
0110
1010
,  // measure 154
1001
0101
0110
1010
,  // measure 155
1100
0011
1100
1001
,  // measure 156
0110
1001
1001
0110
,  // measure 157
0220
0000
0000
0000
,  // measure 158
0000
0000
0000
0000
,  // measure 159
0000
0000
0000
0000
,  // measure 160
0330
0000
0000
0000
;
