#TITLE:ABSOLUTE (Cuff;
#SUBTITLE:-N- Stuff it Mix);
#ARTIST:Thuggie D.;
#TITLETRANSLIT:;
#SUBTITLETRANSLIT:;
#ARTISTTRANSLIT:;
#GENRE:;
#CREDIT:;
#BANNER:ABSOLUTE (Cuff -N- Stuff it Mix).png;
#BACKGROUND:ABSOLUTE (Cuff -N- Stuff it Mix)-bg.png;
#LYRICSPATH:;
#CDTITLE:Dance Dance Revolution Ultramix.png;
#MUSIC:ABSOLUTE (Cuff -N- Stuff it Mix).mp3;
#OFFSET:-2.245000;
#SAMPLESTART:3.900000;
#SAMPLELENGTH:12.000000;
#SELECTABLE:YES;
#DISPLAYBPM:146.000000;
#BPMS:0.000000=143.960007
,212.000000=134.330002
,216.000000=148.350006
,219.000000=139.529999
,223.000000=147.100006
;
#STOPS:
;
#BGCHANGES:;
#KEYSOUNDS:;
#ATTACKS:;

//---------------dance-single - ----------------
#NOTES:
     dance-single:
     :
     Easy:
     4:
     0.258190,0.249129,0.248260,0.248260,0.000000,132.000000,25.000000,25.000000,0.000000,0.000000,0.000000,0.258190,0.249129,0.248260,0.248260,0.000000,132.000000,25.000000,25.000000,0.000000,0.000000,0.000000:
0000
0000
0000
0000
,
1000
0001
0000
0010
,
0100
0000
1000
0000
,
0001
1000
0000
0010
,
1000
0000
0001
0000
,
0010
0100
0000
1000
,
0001
0000
1000
0000
,
2002
0000
0000
3003
,
0220
0000
0000
0330
,
2002
0000
0000
3003
,
0110
0000
0001
1000
,
0010
0000
0010
0000
,
0110
0000
1000
0001
,
0100
0000
0100
0000
,
1010
0000
0001
1000
,
0001
0000
1000
0000
,
0101
0000
1000
0001
,
1000
0000
0001
0000
,
1001
0000
0110
0001
,
1000
0000
0001
0000
,
1001
0000
0110
1000
,
0001
0000
1000
0000
,
1001
0000
0010
1000
,
0002
0003
0200
0300
,
0002
0003
2000
3000
,
0200
0300
0020
0030
,
0002
0003
0020
0030
,
0200
0300
2000
3000
,
0200
0300
2000
3000
,
0002
0003
0200
0300
,
0002
0003
0200
0300
,
2002
0000
3003
0100
,
0010
1000
0000
0010
,
1000
0100
0000
1000
,
0100
0010
0000
0100
,
0010
0001
0000
0010
,
0001
0100
0000
0001
,
0100
0010
0000
0100
,
0010
1000
0000
0010
,
1000
1000
0000
0001
,
1001
0000
0000
0100
,
0010
0000
0000
0010
,
1010
0000
0000
0100
,
0020
0000
0000
0130
,
0101
0000
0000
0001
,
1000
0001
0000
1000
,
0001
0000
0000
0010
,
0100
1000
0000
1001
,
1001
0001
0000
0001
,
1010
1000
0000
1000
,
0101
0100
0000
0100
,
1010
0010
0000
0010
,
0110
0100
0000
0100
,
0101
0000
1001
0010
,
0010
0000
0000
0100
,
0000
0000
0000
1001
;

//---------------dance-single - ----------------
#NOTES:
     dance-single:
     :
     Medium:
     8:
     0.412820,0.387533,0.158886,0.387285,0.000000,236.000000,16.000000,39.000000,0.000000,0.000000,0.000000,0.412820,0.387533,0.158886,0.387285,0.000000,236.000000,16.000000,39.000000,0.000000,0.000000,0.000000:
0000
0000
0000
0000
,
1000
0000
0001
0000
1000
0100
0010
0001
,
2000
0000
0001
3001
,
0001
0000
1000
0000
0001
0010
0100
1000
,
0002
0000
1000
1003
,
0100
0000
0010
0000
1000
0010
0100
0001
,
0200
0000
0010
0310
,
2200
0000
0000
0000
0000
0000
3300
0001
,
0200
0002
0000
0000
0000
0000
0303
1000
,
0002
2000
0000
0000
0000
0000
3003
0000
,
0010
0000
1001
0000
1000
0100
0010
0001
,
0010
0001
0010
0001
,
0010
0000
1001
0000
0001
0010
0100
1000
,
0100
0010
0100
1000
,
0010
0000
1001
0000
1000
0100
0010
0001
,
0010
0001
0010
0001
,
0010
0000
1001
0000
0001
0010
0100
1000
,
0100
0010
0100
1000
,
1100
0010
1010
1000
,
0001
0010
0100
1000
,
0011
0100
1100
1000
,
0001
0010
0100
1000
,
2001
0000
3000
0001
0010
0100
1000
0000
,
0002
0013
0200
1300
,
0002
0013
2100
3000
,
0020
0130
0002
1003
,
0200
0310
0002
1003
,
0200
0010
0300
0001
2000
0000
3000
0000
,
0200
0010
0300
1000
0002
0000
1003
0000
,
0020
1000
0030
0100
0002
0000
0003
0000
,
2000
0001
3000
0001
2000
0000
3010
0000
,
2002
0000
0000
0000
0003
0001
3001
0000
,
0001
0010
0001
0000
0000
0000
0010
0000
,
0001
1000
0100
0000
0000
0000
1000
0000
,
0001
0100
0010
0000
0000
0000
0100
0000
,
0010
0100
0001
0000
0000
0000
0010
0000
,
0001
1000
0100
0000
0000
0000
1000
0000
,
0001
0100
0010
0000
0000
0000
0100
0000
,
0010
1000
0001
0000
0000
0000
0010
0000
,
0001
0010
0100
1000
0001
0000
1000
0001
,
1001
0000
0010
0000
0000
0000
0100
0001
,
0010
0000
1001
0000
0000
0000
0010
0001
,
1000
0000
0000
0000
0001
0000
0100
0001
,
0020
0000
0000
0000
0031
0000
0100
0010
,
0100
0000
0000
0000
0010
0000
0001
0010
,
0001
0000
0010
0000
0100
0000
1000
0100
,
0010
0000
0001
0000
0010
0000
0100
1000
,
0100
0010
0001
1000
0100
0010
0001
1000
,
0002
0000
0100
0100
0203
0000
0000
0000
,
0001
0001
0302
0000
1000
1000
2003
0000
,
0100
0100
3200
0000
0010
0010
0320
0000
,
0100
0000
0001
0001
0032
0000
0000
0000
,
0010
0000
1000
1000
2003
0000
0000
0100
,
3100
0000
0000
0000
1001
0000
0010
0010
,
0020
0000
0000
0200
,
0000
0000
0330
1001
;

//---------------dance-single - ----------------
#NOTES:
     dance-single:
     :
     Hard:
     10:
     0.478077,0.415214,0.119165,0.427007,0.004965,282.000000,12.000000,43.000000,0.000000,0.000000,0.000000,0.478077,0.415214,0.119165,0.427007,0.004965,282.000000,12.000000,43.000000,0.000000,0.000000,0.000000:
// measure 0
0000
0000
0000
0000
,  // measure 1
1000
0001
2000
0000
3020
0000
0130
0001
,  // measure 2
2000
3001
0022
0033
,  // measure 3
0001
1000
0002
0000
0023
0000
0130
1000
,  // measure 4
0002
1003
2020
3030
,  // measure 5
0001
1000
0002
0000
0203
0000
0310
1000
,  // measure 6
0002
1003
2200
3300
,  // measure 7
2002
0000
0000
0000
0000
0003
3000
0001
,  // measure 8
0200
0000
0001
0000
0000
0000
0301
0010
,  // measure 9
0002
2000
0000
0000
0003
0000
3010
0000
,  // measure 10
0100
0010
1000
0000
1001
1000
0010
0000
,  // measure 11
0100
0001
1000
0000
0010
1000
0001
0000
,  // measure 12
0010
0001
1000
0000
0100
0010
0001
0000
,  // measure 13
0100
0001
0010
0000
0100
1000
0001
0000
,  // measure 14
0010
0001
1001
0000
0010
0100
1000
0000
,  // measure 15
0001
0010
0001
0000
0100
0001
0100
0000
,  // measure 16
0010
1000
0010
0000
1000
0100
0010
0000
,  // measure 17
0100
0000
0010
0001
0100
0000
0001
0000
,  // measure 18
1001
0000
0010
0001
0010
0000
0001
1000
,  // measure 19
0001
0000
1000
0001
0100
0000
0001
0010
,  // measure 20
0001
0000
1000
0001
0100
0000
0010
1000
,  // measure 21
0010
0000
1000
0001
1000
0000
0001
1000
,  // measure 22
0001
0000
0000
0000
0010
0001
1000
0001
,  // measure 23
2000
3000
0010
0200
0300
0000
0001
0000
,  // measure 24
0002
0003
0010
0200
0300
0000
1000
0000
,  // measure 25
0020
0030
0100
0002
0003
0000
1000
0000
,  // measure 26
0200
0300
0010
0002
0003
0000
1000
0000
,  // measure 27
0200
1300
0002
0010
0003
0000
0000
0000
,  // measure 28
0200
0000
1300
0020
1000
0000
1030
0000
,  // measure 29
2000
0000
0000
0000
3100
1000
0100
0000
1000
0000
0000
0000
0000
0000
0000
0000
,  // measure 30
2000
3000
0210
0300
,  // measure 31
2002
0000
3003
1000
0010
0100
0100
0000
,  // measure 32
0010
0010
1000
0000
0000
0001
1000
0000
,  // measure 33
1000
1000
0100
0000
0000
1000
0001
0000
,  // measure 34
0100
0100
0110
0000
0000
0001
0100
0000
,  // measure 35
0010
0010
1000
0000
0000
1000
0010
0000
,  // measure 36
1000
1000
0001
0000
0000
0010
0001
0000
,  // measure 37
0100
0100
0010
0000
0000
1000
0100
0000
,  // measure 38
0010
0010
0001
0000
0000
0100
0010
0000
,  // measure 39
1000
0001
1000
0001
0000
0000
1000
0001
,  // measure 40
1000
0001
0010
0100
0000
0000
0010
0001
,  // measure 41
0010
0001
1000
0100
0000
0000
0010
0001
,  // measure 42
0010
0001
0100
0010
0000
0000
0100
0010
,  // measure 43
0200
0010
0310
1000
0000
0000
0010
0100
,  // measure 44
0010
1000
0001
0100
0000
0000
0001
0100
,  // measure 45
0001
1000
0010
0100
0000
0000
0001
0010
,  // measure 46
0100
1000
0010
0100
0000
0000
0010
0010
,  // measure 47
0100
0001
0001
0000
0000
0000
1000
0100
,  // measure 48
0010
0001
1000
0000
0001
1000
0010
0000
,  // measure 49
1000
0100
1000
0000
0001
0010
0100
0000
,  // measure 50
1000
0100
1000
0000
0010
1000
0100
0000
,  // measure 51
0010
0001
0010
0000
0100
0010
0001
0000
,  // measure 52
0010
0001
1000
0000
0100
0100
0100
0000
,  // measure 53
1100
0000
0101
0001
1000
0000
0200
0010
,  // measure 54
0302
0000
1003
0010
0200
0000
0300
0001
,  // measure 55
2000
0000
3000
0100
0020
0000
0031
0000
;

//---------------dance-double - ----------------
#NOTES:
     dance-double:
     :
     Easy:
     4:
     0.258190,0.276810,0.238329,0.248260,0.000000,133.000000,24.000000,25.000000,0.000000,0.000000,0.000000,0.258190,0.276810,0.238329,0.248260,0.000000,133.000000,24.000000,25.000000,0.000000,0.000000,0.000000:
00000000
00000000
00000000
00000000
,
10000000
00100000
00000000
01000000
,
00010000
00000000
00100000
00000000
,
00001000
00010000
00000000
00000010
,
00000100
00000000
00000001
00000000
,
00001000
00000010
00000000
00010000
,
00001000
00000000
00010000
00000000
,
02020000
00000000
00000000
03030000
,
00022000
00000000
00000000
00033000
,
00002200
00000000
00000000
00003300
,
00010000
00000000
00001000
00100000
,
00010000
00000000
10000000
00000000
,
11000000
00000000
00100000
01000000
,
00001000
00000000
00010000
00000000
,
00001010
00000000
00000001
00000010
,
00000100
00000000
00010000
00000000
,
00011000
00000000
00001000
00100000
,
00010000
00000000
10000000
00000000
,
10100000
00000000
01010000
01000000
,
00001000
00000000
00010000
00000000
,
00001010
00000000
00000101
00000010
,
00001000
00000000
00000100
00000000
,
00001001
00000000
00000010
00001000
,
00000200
00000300
00020000
00030000
,
00002000
00003000
00200000
00300000
,
02000000
03000000
00200000
00300000
,
00002000
00003000
00020000
00030000
,
00000020
00000030
00002000
00003000
,
00000200
00000300
00020000
00030000
,
00002000
00003000
00200000
00300000
,
00020000
00030000
02000000
03000000
,
20020000
30000000
00130000
00001000
,
00010000
00000100
00000000
00001000
,
00000010
00010000
00000000
00001000
,
01000000
00010000
00000000
00100000
,
00001000
00010000
00000000
00000010
,
00001000
00000001
00000000
00000010
,
00000001
00000100
00000000
00000100
,
00000010
00001000
00000000
00000100
,
00010000
00001000
00000000
00110000
,
00011000
00000000
00000000
00000010
,
00001000
00000000
00000000
00000100
,
00011000
00000000
00000000
00100000
,
00020000
00000000
00000000
01030000
,
00010000
00000000
00000000
00100000
,
00001000
00010000
00000000
00000010
,
00001000
00000000
00000000
00000010
,
00000100
00000001
00000000
00001001
,
00001001
00000100
00010000
00000000
,
00011000
00010000
00010000
00000000
,
01010000
00010000
00010000
00000000
,
00011000
00001000
00001000
00000000
,
00001010
00000100
00010000
00000000
,
00011000
00000000
00110000
00010000
,
00010000
00000000
00000000
01000000
,
00000000
00000000
00000000
10100000
;

//---------------dance-double - ----------------
#NOTES:
     dance-double:
     :
     Medium:
     7:
     0.412820,0.387533,0.158886,0.387285,0.000000,236.000000,16.000000,39.000000,0.000000,0.000000,0.000000,0.412820,0.387533,0.158886,0.387285,0.000000,236.000000,16.000000,39.000000,0.000000,0.000000,0.000000:
00000000
00000000
00000000
00000000
,
10000000
00000000
00010000
00000000
10000000
01000000
00100000
00010000
,
20000000
00000000
00010000
30010000
,
00100000
00000000
00001000
00000000
00010000
00000010
00001000
00000001
,
00002000
00000000
00000010
00003010
,
00000100
00000000
00010000
00000000
00001000
00100000
00010000
10000000
,
02000000
00000000
00100000
03100000
,
22000000
00000000
00000000
00000000
00000000
00000000
33000000
00010000
,
02000000
00020000
00000000
00000000
00000000
00000000
03030000
00001000
,
00020000
00002000
00000000
00000000
00000000
00000000
00033000
00000000
,
00000010
00000000
00001001
00000000
00001000
00000100
00000010
00000001
,
00000010
00000001
00000010
00000001
,
00000010
00000000
00001001
00000000
00000001
00000010
00000100
00001000
,
00000100
00010000
00001000
01000000
,
00100000
00000000
10010000
00000000
10000000
01000000
00100000
00010000
,
00100000
00001000
00010000
00000100
,
00000010
00000000
00001001
00000000
00000001
00000010
00000100
00001000
,
00000100
00000010
00000100
00010000
,
00011000
00100000
00110000
10000000
,
00100000
01000000
00001000
00010000
,
00011000
00000100
00001100
00001000
,
00000001
00000010
00000100
00010000
,
00012000
00000000
00003000
01000000
00010000
01000000
00010000
00000000
,
00020000
00130000
02000000
13000000
,
00020000
00130000
00012000
00003000
,
00020000
00030100
00002000
00003010
,
00000200
00000310
00000002
00001003
,
00000200
00000010
00000300
00000001
00002000
00000000
00003000
00000000
,
00000200
00000010
00000300
00001000
00000002
00000000
00001003
00000000
,
00000020
00001000
00000030
00000100
00020000
00000000
00030000
00000000
,
00002000
00010000
00003000
00010000
00002000
00000000
00103000
00000000
,
00220000
00000000
00000000
00000000
00030000
00010000
00310000
00000000
,
00010000
00100000
00010000
00000000
00000000
00000000
00100000
00000000
,
00001000
00010000
00001000
00000000
00000000
00000000
00010000
00000000
,
00000100
00001000
00000010
00000000
00000000
00000000
00000100
00000000
,
00000001
00000010
00000100
00000000
00000000
00000000
00010000
00000000
,
00001000
00010000
00001000
00000000
00000000
00000000
00100000
00000000
,
00010000
01000000
00100000
00000000
00000000
00000000
01000000
00000000
,
00100000
01000000
00001000
00000000
00000000
00000000
00010000
00000000
,
00000100
00000010
00000100
00001000
00000001
00000000
00001000
00000001
,
00001001
00000000
00000010
00000000
00000000
00000000
00000100
00010000
,
00001000
00000000
00011000
00000000
00000000
00000000
00100000
00010000
,
10000000
00000000
00000000
00000000
00010000
00000000
01000000
00010000
,
00200000
00000000
00000000
00000000
00310000
00000000
01000000
00100000
,
01000000
00000000
00000000
00000000
00100000
00000000
00001000
00010000
,
00001000
00000000
00010000
00000000
00000100
00000000
00001000
00000100
,
00000010
00000000
00000001
00000000
00000010
00000000
00000100
00001000
,
00000100
00000010
00000001
00001000
00000100
00000010
00000001
00001000
,
00000002
00000000
00000100
00000100
00000203
00000000
00000000
00000000
,
00000010
00000010
00000320
00000000
00010000
00010000
00020030
00000000
,
00001000
00001000
00032000
00000000
00100000
00100000
00203000
00000000
,
00010000
00000000
00010000
00010000
00320000
00000000
00000000
00000000
,
00100000
00000000
01000000
01000000
02030000
00000000
00000000
00100000
,
03100000
00000000
00000000
00000000
10010000
00000000
00100000
00100000
,
00200000
00000000
00000000
02000000
,
00000000
00000000
03300000
10010000
;

//---------------dance-double - ----------------
#NOTES:
     dance-double:
     :
     Hard:
     7:
     0.478077,0.415214,0.119165,0.427007,0.004965,282.000000,12.000000,43.000000,0.000000,0.000000,0.000000,0.478077,0.415214,0.119165,0.427007,0.004965,282.000000,12.000000,43.000000,0.000000,0.000000,0.000000:
00000000
00000000
00000000
00000000
,
10000000
00010000
20000000
00000000
30200000
00000000
01300000
00010000
,
02000000
03010000
00022000
00033000
,
00000010
00001000
00000002
00000000
00000023
00000000
00000130
00001000
,
00000002
00001003
00002020
00003030
,
00000001
00001000
00000002
00000000
00000203
00000000
00000310
00001000
,
00000020
00001030
00022000
00033000
,
02020000
00000000
00000000
00000000
00000000
00030000
03000000
00010000
,
20000000
00000000
00010000
00000000
00000000
00000000
30010000
00100000
,
00020000
02000000
00000000
00000000
00030000
00000000
03100000
00000000
,
01000000
00001000
00010000
00000000
00011000
00000100
00000010
00000000
,
00000100
00001000
00000001
00000000
00000010
00000001
00001000
00000000
,
00000010
00001000
00000001
00000000
00000100
00000010
00010000
00000000
,
00001000
00010000
00001000
00000000
01000000
00010000
10000000
00000000
,
00100000
10000000
10010000
00000000
00100000
00001000
00010000
00000000
,
00000100
00001000
00000100
00000000
00000010
00000001
00000010
00000000
,
00000100
00001000
00000100
00000000
00001000
00000100
00000010
00000000
,
00000100
00000000
00000010
00000001
00000100
00000000
00000010
00000000
,
00011000
00000000
00100000
00010000
00100000
00000000
00010000
10000000
,
00010000
00000000
10000000
00010000
01000000
00000000
00001000
00010000
,
00001000
00000000
00010000
00000010
00000100
00000000
00000010
00001000
,
00000010
00000000
00001000
00000001
00001000
00000000
00000001
00001000
,
00000001
00000000
00000000
00000000
00000010
00010000
00001000
00100000
,
00020000
00030000
00100000
02000000
03000000
00000000
10000000
00000000
,
00020000
00030000
00100000
02000000
03000000
00000000
10000000
00000000
,
00200000
00300000
01000000
00020000
00030000
00000000
10000000
00000000
,
02000000
03000000
00100000
00002000
00003000
00000000
00010000
00000000
,
00000200
00001300
00000002
00000010
00000003
00000000
00000000
00000000
,
00000200
00000000
00001300
00000020
00001000
00000000
00001030
00000000
,
00002000
00000000
00000000
00000000
00003100
00001000
00000100
00000000
00001000
00000000
00000000
00000000
00000000
00000000
00000000
00000000
,
00000200
00000300
00012000
00003000
,
00022000
00000000
00033000
00001000
00100000
01000000
01000000
00000000
,
00100000
00100000
00010000
00000000
00000000
10000000
00010000
00000000
,
10000000
10000000
01000000
00000000
00000000
10000000
00010000
00000000
,
01000000
01000000
01100000
00000000
00000000
00001000
00010000
00000000
,
00001000
00001000
00010000
00000000
00000000
00000010
00001000
00000000
,
00000001
00000001
00001000
00000000
00000000
00000010
00001000
00000000
,
00000100
00000100
00000010
00000000
00000000
00000100
00010000
00000000
,
00001000
00001000
00010000
00000000
00000000
00001000
00100000
00000000
,
00010000
10000000
00010000
10000000
00000000
00000000
00010000
10000000
,
00010000
10000000
00100000
01000000
00000000
00000000
00001000
00010000
,
00001000
00010000
00000100
00001000
00000000
00000000
00000010
00001000
,
00000010
00001000
00000100
00000010
00000000
00000000
00000100
00000010
,
00000200
00000010
00000310
00000100
00000000
00000000
00010000
00001000
,
00010000
00001000
00100000
01000000
00000000
00000000
10000000
01000000
,
00100000
00001000
00010000
00000100
00000000
00000000
00001000
00000100
,
00000010
00000001
00000010
00000100
00000000
00000000
00000010
00000010
,
00000100
00001000
00001000
00000000
00000000
00000000
00000100
00010000
,
00001000
01000000
00100000
00000000
10000000
00010000
00100000
00000000
,
00010000
01000000
00010000
00000000
00010000
00100000
00001000
00000000
,
00010000
00001000
00010000
00000000
00000010
00001000
00000100
00000000
,
00000010
00000001
00000010
00000000
00000100
00010000
00001000
00000000
,
00100000
00010000
10000000
00000000
01000000
01000000
01000000
00000000
,
11000000
00000000
01010000
00010000
10000000
00000000
02000000
00100000
,
03020000
00000000
00130000
00001000
00020000
00000000
00030000
00000100
,
00002000
00000000
00003000
00000100
00000020
00000000
00000031
00000000
;

//---------------dance-single - ----------------
#NOTES:
     dance-single:
     :
     Beginner:
     2:
     0.165979,0.163851,0.049652,0.000000,0.000000,112.000000,5.000000,0.000000,0.000000,0.000000,0.000000,0.165979,0.163851,0.049652,0.000000,0.000000,112.000000,5.000000,0.000000,0.000000,0.000000,0.000000:
0000
0000
0000
0000
,
0000
0000
0000
0000
,
0000
0000
0000
0000
,
0001
0001
0000
0000
,
0001
0001
0000
0000
,
1000
1000
0000
0000
,
1000
1000
0000
0000
,
1001
0000
0000
0000
,
0000
0000
0000
0000
,
0000
0000
0000
0000
,
0001
0001
0000
0000
,
0001
0001
0000
0000
,
1000
1000
0000
0000
,
1000
1000
0000
0000
,
0001
0001
0001
0000
,
0001
0001
0001
0000
,
1000
1000
1000
0000
,
1000
1000
1000
0000
,
0010
0010
0010
0000
,
0100
0000
0010
0000
,
0100
0100
0100
0000
,
0010
0000
0100
0000
,
1001
0000
0000
0000
,
0010
0010
0010
0000
,
0100
0000
0010
0000
,
0100
0100
0100
0000
,
0010
0000
0100
0000
,
0010
0010
0010
0000
,
1000
0000
0100
0000
,
0100
0100
0100
0000
,
0001
0000
0010
0000
,
0000
0000
0000
0000
,
0000
0010
0000
0001
,
0000
1000
0000
0100
,
0000
0010
0000
0001
,
0001
0001
0001
0000
,
0000
0010
0000
1000
,
0000
0001
0000
0100
,
0000
0010
0000
1000
,
1000
1000
1000
0000
,
0000
0001
0000
0100
,
0000
1000
0000
0100
,
0000
0001
0000
0100
,
0000
1000
0000
0100
,
0000
0001
0000
0010
,
0000
1000
0000
0010
,
0000
0001
0000
0010
,
0000
0110
0110
0000
,
0001
0001
0000
0000
,
0001
0001
0000
0000
,
1000
1000
0000
0000
,
1000
1000
0000
0000
,
0001
0001
0001
0000
,
0001
0001
0001
0000
,
1000
1000
1000
0000
,
1001
0000
0000
0000
;

//---------------dance-single - ----------------
#NOTES:
     dance-single:
     :
     Challenge:
     13:
     0.693709,0.608981,0.089373,0.317772,0.367424,448.000000,9.000000,32.000000,0.000000,0.000000,0.000000,0.693709,0.608981,0.089373,0.317772,0.367424,448.000000,9.000000,32.000000,0.000000,0.000000,0.000000:
// measure 0
0000
0000
0000
0000
,  // measure 1
0001
0000
0100
0010
0200
0000
0001
0000
0310
0000
0100
1000
0100
0000
1000
0000
,  // measure 2
0002
0000
0000
0000
0103
0010
0100
0000
0010
1000
0010
0000
1000
0000
0001
0000
,  // measure 3
0100
0000
0001
1000
0002
0000
0100
0000
0023
0000
1000
0000
0130
0000
0010
0000
,  // measure 4
0002
2003
3002
0103
,  // measure 5
0010
0000
1000
0001
2000
0000
0010
0000
3200
0000
0001
0000
0310
0000
0100
0000
,  // measure 6
2000
0000
0000
0000
3001
0000
0100
0000
0010
1000
0010
0000
0100
0000
0001
0000
,  // measure 7
0220
0000
0000
0000
0000
0030
0300
1000
,  // measure 8
0002
0000
0100
0000
0103
0010
0100
0001
,  // measure 9
0020
0002
0000
0000
0030
0000
1003
0000
,  // measure 10
0010
0000
0100
0010
1000
0000
0001
0000
0100
0000
0010
0100
0001
0000
1000
0000
,  // measure 11
0001
0010
0001
0000
0100
0010
0100
0000
0010
1000
0010
0000
1000
0000
0100
0000
,  // measure 12
0001
0000
0100
1000
0001
0000
0010
0000
1000
0000
0010
0001
0100
0000
0010
0000
,  // measure 13
0100
0001
0100
0000
0010
1000
0010
0000
1000
0100
1000
0000
0002
0000
0000
0000
,  // measure 14
0103
0000
0010
1000
0010
0000
0100
0000
0010
0000
1000
0001
1000
0000
0001
0000
,  // measure 15
0100
0000
0010
0000
1000
0100
1000
0000
0001
0010
0001
0000
0110
0000
0000
0000
,  // measure 16
1000
0000
0010
0001
0010
0000
1000
0000
0001
0000
0100
0010
0100
0000
0001
0000
,  // measure 17
0010
0001
0010
0000
0001
1000
0001
0000
1000
0000
0100
0000
0001
0000
0000
0000
,  // measure 18
0100
0000
1000
0001
0000
0000
1000
0000
0010
0000
0100
0010
0000
0000
0100
0000
,  // measure 19
0001
1000
0001
0000
1000
0010
1000
0000
0010
0100
0010
0000
0100
0000
0001
0000
,  // measure 20
0010
0000
0001
1000
0000
0000
0010
0000
0100
0000
0001
0100
0000
0000
0010
0000
,  // measure 21
1000
0100
1000
0000
0001
0010
0001
0000
0100
0010
0100
0000
0001
0000
1000
0000
,  // measure 22
1002
0000
0003
0100
0010
1000
0010
0100
,  // measure 23
0001
0000
1000
0001
0000
0000
1000
0000
0010
0000
0100
0010
0000
1000
0010
0000
,  // measure 24
0100
0001
0010
0000
0001
0100
0010
0000
1000
0100
1000
0000
0001
0100
0001
0000
,  // measure 25
2000
0000
3001
1000
0000
0000
0020
0000
0130
0000
0001
0100
0000
0000
0010
0000
,  // measure 26
2000
0000
3100
0000
0010
0000
0000
0001
0000
0100
0010
0000
1000
0001
1000
0001
,  // measure 27
0100
0000
0010
1000
0000
0000
0010
0000
0100
0000
0001
0100
0000
0000
0010
0000
,  // measure 28
1000
0100
0010
0100
1000
0001
0010
0001
,  // measure 29
0200
0000
0301
1000
0001
0000
0100
0000
0001
0000
1000
0001
1000
0000
0100
0000
,  // measure 30
0010
0000
1000
0000
0010
0000
0100
0000
0001
0000
0100
0000
0010
0001
0010
0000
,  // measure 31
0100
1000
0100
1000
0100
0010
0100
0010
0001
0000
0000
0000
0000
0000
0000
0000
,  // measure 32
1000
0100
1000
0010
0100
0010
1000
0001
,  // measure 33
1000
0010
1000
0001
0100
0010
1000
0100
,  // measure 34
0001
0001
0100
0100
1000
1000
0010
0010
,  // measure 35
0001
0001
0100
0100
0020
0000
1030
0001
,  // measure 36
1000
0010
1000
0000
0001
0100
0010
0000
,  // measure 37
0100
0010
0100
0001
0200
0000
0310
1000
,  // measure 38
0001
0101
0010
0010
1000
1000
0100
0100
,  // measure 39
0001
0001
0100
0100
1000
0001
0010
0001
,  // measure 40
0200
0000
0000
0000
0310
0000
1000
0000
0001
1000
0000
0000
0010
0000
0100
0000
,  // measure 41
0001
0000
0100
0000
0010
0000
1000
0000
0000
0001
1000
0000
0010
0000
1000
0000
,  // measure 42
0100
0000
0001
0000
0100
0000
1000
0000
0000
0010
0100
0000
0001
0000
0100
0000
,  // measure 43
0020
0000
1000
0000
0031
0000
1000
0000
0000
0010
0100
0000
0001
0000
1000
0000
,  // measure 44
0002
0000
0103
0010
0000
0000
0100
0001
,  // measure 45
0010
0001
2000
0010
3200
0001
0320
0001
,  // measure 46
2030
0001
3100
0010
0000
0000
1000
1000
,  // measure 47
0001
0010
1000
0010
0001
0100
1000
0100
,  // measure 48
0001
0000
1000
0010
1000
0000
0010
0000
0100
0000
0001
0010
0001
0000
1000
0000
,  // measure 49
0010
0100
0010
0000
1000
0010
1000
0010
0001
0000
0010
0000
1000
0000
0100
0000
,  // measure 50
0001
0000
0100
1000
0100
0010
0001
0000
1000
0010
0000
0100
0000
0000
0010
0000
,  // measure 51
1000
0001
1000
0000
0001
0100
0010
0000
,  // measure 52
0100
0000
0010
1000
0010
0000
0100
0000
0001
0000
0010
0001
0010
0000
0001
0000
,  // measure 53
0100
0000
1010
0000
1001
0000
0002
0100
,  // measure 54
0013
0000
1000
0100
1000
0000
0001
0000
1002
0000
0000
0000
0103
0000
0000
0000
,  // measure 55
0010
1000
0001
0000
0000
0000
1001
0000
0000
0000
0000
0000
0110
0000
0000
0000
;
