#TITLE:250bpm;
#SUBTITLE:Jondi&Spesh mix;
#ARTIST:Akira Yamaoka;
#TITLETRANSLIT:;
#SUBTITLETRANSLIT:;
#ARTISTTRANSLIT:;
#GENRE:;
#CREDIT:;
#BANNER:250bpm Jondi&Spesh mix.png;
#BACKGROUND:250bpm Jondi&Spesh mix-bg.png;
#LYRICSPATH:;
#CDTITLE:./CDTITLES/Song Pack 25.png;
#MUSIC:250bpm Jondi&Spesh mix.mp3;
#OFFSET:-0.046000;
#SAMPLESTART:57.610001;
#SAMPLELENGTH:15.000000;
#SELECTABLE:YES;
#DISPLAYBPM:62.000000:250.000000;
#BPMS:0.000000=124.999992
,64.000000=249.999985
,160.000000=62.499996
,164.000000=249.999985
,228.000000=124.999992
;
#STOPS:
;
#BGCHANGES:;
#KEYSOUNDS:;
#ATTACKS:;

//---------------dance-single - ----------------
#NOTES:
     dance-single:
     :
     Beginner:
     4:
     0.146334,0.144744,0.122475,0.000000,0.000000,81.000000,11.000000,0.000000,0.000000,0.000000,0.000000,0.146334,0.144744,0.122475,0.000000,0.000000,81.000000,11.000000,0.000000,0.000000,0.000000,0.000000:
0000
0000
0000
0000
,
0000
0000
0000
0000
,
0000
0000
0000
0000
,
0000
0000
0000
0000
,
1000
1000
1000
0000
,
0000
0000
0000
0000
,
0001
0001
0001
0000
,
0000
0000
0000
0000
,
1000
1000
0000
0000
,
0100
0100
0000
0000
,
0001
0001
0000
0000
,
0100
0100
0000
0000
,
1000
1000
0000
0000
,
0010
0010
0000
0000
,
0001
0001
0000
0000
,
1001
0000
0000
0000
,
1001
0000
0000
0000
,
0000
0000
0000
0000
,
0110
0000
0000
0000
,
0000
0000
0000
0000
,
1000
0000
0001
0000
,
1000
0000
0000
0000
,
0001
0000
1000
0000
,
0001
0000
0000
0000
,
0010
0000
0000
0000
,
0100
0000
0000
0000
,
0010
0000
0000
0000
,
0100
0000
0000
0000
,
0110
0000
0000
0000
,
1001
0000
0000
0000
,
0110
0000
0000
0000
,
1001
0000
0000
0000
,
1000
0000
0000
0000
,
1000
0000
0000
0000
,
0001
0000
0000
0000
,
0001
0000
0000
0000
,
1000
0000
1000
0000
,
1000
0000
0000
0000
,
0001
0000
0001
0000
,
0001
0000
0000
0000
,
1001
0000
0000
0000
,
1000
0000
0000
0000
,
0100
0000
0000
0000
,
0010
0000
0000
0000
,
0001
0000
0001
0000
,
0001
0000
0000
0000
,
0100
0000
0000
0000
,
0010
0000
0000
0000
,
1000
0000
1000
0000
,
1000
0000
0001
0000
,
1000
0000
0001
0000
,
1000
0000
0000
0000
,
0000
0000
0000
0000
,
0001
0000
1000
0000
,
0001
0000
1000
0000
,
0001
0000
0000
0000
,
0000
0000
0000
0000
,
1000
0000
0001
0000
,
1000
0000
0001
0000
,
1000
0000
0000
0000
,
1001
0000
0000
0000
,
0001
0000
1000
0000
,
0001
0000
1000
0000
,
0001
0000
0000
0000
,
1001
0000
0000
0000
,
1001
0000
0000
0000
;

//---------------dance-single - ----------------
#NOTES:
     dance-single:
     :
     Easy:
     7:
     0.279944,0.361859,0.233817,0.178146,0.000000,139.000000,21.000000,16.000000,0.000000,0.000000,0.000000,0.279944,0.361859,0.233817,0.178146,0.000000,139.000000,21.000000,16.000000,0.000000,0.000000,0.000000:
0000
0000
0000
0000
,
0000
0000
0000
0000
,
0000
0000
0000
0000
,
0000
0000
0000
0000
,
1000
0001
1000
0001
,
0010
0001
0100
1000
,
0001
1000
0001
1000
,
0010
1000
0100
0001
,
1000
0001
1000
1100
,
0001
1000
0001
0101
,
1000
0001
0010
0110
,
0001
1000
0010
0110
,
1000
0100
0001
1001
,
0001
0100
1000
1001
,
0010
0100
0010
0100
,
2002
0000
3003
0000
,
1001
0000
0000
0000
,
0110
0000
0000
0000
,
1001
0000
0000
0000
,
0110
0000
0000
0000
,
1000
0000
0001
0000
,
1000
0000
0100
0000
,
0001
0000
1000
0000
,
0001
0000
0100
0000
,
0010
1000
0100
0000
,
0010
0001
0100
0000
,
0010
1000
0100
0000
,
0010
0001
0100
0000
,
1100
0000
0000
0000
,
1001
0000
0000
0000
,
0101
0000
0000
0000
,
1001
0000
0000
0000
,
1000
0000
1000
0000
,
0020
0000
0030
0000
,
0001
0000
0001
0000
,
0001
0000
0100
0000
,
0001
0000
0001
0000
,
0020
0000
0030
0000
,
1000
0000
1000
0000
,
1000
0000
0100
0000
,
2002
0000
3003
0000
,
2000
0000
0000
0000
,
3000
0000
0100
0100
,
0020
0000
0000
0000
,
0030
0000
0001
0000
,
0002
0000
0000
0000
,
0003
0000
0100
0000
,
0020
0030
0000
2000
,
0000
0000
3000
0000
,
0002
0000
0000
0000
,
0003
0000
0100
0100
,
0020
0000
0000
0000
,
0030
0000
1000
0000
,
2000
0000
0000
0000
,
3000
0000
0100
0000
,
0020
0030
0000
0002
,
0000
0000
0003
0000
,
1000
0100
1000
1001
,
0001
0100
0001
1001
,
1000
0010
1000
1001
,
0001
0010
0001
1001
,
1000
1000
0100
0010
,
0001
0001
0100
0010
,
1000
1000
0010
0100
,
0001
0001
0010
0100
,
1001
0000
0000
0000
;

//---------------dance-single - ----------------
#NOTES:
     dance-single:
     :
     Medium:
     11:
     0.477177,0.506603,0.356292,0.267219,0.000000,244.000000,32.000000,24.000000,0.000000,0.000000,0.000000,0.477177,0.506603,0.356292,0.267219,0.000000,244.000000,32.000000,24.000000,0.000000,0.000000,0.000000:
0000
0000
0000
0000
,
0000
0000
0000
0000
,
0000
0000
0000
0000
,
0000
0000
0000
0000
,
0001
0000
1000
0000
0010
0100
0001
0000
,
1000
0000
0001
0000
0010
0100
1000
0000
,
0001
0000
1000
0000
0100
0010
0001
0000
,
1000
0000
0001
0000
0100
0010
1000
0000
,
0001
1000
0010
0000
1000
0001
0010
0000
,
0001
1000
0100
0000
1000
0001
0100
0000
,
0001
1000
0010
0000
1000
0001
0100
0000
,
0001
1000
0100
0000
1000
0001
0010
0000
,
0001
1000
0001
1000
0010
0100
0001
0000
,
1000
0001
1000
0001
0010
0100
1000
0000
,
0001
1000
0001
1000
0100
0010
0001
0000
,
1000
0001
1000
0001
0100
0010
1000
0000
,
0001
0001
1000
1000
,
0001
1000
0001
1000
,
0010
0010
0100
0100
,
0010
0100
0010
0100
,
0001
0010
0100
1000
,
0001
0010
0100
1000
,
0001
0001
1000
1000
,
0001
0001
1000
1000
,
0001
0000
1001
0000
,
1000
0000
1001
0000
,
0001
0000
1001
0000
,
1000
0000
1001
0000
,
0100
0100
0100
0100
,
1001
1001
1001
1001
,
0100
0100
0100
0100
,
1001
1001
1001
1001
,
1000
0001
1000
0001
,
0010
0100
0010
0000
0020
0000
0030
0000
,
0001
0100
0001
0100
0001
0000
1000
0000
,
0010
1000
0010
0100
,
0001
1000
0001
1000
,
0010
0100
0010
0000
0020
0000
0030
0000
,
1000
0100
1000
0100
1000
0000
0001
0000
,
0010
0001
0010
0100
,
2002
0000
0000
0000
0000
3003
0110
0110
,
2000
0000
0001
0000
,
3001
0000
0010
0100
,
1200
0000
0010
0010
,
0310
0000
0220
0330
,
2002
0000
0000
0000
,
0000
3003
0020
0000
,
0200
0000
0330
2002
,
0000
0000
0000
3003
,
0002
0000
1000
0000
,
1003
0000
0010
0100
,
0102
0000
0010
0010
,
0013
0000
0220
0330
,
2002
0000
0000
0000
,
0000
3003
0020
0000
,
0200
0000
0330
2002
,
0000
0000
0000
3003
,
0010
0000
1001
0000
0100
0010
0001
0100
,
0010
0000
1001
0000
0100
0010
1000
0100
,
0010
0000
0011
0000
0001
1000
0001
0100
,
0010
0000
1010
0000
1000
0001
1000
0100
,
0010
0000
0110
0000
0100
1000
0001
0100
,
0001
0000
1001
0000
0100
0001
1000
0100
,
1000
0000
0110
0000
0010
0001
0010
0100
,
1000
0000
1001
0000
1000
0001
1000
0001
,
1001
0000
0000
0000
;

//---------------dance-single - ----------------
#NOTES:
     dance-single:
     :
     Hard:
     15:
     0.827106,0.832276,0.634645,0.200414,0.356292,445.000000,57.000000,18.000000,0.000000,0.000000,0.000000,0.827106,0.832276,0.634645,0.200414,0.356292,445.000000,57.000000,18.000000,0.000000,0.000000,0.000000:
// measure 0
0000
0000
0000
0000
,  // measure 1
0000
0000
0000
0000
,  // measure 2
0000
0000
0000
0000
,  // measure 3
0000
0000
0000
0000
,  // measure 4
0001
0000
1000
0010
2000
0000
0000
3001
1000
0000
0010
0000
0100
0000
0001
0000
,  // measure 5
0010
0000
0100
1000
0200
0000
0000
0310
0100
0000
1000
0000
0001
0000
0010
0000
,  // measure 6
0001
0000
0100
0010
2000
0000
0000
3100
1000
0000
0010
0000
0100
0000
0001
0000
,  // measure 7
0010
0000
0001
1000
0020
0000
0000
0130
0010
0000
1000
0000
0001
0000
0010
0000
,  // measure 8
0001
0000
1000
0100
1000
0001
0000
0010
0000
0000
0001
0100
0010
0100
0001
0000
,  // measure 9
1000
0000
0001
0100
0010
0100
0000
0001
0000
1000
0100
0010
0100
1000
0100
0000
,  // measure 10
0010
0000
0001
1000
0001
0100
0000
0010
0000
0000
1000
0001
1000
0100
1000
0000
,  // measure 11
0010
0000
0100
0001
0100
0010
0000
1000
0000
0001
0010
0100
0010
0001
0010
0000
,  // measure 12
0100
0000
1000
0001
0100
0001
0000
0010
0000
0000
0100
1000
0100
0010
0001
0000
,  // measure 13
0100
0000
0010
1000
0010
0100
0000
0001
0000
0010
0100
1000
0010
0100
0001
0000
,  // measure 14
1000
0000
0001
1000
0001
0010
0000
0100
0000
0000
1000
0001
1000
0010
0100
0000
,  // measure 15
0001
0010
0100
1000
0001
0010
0100
1000
,  // measure 16
1100
0101
1100
0101
,  // measure 17
0001
0010
0100
1000
0010
0100
0001
0000
,  // measure 18
0101
1100
0101
1100
,  // measure 19
1000
0001
0010
0100
0010
0001
0100
0000
,  // measure 20
0010
1000
0010
0100
0001
0010
0100
0000
,  // measure 21
1000
0010
0100
0001
0100
0010
1000
0000
,  // measure 22
0010
1000
0010
0100
0001
0010
0100
0010
,  // measure 23
0001
0100
0010
1000
0100
1000
0010
0000
,  // measure 24
0100
0001
0010
0100
1000
0010
0100
0010
,  // measure 25
1000
0100
0010
0001
1000
0001
0010
0100
,  // measure 26
0010
0001
0100
0010
1000
0001
0010
0100
,  // measure 27
1000
0100
0010
0001
1000
0010
0100
0000
,  // measure 28
0101
1010
1100
0011
,  // measure 29
1001
0110
1001
0110
,  // measure 30
1100
0011
0101
1010
,  // measure 31
0110
1001
0110
1001
,  // measure 32
1000
0001
1000
0010
0100
0001
1000
0001
,  // measure 33
0010
1100
0101
0000
,  // measure 34
1000
0010
1000
0001
0010
0001
0100
0000
,  // measure 35
0010
1000
0001
0010
0000
0001
0100
0010
,  // measure 36
1000
0100
1000
0001
0100
0001
0010
0100
,  // measure 37
1000
1010
0011
0000
,  // measure 38
0001
0010
0100
1000
0010
0100
0001
0000
,  // measure 39
1000
0100
1000
0001
0000
0010
0100
1000
,  // measure 40
2002
0000
0000
0000
0000
0000
0000
0000
0000
0000
3003
0000
1000
1000
0001
0001
,  // measure 41
0220
0000
0000
0000
0330
0000
0010
0100
,  // measure 42
1000
0001
0010
0100
1100
0000
0101
0000
,  // measure 43
2002
0000
0000
0000
3003
0000
1000
0001
,  // measure 44
0010
0100
1000
0010
0220
0000
0330
0000
,  // measure 45
2002
0000
0000
0000
3003
0000
0001
1000
,  // measure 46
0001
0100
0010
1000
2020
0000
3030
0000
,  // measure 47
0022
0000
0033
1001
,  // measure 48
1000
0001
1000
0001
1000
0001
0100
0000
,  // measure 49
0010
1000
0010
0100
0001
0100
0001
0010
,  // measure 50
0001
0100
0010
1000
0100
1000
0001
0000
,  // measure 51
0011
0000
1100
0100
0010
0001
1000
0000
,  // measure 52
1010
0000
0101
0001
1000
0100
0010
0001
,  // measure 53
1000
0010
0100
0001
0100
0010
1000
0001
,  // measure 54
0010
0100
1000
0001
1000
0010
0100
0001
,  // measure 55
1000
0100
0010
0100
1000
0001
0010
0000
,  // measure 56
0011
1100
1001
1001
,  // measure 57
1001
0000
0001
0000
1000
0000
0001
0010
0100
1000
0001
0000
0110
0000
0000
0000
,  // measure 58
1001
0000
1000
0000
0001
0000
1000
0010
0100
0001
1000
0000
0110
0000
0001
0000
,  // measure 59
1000
0000
0001
0000
1000
0000
0010
1000
0001
0100
0010
0000
1001
0000
0000
0000
,  // measure 60
0001
0000
1000
0000
0001
0000
0010
0001
1000
0100
0010
0000
1001
0000
1000
0000
,  // measure 61
0100
1000
0101
0001
0100
0001
1100
1000
,  // measure 62
0001
0000
0100
0000
0010
1000
0010
1000
0100
0000
1000
0000
0001
0010
0001
0010
,  // measure 63
0100
1000
0011
0001
0100
0001
1010
1000
,  // measure 64
0001
0000
1000
0000
0001
0100
0010
1000
0001
0000
1000
0000
0001
0010
0100
1000
,  // measure 65
1001
0000
0000
0000
;

//---------------dance-double - ----------------
#NOTES:
     dance-double:
     :
     Beginner:
     1:
     0.151106,0.217115,0.133609,0.022268,0.000000,81.000000,12.000000,2.000000,0.000000,0.000000,0.000000,0.151106,0.217115,0.133609,0.022268,0.000000,81.000000,12.000000,2.000000,0.000000,0.000000,0.000000:
00000000
00000000
00000000
00000000
,
00000000
00000000
00000000
00000000
,
00000000
00000000
00000000
00000000
,
00000000
00000000
00000000
00000000
,
00000001
00000001
00000001
00000000
,
00000000
00000000
00000000
00000000
,
00001000
00001000
00001000
00000000
,
00000000
00000000
00000000
00000000
,
00000001
00000001
00000000
00000000
,
00000100
00000100
00000000
00000000
,
00001000
00001000
00000000
00000000
,
00010000
00010000
00000000
00000000
,
01000000
01000000
00000000
00000000
,
10000000
10000000
00000000
00000000
,
00100000
00100000
00000000
00000000
,
10010000
00000000
00000000
00000000
,
01000000
00000000
00000000
00000000
,
01000000
00000000
00000000
00000000
,
00100000
00000000
00000000
00000000
,
00100000
00000000
00000000
00000000
,
00001000
00000000
00010000
00000000
,
00001000
00000000
00000000
00000000
,
00010000
00000000
00001000
00000000
,
00010000
00000000
00000000
00000000
,
00000010
00000000
00000000
00000000
,
00000010
00000000
00000000
00000000
,
00000100
00000000
00000000
00000000
,
00000100
00000000
00000000
00000000
,
00000110
00000000
00000000
00000000
,
00001001
00000000
00000000
00000000
,
00001001
00000000
00000000
00000000
,
00000110
00000000
00000000
00000000
,
00000100
00000000
00000000
00000000
,
00010000
00000000
00000000
00000000
,
00001000
00000000
00000000
00000000
,
01000000
00000000
00000000
00000000
,
10000000
00000000
10000000
00000000
,
10000000
00000000
00000000
00000000
,
00010000
00000000
00010000
00000000
,
00010000
00000000
00000000
00000000
,
20020000
00000000
30030000
00000000
,
10010000
00000000
00000000
00000000
,
01000000
00000000
00000000
00000000
,
00010000
00000000
00000000
00000000
,
00001000
00000000
00001000
00000000
,
00001000
00000000
00000000
00000000
,
00000100
00000000
00000000
00000000
,
00000001
00000000
00000000
00000000
,
00001000
00000000
00001000
00000000
,
00001000
00000000
00000000
00000000
,
00000001
00000000
00000000
00000000
,
00001001
00000000
00000000
00000000
,
00000000
00000000
00000000
00000000
,
00000001
00000000
00000000
00000000
,
00001000
00000000
00000000
00000000
,
00001001
00000000
00000000
00000000
,
00000000
00000000
00000000
00000000
,
00000001
00000000
00000010
00000000
,
00001000
00000000
00010000
00000000
,
00100000
00000000
10000000
00000000
,
10010000
00000000
00000000
00000000
,
10000000
00000000
00100000
00000000
,
00010000
00000000
00001000
00000000
,
00000010
00000000
00000001
00000000
,
00001001
00000000
00000000
00000000
,
00000110
00000000
00000000
00000000
;

//---------------dance-double - ----------------
#NOTES:
     dance-double:
     :
     Easy:
     6:
     0.264038,0.361859,0.167012,0.178146,0.000000,135.000000,15.000000,16.000000,0.000000,0.000000,0.000000,0.264038,0.361859,0.167012,0.178146,0.000000,135.000000,15.000000,16.000000,0.000000,0.000000,0.000000:
00000000
00000000
00000000
00000000
,
00000000
00000000
00000000
00000000
,
00000000
00000000
00000000
00000000
,
00000000
00000000
00000000
00000000
,
00000010
00000001
00000100
00000000
,
00001000
00000100
00001000
00000000
,
00010000
00001000
00010000
00000000
,
01000000
10000000
00100000
00000000
,
10000000
00010000
10000000
00000000
,
00100000
00010000
00001000
00000000
,
00010000
00001000
00000010
00000000
,
00000001
00001000
00000001
00000000
,
00000010
00000100
00010000
00001000
,
01000000
00100000
10000000
00010000
,
10000000
01000000
00010000
00001000
,
00022000
00000000
00033000
00000000
,
00010000
00000000
01000000
00000000
,
10000000
00000000
10000000
00000000
,
01000000
00000000
00001000
00000000
,
00010000
00000000
00010000
00000000
,
00001000
00000000
00000100
00000000
,
00000001
00000000
00000001
00000000
,
00000100
00000000
00010000
00000000
,
00001000
00000000
00001000
00000000
,
00100000
00000000
00010000
00000000
,
10000000
00000000
01000000
00000000
,
00100000
00000000
00010000
00000000
,
10000000
00000000
01000000
00000000
,
11000000
00000000
00000000
00000000
,
01010000
00000000
00000000
00000000
,
00001100
00000000
00000000
00000000
,
00000101
00000000
00000000
00000000
,
00000001
00000000
00000100
00000000
,
00001000
00001000
00002000
00003000
,
00010000
00000000
01000000
00000000
,
10000000
00000000
00100000
00000000
,
10000000
00000000
01000000
00000000
,
00010000
00010000
00020000
00030000
,
00001000
00000000
00000100
00000000
,
00000001
00000000
00000001
00000000
,
00002002
00000000
00003003
00000000
,
00000002
00000000
00000000
00000000
,
00000003
00000000
00000100
00000100
,
00000020
00000000
00000000
00000000
,
00000030
00000000
00010000
00000000
,
00002000
00000000
00000000
00000000
,
00003000
00000000
00000010
00000000
,
00002000
00003000
00000000
00020000
,
00000000
00000000
00030000
00000000
,
20000000
00000000
00000000
00000000
,
30000000
00000000
01000000
01000000
,
00200000
00000000
00000000
00000000
,
00300000
00000000
00001000
00000000
,
00020000
00000000
00000000
00000000
,
00030000
00000000
00100000
00000000
,
00020000
00030000
00000000
00002000
,
00000000
00000000
00003000
00000000
,
00000001
00000010
00000100
00010100
,
00001000
00100000
01000000
11000000
,
10000000
00100000
01000000
01001000
,
00010000
00000010
00000100
00000101
,
00000001
00000100
00000010
00010010
,
00001000
01000000
00100000
10100000
,
10000000
01000000
00100000
00101000
,
00010000
00000100
00000010
00000011
,
00001001
00000000
00000000
00000000
;

//---------------dance-double - ----------------
#NOTES:
     dance-double:
     :
     Medium:
     7:
     0.435821,0.506603,0.356292,0.244951,0.000000,220.000000,32.000000,22.000000,0.000000,0.000000,0.000000,0.435821,0.506603,0.356292,0.244951,0.000000,220.000000,32.000000,22.000000,0.000000,0.000000,0.000000:
00000000
00000000
00000000
00000000
,
00000000
00000000
00000000
00000000
,
00000000
00000000
00000000
00000000
,
00000000
00000000
00000000
00000000
,
00100000
10000000
01000000
00010000
,
01000000
10000000
00100000
00010000
,
00001000
00000010
00000001
00000100
,
00001000
00000100
00000001
00000010
,
00000100
00001000
00000001
00000000
00000100
00000000
00001000
00000000
,
00010000
00001000
00010000
00000000
01000000
00000000
00100000
00000000
,
00010000
10000000
00100000
00000000
01000000
00000000
00001000
00000000
,
00010000
01000000
10000000
00000000
00100000
00000000
01000000
00000000
,
00100000
10000000
01000000
00000000
00100000
00010000
01000000
00000000
,
00010000
00100000
00001000
00000000
00010000
00000010
00000100
00000000
,
00000001
00000010
00000100
00000000
00001000
00000001
00000100
00000000
,
00001000
00010000
00001000
00000000
00010000
01000000
10000000
00000000
,
00100000
10000000
00100000
01000000
,
00010000
00100000
00001000
00010000
,
00000010
00010000
00001000
00100000
,
00010000
01000000
00100000
10000000
,
00010000
01000000
00001000
00100000
,
00001000
00010000
00000100
00000010
,
00000001
00000100
00000010
00001000
,
00000100
00010000
00001000
00100000
,
00001000
00000000
00001100
00000000
,
00000100
00000000
00000101
00000000
,
00000001
00000000
00000011
00000000
,
00000010
00000000
00000110
00000000
,
00000001
00001001
00001000
00001001
,
00000010
00010000
00001000
00100000
,
00010000
10010000
10000000
10010000
,
01100000
01100000
10010000
10010000
,
01000000
00000000
01000000
00000000
01000000
00000000
00100000
00010000
,
00100000
00101000
00011000
00000000
,
00001000
00000100
00000001
00000010
,
00000100
00010000
00001000
01000000
,
00100000
00000000
00100000
00000000
00100000
00000000
10000000
01000000
,
10000000
11000000
10010000
00000000
,
10000000
00100000
00010000
00001000
,
00000010
00000001
00000100
00000010
,
00002002
00000000
00000000
00003003
,
00000002
00000000
00000100
00000000
,
00000103
00000000
00001000
00010000
,
00012000
00000000
00100000
00100000
,
00103000
00000000
02200000
03300000
,
20020000
00000000
00000000
00000000
,
00000000
30030000
20000000
00000000
,
02000000
00000000
33000000
00220000
,
00000000
00000000
00000000
00330000
,
20000000
00000000
01000000
00000000
,
31000000
00000000
00010000
00001000
,
00012000
00000000
00000010
00000010
,
00003010
00000000
00000220
00000330
,
00002002
00000000
00000000
00000000
,
00000000
00003003
00000002
00000000
,
00000200
00000000
00000303
00002020
,
00000000
00000000
00000000
00003030
,
00001000
00000000
00001001
00000000
00000001
00000100
00001000
00000000
,
00010000
00000000
00011000
00000000
00010000
01000000
10000000
00000000
,
00100000
00000000
01100000
00000000
01000000
00001000
00010000
00000000
,
00001000
00000000
00011000
00000000
00001000
00000100
00000001
00000000
,
00000010
00000000
00000110
00000000
00000100
00010000
00001000
00000000
,
00010000
00000000
00011000
00000000
00010000
01000000
10000000
00000000
,
00100000
01000000
00010000
00000000
00100000
01000000
10000000
00000000
,
01000000
00010000
00001000
00000000
00010000
00001000
00000100
00000000
,
00001001
00000000
00000000
00000000
;

//---------------dance-double - ----------------
#NOTES:
     dance-double:
     :
     Hard:
     10:
     0.796885,0.868461,0.389694,0.100207,0.311755,457.000000,35.000000,9.000000,0.000000,0.000000,0.000000,0.796885,0.868461,0.389694,0.100207,0.311755,457.000000,35.000000,9.000000,0.000000,0.000000,0.000000:
00000000
00000000
00000000
00000000
,
00000000
00000000
00000000
00000000
,
00000000
00000000
00000000
00000000
,
00000000
00000000
00000000
00000000
,
00010000
00000000
10000000
01000000
10000000
00000000
00100000
00000000
01000000
00000000
00001000
00010000
00001000
00000000
00000000
00000100
,
00000001
00000000
00000010
00000100
00000010
00000000
00000001
00000000
00001000
00000000
00000001
00000100
00000001
00000000
00000000
00001000
,
00000100
00000000
00010000
00001000
00010000
00000000
00100000
00000000
10000000
00000000
01000000
00100000
01000000
00000000
00000000
10000000
,
00010000
00000000
00100000
00001000
00100000
00000000
00001000
00000000
00010000
00000000
00000100
00000000
00001000
00000000
00000001
00001000
,
00000100
00000000
00000010
00000001
00000010
00000000
00000100
00000000
00010000
00000000
00001000
00010000
00001000
00000000
00100000
00010000
,
01000000
00000000
00100000
10000000
00100000
00000000
01000000
00000000
00010000
00000000
10000000
00010000
10000000
00000000
00100000
01000000
,
00010000
00000000
00100000
00001000
00100000
00000000
00001000
00000000
00010000
00000000
00000100
00000010
00000100
00000000
00001000
00000001
,
00000100
00000000
00000010
00010000
00000010
00000000
00001000
00000000
00000100
00000000
00010000
00001000
00010000
00001000
00010000
00001000
,
01000000
00000000
00100000
10000000
00100000
00000000
01000000
00000000
00010000
00000000
00100000
00001000
00100000
00000000
00001000
00010000
,
00000010
00000000
00001000
00000100
00001000
00000000
00000001
00000000
00000010
00000000
00000100
00010000
00000100
00000000
00001000
00000010
,
00010000
00000000
00001000
00010000
00001000
00000000
01000000
00000000
00100000
00000000
10000000
01000000
10000000
00000000
01000000
00000000
,
00010000
00001000
00000100
00000001
00000010
00001000
00010000
00100000
,
10100000
00000000
01010000
00000000
01000000
00001000
00010000
00000000
,
00010010
00000000
00001100
00000000
00001000
00000010
00000100
00000000
,
00000011
00000000
00001100
00000000
00001000
00000001
00000010
00000000
,
00001100
00000000
00010010
00000000
00010000
00001000
00100000
00000000
,
00010000
00100000
00010000
00000000
10000000
01000000
10000000
00000000
,
00100000
10000000
00100000
00000000
01000000
00001000
01000000
00000000
,
00010000
00100000
01000000
00100000
00001000
00010000
00001000
01000000
,
00010000
00100000
00010000
01000000
00001000
00010000
00001000
00000000
,
00100000
00010000
00100000
01000000
10000000
01000000
00100000
00001000
,
00010000
00001000
00010000
00000010
00001000
00000010
00000100
00000001
,
00000100
00000010
00001000
00000100
00001000
00000100
00010000
00001000
,
00010000
00000010
00001000
00000001
00001000
00000010
00000100
00000000
,
00000101
00001001
00001100
00001001
,
00000100
00010000
00001000
01000000
,
01010000
10010000
11000000
10010000
,
01000000
00001000
00011000
00011000
,
00010000
00001000
00010000
00000100
00001000
00000010
00001000
00000001
,
00000010
00000011
00001001
00000000
,
00000001
00000100
00000001
00001000
00000100
00010000
00001000
00000000
,
00100000
00010000
00100000
01000000
00000000
10000000
01000000
00100000
,
00010000
00100000
01000000
10000000
00010000
00100000
01000000
10000000
,
00100000
10100000
10010000
00000000
,
10000000
00010000
10000000
00010000
01000000
00001000
00010000
00000000
,
00001000
00010000
00000010
00001000
00000000
00000100
00001000
00000001
,
00002002
00000000
00000000
00003003
,
10010000
00000000
00100000
00010000
10000000
00000000
00100000
10000000
,
00010000
10000000
01000000
00000000
11000000
00000000
01010000
00000000
,
10010000
00000000
00010000
01000000
00010000
00000000
00100000
00001000
,
00100000
00001000
00010000
00000000
00022000
00000000
00033000
00000000
,
00011000
00000000
00010000
00000100
00010000
00000000
00000010
00001000
,
00000010
00001000
00000100
00000000
00000101
00000000
00001100
00000000
,
00001001
00000000
00001000
00000001
00001000
00000000
00002002
00000000
,
00000000
00000000
00000000
00003003
,
00000001
00000100
00000001
00000010
00000001
00001000
00000010
00001000
,
00000100
00010000
00000010
00001000
00000010
00010000
00001000
00010000
,
00001000
01000000
00010000
00100000
00010000
10000000
00100000
10000000
,
00010000
10000000
00100000
01000000
00010000
00100000
01000000
10000000
,
01000000
00100000
00010000
00100000
00001000
00100000
01000000
10000000
,
00100000
01000000
00001000
00010000
00000010
00010000
00000100
00010000
,
00000010
00000100
00000001
00000010
00000001
00001000
00000100
00001000
,
00000001
00000010
00000100
00001000
00000001
00000010
00000100
00001000
,
00001001
00000000
00000001
00000000
00000100
00000000
00000001
00001000
00000001
00001000
00000100
00000000
00020000
00000000
00000000
00000000
,
01030000
00000000
10000000
00000000
00100000
10000000
00100000
10000000
01000000
00000000
01000000
00000000
00100000
00010000
00100000
00010000
,
01000000
00000000
00001000
00000000
00010000
00000000
01000000
10000000
01000000
10000000
00100000
00000000
00020000
00000000
00000000
00000000
,
00031000
00000000
00000010
00000000
00000001
00000100
00000001
00000100
00000010
00000000
00000010
00000000
00001000
00000100
00001000
00000100
,
00000010
00000000
00000001
00000000
00000100
00000000
00001000
00010000
00001000
00010000
00000100
00000000
00002000
00000000
00000000
00000000
,
00003001
00000000
00000010
00000000
00000100
00010000
00000100
00010000
00001000
00000000
00001000
00000000
01000000
00010000
01000000
00010000
,
00100000
00000000
00100000
00000000
00010000
10000000
00010000
10000000
00100000
00000000
00100000
00000000
01000000
00001000
01000000
00001000
,
00010000
00000000
00010000
00000000
00000010
00001000
00000010
00001000
00000001
00000000
00000010
00000000
00000100
00000000
00001000
00000000
,
00001001
00000000
00000000
00000000
;

//---------------dance-single - ----------------
#NOTES:
     dance-single:
     :
     Challenge:
     16:
     0.920951,0.977019,0.400828,0.033402,0.673614,540.000000,36.000000,3.000000,0.000000,0.000000,0.000000,0.920951,0.977019,0.400828,0.033402,0.673614,540.000000,36.000000,3.000000,0.000000,0.000000,0.000000:
// measure 0
0000
0000
0000
0000
,  // measure 1
0000
0000
0000
0000
,  // measure 2
0000
0000
0000
0000
,  // measure 3
0000
0000
0000
0000
,  // measure 4
1000
0000
0001
0000
0100
0001
0000
0110
0000
1000
0010
1000
0100
0001
0000
0100
,  // measure 5
0000
1000
0001
1000
0001
0010
0000
0001
0100
0010
0100
0001
0100
0010
0100
0000
,  // measure 6
0001
0000
1000
0000
0001
0010
0000
1010
0000
1000
0001
1000
0001
0100
0000
0100
,  // measure 7
0000
0010
1000
0010
1000
0001
0000
0001
0100
1000
0100
0001
0010
0001
0100
0001
,  // measure 8
0100
0000
0010
0000
0100
0001
0000
0100
0000
0010
1000
0100
1000
0010
0000
0101
,  // measure 9
0000
0001
0100
1000
0100
0001
0000
0100
0010
1000
0010
0100
0001
1000
0001
1000
,  // measure 10
0010
0000
0110
0000
0100
0001
0000
0100
0000
0001
1000
0001
0100
0000
0000
0010
,  // measure 11
0000
1000
0001
0100
0001
0000
0000
1000
0010
0100
0010
1000
0001
0100
0010
0100
,  // measure 12
0001
0000
0101
0000
0010
1000
0000
1000
0000
0001
0100
0001
0100
0010
0000
1000
,  // measure 13
0000
0010
0100
0010
1000
0010
0000
0100
0010
1000
0001
1000
0010
0100
0010
1000
,  // measure 14
0001
0000
0100
0000
0100
0010
0000
1000
0000
0001
0100
0010
0100
0010
1000
0000
,  // measure 15
1010
0000
0110
0000
0101
0000
1001
0000
1000
0100
0010
0001
1000
0001
0100
0010
,  // measure 16
1000
1010
0110
0101
,  // measure 17
0001
0100
1000
0100
0001
0100
0001
1000
,  // measure 18
0001
1000
0010
1000
0010
0100
0010
0100
,  // measure 19
0001
0000
1001
0000
1010
1000
0010
1000
,  // measure 20
0100
0001
0100
1000
0100
0010
0001
0100
,  // measure 21
0001
0000
1001
0000
1000
0010
0100
0010
,  // measure 22
1000
1000
0100
0100
0001
0001
0100
0100
,  // measure 23
0010
0010
0001
0001
0010
0010
1000
1000
,  // measure 24
0020
0000
0031
0000
0001
0010
1000
0010
,  // measure 25
0001
0100
0010
1000
0010
0100
0001
0100
,  // measure 26
1000
0100
0001
0010
1000
0010
0001
0010
,  // measure 27
0100
0001
0100
1000
0001
0100
0001
0000
,  // measure 28
1001
1010
0110
0101
,  // measure 29
0001
1000
0001
1000
0010
0100
0010
0100
,  // measure 30
0001
0001
1000
1000
0100
0100
0010
0010
,  // measure 31
0001
0000
0001
0000
0100
0010
0100
0000
0010
0000
0010
0000
1000
0000
1000
0000
,  // measure 32
0001
0100
1000
0010
1000
0000
0100
0001
,  // measure 33
1000
0001
0100
0010
0100
0000
0001
0100
,  // measure 34
0001
0010
1000
0010
0001
0100
0010
0000
,  // measure 35
1000
0010
1000
0001
1000
0001
0010
0100
,  // measure 36
1000
0001
1000
0100
0001
0000
0001
0100
,  // measure 37
1000
0010
0100
0010
1000
0000
0100
0001
,  // measure 38
1000
0001
0100
0010
1000
0100
0000
0010
,  // measure 39
0001
1000
0001
1000
0001
1000
0001
1000
,  // measure 40
2002
0000
0000
0000
0000
0000
0000
0000
0000
0000
0000
0000
0000
0000
0000
0000
3003
0000
0000
0000
0001
1000
0001
1000
0001
0000
1000
0000
0001
0100
0001
0100
,  // measure 41
0010
0101
0110
1010
,  // measure 42
1001
0000
0101
0000
0100
0010
1000
0010
,  // measure 43
0100
0001
1000
0000
1001
0000
0101
0000
,  // measure 44
0110
1010
1001
0101
,  // measure 45
0100
0010
1000
0100
1000
0001
1000
0000
,  // measure 46
0010
0100
0001
0100
0010
1000
0010
0000
,  // measure 47
0100
0001
1000
0001
0100
0010
0100
0000
,  // measure 48
0001
0100
1000
0100
1000
0100
0001
1000
,  // measure 49
0010
0100
0010
1000
0010
0001
0010
0100
,  // measure 50
0010
1000
0010
1000
0100
0001
0010
0001
,  // measure 51
0100
0001
0100
1000
0001
0010
1000
0100
,  // measure 52
1000
0000
0010
0000
1000
0000
0010
0001
0010
0000
0001
0000
0010
0000
1000
0010
,  // measure 53
1000
0000
0001
0000
1000
0000
0010
0100
0010
0000
1000
0000
0001
0000
0100
0001
,  // measure 54
0100
0000
0001
0000
1000
0000
0010
0100
0010
0000
0100
0000
0010
0000
0100
0000
,  // measure 55
0001
0001
1000
1000
0010
0010
0100
0100
,  // measure 56
0001
0001
1000
1000
0100
0100
0010
0010
,  // measure 57
0001
0000
0001
0000
1000
0000
1000
0010
0100
0010
0000
1000
0000
0000
1001
0000
,  // measure 58
0010
0000
0100
0000
0001
0100
0010
0100
0010
0000
0100
0000
0001
1000
0001
0100
,  // measure 59
0010
0000
0010
1000
0010
0100
0010
1000
0001
0100
0001
0100
0001
0000
1000
0000
,  // measure 60
0010
0000
0100
0000
0010
1000
0010
0100
0010
0000
1000
0000
0001
0100
0001
0010
,  // measure 61
0001
0000
1000
0010
1000
0000
0001
0100
0001
0100
0010
0100
0010
1000
0010
1000
,  // measure 62
0010
0000
0100
0000
0001
1000
0001
1000
0010
0000
0100
0000
0010
1000
0010
1000
,  // measure 63
0010
0000
0100
0000
0001
1000
0001
1000
0001
0000
1000
0000
0010
0100
0001
0100
,  // measure 64
0010
0000
1000
0000
0001
0100
1000
0100
0001
0000
1001
0000
1010
0000
0110
0000
,  // measure 65
1001
0000
0000
0000
;
