#TITLE:still feel;
#SUBTITLE:;
#ARTIST:Half Alive;
#TITLETRANSLIT:;
#SUBTITLETRANSLIT:;
#ARTISTTRANSLIT:;
#GENRE:;
#CREDIT:;
#BANNER:stillfeel-bn.png;
#BACKGROUND:stillfeel-bg.png;
#LYRICSPATH:;
#CDTITLE:;
#MUSIC:stillfeel.ogg;
#OFFSET:1.000000;
#SAMPLESTART:100.960007;
#SAMPLELENGTH:12.000000;
#SELECTABLE:YES;
#DISPLAYBPM:120.000000:0.000000;
#BPMS:0.000000=120.000000
,102.000000=240.000000
,104.000000=120.000000
,143.750000=240.000000
,147.500000=120.000000
;
#STOPS:102.000000=0.500000,
143.750000=0.120000,
144.250000=0.120000,
144.750000=0.120000,
145.250000=0.120000,
145.750000=0.120000,
146.250000=0.120000,
146.750000=0.120000,
147.250000=0.100000
;
#BGCHANGES:;
#KEYSOUNDS:;
#ATTACKS:;

//---------------dance-single - ----------------
#NOTES:
     dance-single:
     :
     Beginner:
     3:
     0.123232,0.156879,0.067657,0.126856,0.004229,102.000000,94.000000,8.000000,15.000000,0.000000,0.000000,0.123232,0.156879,0.067657,0.126856,0.004229,102.000000,94.000000,8.000000,15.000000,0.000000,0.000000:
0000
0000
0000
0000
,
1000
0000
0001
0000
,
1000
0000
0001
0000
,
1000
0000
0001
0000
,
1000
0000
0000
0001
,
0001
0000
0001
0000
,
0000
0000
0000
0000
,
0001
0000
1000
0000
,
0000
0000
0000
0000
,
0010
0000
0100
0000
,
0000
0000
0000
0000
,
0001
0000
0100
0000
,
0010
0000
1000
0000
,
2002
0000
3003
0000
,
1000
0000
0100
0000
,
0020
0000
0030
0000
,
0001
0000
0100
0000
,
0020
0000
0030
0000
,
1000
0000
0100
0000
,
0220
0000
0000
0000
,
0000
0000
0000
0330
,
0001
0001
0001
0001
,
2000
0000
3000
0000
,
0010
0000
0100
0000
,
0010
0000
1000
0000
,
2000
0000
0000
0000
3000
0000
0000
1000
,
0000
0000
0001
0000
,
1000
0000
0010
0000
,
1000
0000
0010
0000
,
1001
0000
0100
0000
,
0100
0000
0100
0000
,
1001
0000
0100
0000
,
0010
0000
0100
0000
,
1001
0000
0010
0000
,
0010
0000
0010
0000
,
1001
0000
0000
0000
0000
0000
0000
0000
0100
0000
0000
0000
0000
0000
0000
0220
,
0000
0000
0000
0000
0000
0000
0000
0000
0000
0000
0000
0000
0000
0330
0000
0000
,
0000
0000
0000
0001
,
2000
0000
3000
1000
,
0200
0000
0300
0100
,
1000
0000
0001
0000
,
1000
1000
1000
1000
,
0002
0000
0003
0000
,
0010
0000
0100
0000
,
0010
0000
0001
0000
,
1000
1000
1000
1000
,
0002
0000
0003
0000
,
1000
0000
0010
0000
,
0100
0000
0001
0000
,
0001
0001
0001
0001
,
2000
0000
3000
0000
,
0010
0000
1000
0000
,
0001
0000
0100
0000
,
1001
0000
0000
0000
;

//---------------dance-single - Lifts & Spins----------------
#NOTES:
     dance-single:
     :
     Edit:
     14:
     0.633073,0.761984,0.575082,0.414397,0.672339,524.000000,456.000000,68.000000,49.000000,0.000000,0.000000,0.633073,0.761984,0.575082,0.414397,0.672339,524.000000,456.000000,68.000000,49.000000,0.000000,0.000000:
// measure 0
0000
0000
0000
0000
0000
0000
0000
0000
0000
0000
0000
0000
0001
1000
0001
1000
,  // measure 1
0100
0000
L001
2000
0100
3L00
L001
2000
,  // measure 2
0100
0000
3L00
0000
L001
0000
1000
0000
0200
0000
0000
1300
0001
0000
0000
0000
,  // measure 3
0101
0000
100L
0002
0100
0L03
100L
0002
,  // measure 4
0100
0L03
100L
0001
0200
0310
0110
0200
,  // measure 5
0001
000L
0010
00L0
0001
000L
0320
0L00
,  // measure 6
1030
0000
0000
0000
0000
0000
0000
0002
,  // measure 7
0010
00L0
1000
L000
0010
00L0
2003
000L
,  // measure 8
3100
0000
0000
0000
0000
1000
L100
0L20
,  // measure 9
0001
000L
0100
0L00
0001
000L
0032
00L0
,  // measure 10
1003
0000
0000
0000
0000
0000
0000
2000
,  // measure 11
3020
L000
0032
00L0
0203
000L
2300
0L00
,  // measure 12
3200
0000
L000
0000
0302
0000
0L00
0000
0013
0000
0000
1000
0001
0000
0000
0000
,  // measure 13
0201
0010
0010
0310
,  // measure 14
2010
00L0
3001
0000
0102
0L00
1003
0000
,  // measure 15
1200
0000
0000
0000
0010
0000
0000
0000
0010
0000
0000
0000
0310
0000
0001
0010
,  // measure 16
0001
0010
0100
0010
0000
0001
0000
2000
0000
0000
0000
3010
1000
0000
L000
0000
,  // measure 17
1020
0100
0100
0130
,  // measure 18
0010
0100
0001
0010
,  // measure 19
2200
0000
0000
3300
LL00
0000
2002
0000
0000
3003
L00L
0000
0022
0000
0000
0033
00LL
0000
0220
0000
0000
0330
0LL0
0000
,  // measure 20
0202
0000
0000
0303
0L0L
0000
0220
0000
0000
0330
0LL0
0000
2002
0000
0000
0000
3003
0000
L00L
0000
0000
0000
0000
0000
,  // measure 21
1000
0001
0010
0001
0100
0001
1000
0010
,  // measure 22
1000
0100
1000
0000
0010
0000
1000
0000
0100
0000
1000
0000
0010
0000
0100
0000
,  // measure 23
0001
1000
0001
0000
0010
0000
0100
0000
1000
0000
0001
0000
0100
1000
0100
0001
,  // measure 24
0010
0000
0001
0000
1000
0000
0100
0000
0010
0000
0100
0000
0001
0100
0010
0100
,  // measure 25
1000
0000
0000
0001
0000
0000
1000
0000
0000
0010
0000
0000
1000
0000
0010
0000
1000
0000
0010
0000
1000
0000
0010
0000
1000
0000
0000
0000
0000
0000
0110
0000
0000
0000
0000
0000
0000
0000
0000
0000
0000
0000
0100
0000
0000
0000
0000
0000
,  // measure 26
0001
0100
0001
0100
0001
1000
0100
1000
0010
0100
0001
1000
0100
0010
0001
0010
,  // measure 27
0100
1000
0010
1000
0001
0100
0010
1000
0100
1000
0010
0100
0001
1000
0001
0010
,  // measure 28
0100
0000
0000
1000
0000
0000
0000
0000
0000
0001
0000
0000
1000
0000
0001
0000
1000
0000
0001
0000
1000
0000
0001
0000
0020
0000
0000
0000
0000
0000
0000
0000
0000
0000
0000
0000
0030
0000
0000
0000
0000
0000
0000
0000
0000
0000
0000
0000
,  // measure 29
0002
0000
0010
0000
2003
0000
3100
0000
1000
0100
0000
0010
0000
0000
0000
0001
,  // measure 30
0100
0010
0000
0100
0000
0000
0000
1000
0100
0010
0000
00L1
0000
100L
0000
0000
,  // measure 31
0020
0000
1030
0000
0000
0000
0001
0100
0L10
10L0
0000
L001
0000
100L
0000
L100
,  // measure 32
0000
0L10
0000
00L1
0000
100L
0000
L100
0000
0L10
0000
00L1
0000
100L
0000
0000
,  // measure 33
0002
0000
0010
0000
2003
0000
3001
0000
1000
0010
0000
1000
0000
0000
0000
0100
,  // measure 34
0010
0001
0000
0010
0000
0000
0000
0001
0100
1000
0000
0100
0000
0001
0000
0000
,  // measure 35
1001
0000
0110
0000
0100
0000
0001
0100
0010
1000
0000
1000
0000
0100
0010
0001
,  // measure 36
0000
0011
0000
0110
0000
1100
0000
1010
0000
1001
0000
0011
0000
1000
0000
0000
,  // measure 37
0100
0000
0000
0000
0000
0000
0000
0000
0000
0000
1L00
0000
0010
0000
0000
1001
,  // measure 38
0000
0001
0100
0001
0010
0000
0100
1000
0001
1000
0001
1000
0010
0000
0100
0001
,  // measure 39
1000
0001
0010
0001
1000
0000
0100
1000
0001
1000
0010
1000
0001
0000
0010
0100
,  // measure 40
1000
0100
0010
0001
1000
0000
0001
0100
0010
0000
1010
0000
1010
0000
0000
0000
,  // measure 41
0001
0010
0100
1000
0001
0000
1000
0010
0100
0010
1000
0001
0010
0000
0100
1000
,  // measure 42
0100
0010
0100
1000
0001
0000
0010
0001
0010
0100
0010
0100
1000
0000
0010
1000
,  // measure 43
0010
0100
0010
0100
0001
0000
1000
0100
1000
0001
0010
0001
1000
0000
0010
1000
,  // measure 44
0001
0100
0010
1000
0001
0000
1000
0100
0010
0000
0011
0000
0011
0000
0000
0000
,  // measure 45
0002
1003
0100
0000
1000
0000
0001
0000
1000
0010
0100
0000
0001
0000
1000
0010
,  // measure 46
0000
1000
0001
0000
0010
0000
0100
0010
0001
0000
1000
0000
0100
0000
1000
0000
,  // measure 47
1001
0000
1000
0000
0010
0000
0100
0000
0001
1000
0010
0000
1000
0000
0001
0010
,  // measure 48
0000
0100
1000
0000
0001
0000
1000
0010
0000
0100
0001
1000
0100
1000
0010
0100
,  // measure 49
0001
0000
1000
0000
1010
0000
1000
0000
0002
0010
0000
00L3
0000
0000
1000
0000
,  // measure 50
2000
0010
0000
30L0
0000
0000
0001
0010
0100
0000
0001
0000
0100
0000
1000
0010
,  // measure 51
0100
0010
0000
0000
1000
0000
0010
0000
0100
0001
0000
0010
0000
0000
0100
0L10
,  // measure 52
0000
00L1
0000
010L
0000
1L00
0000
L010
0000
00L1
0000
010L
0000
0L20
0000
0000
,  // measure 53
1030
0000
0000
0000
;

//---------------dance-single - ----------------
#NOTES:
     dance-single:
     :
     Easy:
     6:
     0.252504,0.336169,0.160685,0.109942,0.016914,209.000000,190.000000,19.000000,13.000000,0.000000,0.000000,0.252504,0.336169,0.160685,0.109942,0.016914,209.000000,190.000000,19.000000,13.000000,0.000000,0.000000:
0000
0000
0000
0000
,
2000
0100
0000
0100
,
0000
0100
0000
3010
,
0002
0100
0000
0100
,
0000
0100
0000
0103
,
0001
1000
0010
1000
,
0001
0000
0000
0000
,
1000
0001
0010
0001
,
1000
0000
0000
0000
,
0001
0100
0010
1000
,
0001
0000
0000
0000
,
1000
0100
0010
0001
,
0010
0100
1000
0000
,
2002
0000
3003
0000
,
0200
0000
0320
0000
,
2030
0000
0000
0000
,
3200
0000
0320
0000
,
0032
0000
0000
0000
,
2003
0000
3010
0000
,
1010
1010
0011
0011
,
1001
1001
0110
0000
,
1000
0001
1000
0000
0001
0000
0010
0000
,
0100
0010
0100
0000
1000
0000
0001
0000
,
1000
0010
1000
0000
0001
0000
0100
0000
,
0001
1000
0001
0000
0100
0000
0010
0000
,
1000
0001
2000
0000
3000
0000
0000
0010
,
0000
0000
0000
1000
0001
0000
0100
0010
,
1000
0000
0001
0000
1000
0000
0010
0100
,
0001
0010
0002
0003
,
1000
0100
1000
0000
,
0001
0100
0010
0000
,
1000
1100
0001
0101
,
1000
1100
0001
0101
,
1000
0010
0100
0000
,
0001
1000
0100
0000
,
1000
0000
0000
0000
1010
0000
0000
0000
0001
0000
0000
0000
1000
0000
0000
0010
,
0000
0000
0000
1000
0000
0000
0000
0010
0000
0000
0000
1000
0000
0000
0000
0000
,
0100
0000
0000
1000
,
1001
0001
0001
1000
,
0010
1000
0010
0000
0100
0000
0001
0000
,
0100
0010
0100
0000
0001
1000
0001
0000
,
1000
0010
1000
0000
0001
0000
0100
0000
,
0001
0010
0001
0000
1000
0000
0100
0000
,
0010
0001
0010
0000
0100
0000
1000
0000
,
0010
1000
0010
0000
1000
0001
1000
0000
,
1010
0001
1000
0001
,
0010
0100
1000
0000
0001
0000
0010
0000
,
0011
0000
1000
0000
0010
0100
0001
0000
,
1000
0001
1000
0000
0010
0100
0010
0000
,
0110
1001
1000
0100
,
1000
0010
1000
0000
0100
0000
1000
0000
,
0001
0010
0001
0100
,
0010
1000
0001
0000
0100
0001
1000
0000
,
1001
0000
0000
0000
;

//---------------dance-single - ----------------
#NOTES:
     dance-single:
     :
     Medium:
     9:
     0.430103,0.448226,0.169142,0.143771,0.418626,356.000000,336.000000,20.000000,17.000000,0.000000,0.000000,0.430103,0.448226,0.169142,0.143771,0.418626,356.000000,336.000000,20.000000,17.000000,0.000000,0.000000:
0000
0000
0000
0000
0000
0000
0000
0000
0000
0000
0000
0000
0001
1000
0001
1000
,
0001
0000
1000
0100
0010
0100
1000
0100
,
0010
0000
0100
0000
1000
0000
0100
0000
0010
0000
0000
0100
1000
0000
0000
0000
,
0101
0000
0010
0100
0001
0100
0010
0100
,
0001
0100
0010
0100
0001
1000
1000
0000
,
0001
0010
1000
0100
,
0001
0000
0000
0000
,
1000
0010
0001
0100
,
1000
0000
0000
2000
,
0100
0001
3010
0100
,
0001
0000
0000
0000
0000
0000
0000
1000
,
0001
0010
1000
0010
,
0100
0000
0000
0000
1000
0000
0000
0000
0010
0000
0000
0001
0010
0000
0000
0000
,
2000
0000
0000
3010
0000
1000
0000
0001
0000
0000
0010
0000
0000
0000
0000
0000
,
0011
0000
0000
0001
0000
0010
0000
0100
0000
1000
0000
0000
0010
0000
0100
0000
,
0002
0000
0000
1003
0000
0010
0000
1000
0000
0000
0001
0000
0000
0000
0010
0000
,
0100
0000
0000
0010
0000
0001
0000
0100
0000
0000
0000
0000
0001
0000
1000
0000
,
2001
0000
0000
3010
0000
0001
0000
0010
0000
0000
1000
0000
0000
0000
0000
0000
,
0010
0000
0000
0100
0000
0000
0000
0000
0000
0001
0000
0000
0000
0000
0000
0100
0000
0000
0001
0000
0000
0000
0000
0000
0000
0000
0000
0000
0000
0000
1000
0000
0000
0000
0000
0000
0100
0000
0000
0000
0000
0000
0010
0000
0000
0000
0002
0000
,
0000
0000
0000
0003
1000
0000
0002
0000
0000
0003
0100
0000
0002
0000
0000
0003
1000
0000
0002
0000
0000
0003
1000
0000
,
0020
0000
0000
0030
0100
0000
0002
0000
0000
0003
0010
0000
0002
0000
0000
0003
0000
0000
1000
0000
0000
0000
0000
0000
,
0001
1000
0010
1000
0001
0100
0001
0010
,
0001
1000
0001
0000
0010
0000
0100
0000
1000
0000
0100
0000
0010
0000
0001
0000
,
1000
0001
1000
0000
0010
0000
1000
0000
0010
0000
0100
0000
0001
0000
0100
0000
,
0010
1000
0010
0000
0100
0000
0001
0000
1000
0001
1000
0000
0100
0000
0010
0000
,
0002
0000
0000
0000
1003
0110
0000
1001
,
0000
0000
0000
0001
0000
0000
1000
0000
0001
0000
0000
0000
1000
0000
0100
0000
,
0001
0100
0010
0100
1000
0100
0010
0001
,
1000
0010
0001
0010
0200
0000
0300
0000
,
0001
0000
0000
0000
0021
0000
0000
0000
0130
0010
0000
0001
0000
0000
0000
0000
,
0100
0001
0000
0010
0000
0000
0000
0000
0100
0010
0000
0001
0000
1000
0000
0000
,
1020
0000
0000
0000
1030
0000
0000
0000
0010
1000
0000
0001
0000
0100
0000
0010
,
0000
1000
0000
0001
0000
0100
0000
0010
0000
1000
0000
0010
0000
0020
0000
0000
,
0031
0000
0000
0000
1001
0000
0000
0000
0010
1000
0000
0010
0000
0000
0000
0000
,
1000
0100
0000
0010
0000
0000
0000
0000
0100
1000
0000
0010
0000
1000
0000
0000
,
0101
0000
1000
0000
0000
0000
0100
0000
1000
0010
0000
1000
0000
0100
0010
0001
,
0000
0001
0000
1000
0000
1000
0000
0010
0000
0010
0000
0110
0000
0110
0000
0000
,
0100
0000
0000
0000
0000
0000
0000
0000
0000
0000
0020
0000
0130
0000
0000
1001
,
0000
0000
0001
0000
0010
0000
0001
0000
1000
0100
1000
0000
0001
0000
1000
0000
,
0100
0000
0010
0000
0001
0000
1000
0000
0100
1000
0001
0000
0010
0000
0100
0000
,
1000
0000
0010
0000
0001
0000
0010
1000
0010
0000
0100
0000
0100
0000
0000
0000
,
1010
1000
0001
1000
0100
1000
0010
1000
,
0001
0100
0001
0000
0010
0000
0001
0000
1000
0000
0001
0000
0010
0000
0100
0000
,
1000
0001
1000
0000
0010
0000
1000
0000
0001
0000
1000
0000
0010
0000
0100
0000
,
0001
0100
0001
0000
1000
0000
0100
1000
0010
0000
0100
0000
0100
0000
0000
0000
,
1010
0000
0000
0000
0011
0000
0000
0000
1010
0000
0000
0000
0011
0000
0000
1000
,
0000
0100
0001
0100
1000
0100
0010
0001
,
1001
0000
0000
0000
1000
0000
0000
0000
0010
0000
0000
0000
1000
0000
0000
0001
,
0000
0000
0100
0000
0001
0000
0000
0010
0000
0001
1000
0001
1000
0000
0001
1000
,
0001
0000
0000
0000
0010
0000
0000
0000
0100
0010
0000
0001
0000
0000
0000
0000
,
0100
0010
0000
1000
0000
0000
0000
0000
0010
0000
0000
0000
0100
0000
0001
0000
,
0101
0000
0000
0000
0010
0000
0000
0000
1000
0010
0000
0100
0000
0000
0000
0001
,
0000
0001
0000
0010
0000
0010
0000
0100
0000
0100
0000
1000
0000
1000
0000
0000
,
1100
0000
0000
0000
;
