#TITLE:YYZ;
#SUBTITLE:;
#ARTIST:Rush;
#TITLETRANSLIT:;
#SUBTITLETRANSLIT:;
#ARTISTTRANSLIT:;
#GENRE:;
#CREDIT:;
#BANNER:;
#BACKGROUND:;
#LYRICSPATH:;
#CDTITLE:;
#MUSIC:yyz.ogg;
#OFFSET:0.100000;
#SAMPLESTART:31.965000;
#SAMPLELENGTH:12.000000;
#SELECTABLE:YES;
#BPMS:0.000000=206.000000
,96.000000=180.000000
,96.500000=160.000000
,97.000000=150.000000
,97.500000=120.000000
,100.000000=282.000000
,160.000000=280.000000
,164.000000=282.000000
,288.000000=284.000000
,313.000000=282.000000
,368.000000=180.000000
,377.500000=160.000000
,380.000000=206.000000
;
#STOPS:79.500000=1.600000,
91.500000=0.700000,
188.000000=1.550000,
213.000000=1.450000,
238.000000=1.500000,
263.000000=1.550000,
288.000000=3.200000,
313.000000=3.200000
;
#BGCHANGES:;
#KEYSOUNDS:;
#ATTACKS:;

//---------------dance-single - ----------------
#NOTES:
     dance-single:
     :
     Hard:
     17:
     0.563497,0.993639,0.444081,0.330884,0.139319,453.000000,402.000000,51.000000,38.000000,0.000000,0.000000,0.563497,0.993639,0.444081,0.330884,0.139319,453.000000,402.000000,51.000000,38.000000,0.000000,0.000000:
0000
0000
0000
0000
,
0000
0000
0000
0000
,
0000
0000
0000
0000
,
0000
0000
0000
0000
,
0000
0000
0000
0000
,
0001
0000
0100
0010
0000
0010
0000
0010
,
0000
1000
0100
0000
0100
0000
0100
0000
,
0100
0000
1000
0001
0100
0000
0001
0010
,
0000
0010
0000
0010
0000
0100
1000
0000
,
1000
0000
1000
0000
1000
0000
0001
0100
,
0010
0000
0100
0001
0000
0001
0000
0001
,
0000
1000
0001
0000
0001
0000
0001
0000
,
0001
0000
1000
0100
0010
0000
0001
0100
,
0000
0100
0000
0100
0000
0001
1000
0000
,
1000
0000
0000
0000
1000
0000
0000
0000
1000
0000
0000
0000
0001
0010
0001
0000
,
1000
0000
0010
1000
0000
0010
0000
1000
,
0000
0010
0100
0000
0001
0000
0100
0000
,
0001
0000
1000
1000
0010
0000
0000
0000
,
0010
0000
0000
0000
0000
0000
0000
0000
0000
0000
0000
0000
0000
0000
0000
0000
0000
0100
0000
0000
0000
0000
0000
0000
0000
0000
0000
0000
0000
0000
0000
0000
0000
0000
0010
0000
0000
0000
0000
0000
0000
0000
0000
0000
0000
0000
0000
0000
0000
0000
0000
0000
0000
0000
0000
0000
0000
0000
0000
0000
0000
0000
0000
0000
,
0010
0000
0000
0000
0000
0000
0000
0000
0000
0000
0000
0000
0000
0100
0000
0000
0000
0000
0000
0000
0000
0000
0000
0000
0000
0000
0000
0010
0000
0000
0000
0000
0000
0000
0000
0000
0000
0000
0000
0000
0000
0000
0100
0000
0000
0000
0000
0000
,
0000
0000
0000
0100
0000
0000
0000
0000
0010
0000
0000
0000
0000
1000
0000
0000
0000
0000
0100
0000
0000
0000
0000
0010
0000
0000
0000
0000
0001
0000
0000
0000
0000
0100
0000
0000
0000
0000
0001
0000
0000
0000
0000
1000
0000
0000
0000
0000
,
0010
0000
0000
0000
0000
0000
0000
0000
0000
0000
0000
0000
0000
0000
0000
0000
0000
0000
0000
0000
1000
0000
0000
0000
0000
0000
0000
0000
0000
0000
0000
0000
0000
0000
0000
0000
0000
0000
0000
0000
0000
0000
0001
0000
0000
0000
0000
0000
0000
0000
0000
0000
0000
0000
0000
0000
0000
0000
0000
0000
0010
0000
0000
0000
0000
0000
0000
0000
0000
0000
0000
0000
0000
0000
0000
0000
0000
0000
0000
0000
0000
0000
0000
0000
0000
0000
0000
0000
0200
0000
0000
0000
0000
0000
0000
0000
0000
0000
0000
0000
0000
0000
0000
0000
0000
0000
0000
0000
0000
0000
0000
0000
0000
0000
0000
0000
0000
0000
0000
0000
0000
0000
0000
0000
0000
0000
0000
0000
0000
0000
0000
0000
0000
0000
0000
0000
0000
0000
0000
0000
0000
0000
0000
0000
0000
0000
0000
0000
0000
0000
0000
0000
0000
0000
0000
0000
0000
0000
0000
0000
0000
0000
0000
0000
0000
0000
0000
0000
0000
0000
0000
0000
0000
0000
0000
0000
0000
0000
0000
0000
0000
0000
0000
0000
0000
0000
0000
0000
0000
0000
0000
0000
,
0000
0000
0300
0000
1000
0100
0010
0001
,
0010
1000
0010
1000
0010
0001
0100
0020
,
0000
0000
0000
0000
,
1030
0010
1000
0001
1000
0100
1000
0000
,
0002
0000
0000
0003
,
1000
0010
1000
0001
1000
0100
1000
0000
,
0020
0000
0000
0230
0000
0000
0301
0000
,
0010
0100
0010
0001
0010
0001
1000
0000
,
0200
0000
0000
0300
,
0010
0001
0010
0100
0010
0001
1000
0000
,
0020
0000
0000
0230
0000
0000
0301
0000
,
1000
0010
0100
0001
0100
0010
1000
0000
,
0200
0000
0000
0300
,
0010
0001
0010
0100
1000
0100
0010
0000
,
0200
0000
0000
2300
0000
0000
3001
0000
,
0010
0001
1000
0100
1000
0001
0010
0000
,
0200
0000
0000
0300
,
1000
0010
0100
0001
0010
0100
1000
0000
,
0002
0000
0000
2003
0000
0000
3100
0000
,
1100
0000
0000
2000
3001
0000
0101
0000
,
0000
0000
0101
0000
0000
0002
1003
0000
,
1100
0000
0000
2000
3001
0000
0101
0000
,
0000
0000
0101
0000
0000
0002
1003
0000
,
1010
0000
0000
2000
3001
0000
0011
0000
,
0000
0000
0011
0000
0000
0002
1003
0000
,
1010
0000
1100
0000
0000
2000
3001
0000
,
0101
0000
0000
0000
0101
0000
0000
0002
,
1003
0000
1100
0000
0000
2000
3001
0000
,
0101
0000
0000
0000
0101
0000
0000
0002
,
1003
0000
1010
0000
0000
2000
3001
0000
,
0011
0000
0000
0000
0011
0000
0000
0002
,
1003
1010
1100
1100
,
0000
0000
0000
0000
1000
0000
0100
1000
,
0001
0000
0101
0101
,
0000
0000
0000
0000
0001
0000
0100
0001
,
1000
0000
1010
1010
,
0000
0000
0000
0000
0100
0000
1000
0001
,
0010
0000
0000
0000
0011
0000
0100
1000
,
0100
1000
1100
0000
0100
1000
0001
0100
,
0001
0100
0101
0000
0100
0001
1000
0100
,
1000
0100
1100
0000
0100
1000
0001
0100
,
0001
0100
0101
0000
0100
0001
1000
0010
,
1000
0010
1010
0000
0010
1000
0001
0010
,
0001
0010
0011
0000
0010
0001
0011
0000
,
0020
0000
0000
0130
1100
0000
0000
0000
,
0010
0000
0101
0000
,
0020
0000
0000
0130
1100
0000
0000
0000
,
0010
0000
0101
0000
,
0200
0000
0000
0310
1010
0000
0000
0000
,
0100
0000
0011
0000
,
1010
0000
1100
0000
0000
1100
0000
0000
,
2200
0000
0000
0000
0000
3300
0000
0000
,
0000
0000
0101
0000
0000
0101
0000
0000
,
0202
0000
0000
0000
0000
0303
0000
0000
,
0000
0000
1010
0000
0000
1010
0000
0000
,
2020
0000
0000
0000
0000
3030
0000
0000
,
0000
0000
0011
0000
0100
0000
1000
0010
,
0000
0010
1000
0000
0001
0000
0010
0001
,
0000
1000
0001
0000
0100
0000
0010
0000
,
0010
0000
0010
0000
1000
1000
0001
0100
,
0001
0010
0100
0000
1000
0000
0010
1000
,
0000
0010
1000
0000
0001
0000
0010
0001
,
0000
0010
0100
0000
1000
0000
0010
0000
,
0010
0000
0010
0000
0100
0001
1000
0001
,
0100
0010
1000
0000
0001
0000
0010
0100
,
1000
0000
0001
0000
1000
0000
0100
0010
,
0002
0000
0003
0100
,
0001
0000
0010
0000
0001
0100
0010
1000
,
0100
1000
0010
0000
1000
0000
0001
0010
,
0100
0000
1000
0000
0010
0000
1000
0100
,
0020
0000
0000
0000
,
0031
0010
0100
1000
0001
0010
0001
0100
0010
1000
0010
0100
0001
0010
0100
1000
,
0100
1000
0100
1000
0001
0100
0000
0000
0000
0000
0000
0000
0000
0000
0000
0000
,
0001
0000
0001
0000
1000
0001
0000
0001
,
0000
0001
0000
0200
0000
0000
0000
0000
,
0000
0000
0000
0000
,
0000
0000
0000
0000
0000
0000
0000
0000
0000
0000
0000
0000
0000
0000
0000
0000
0000
0000
0000
0000
0000
0000
0000
0000
0000
0000
0000
0000
0000
0000
0300
0000
0000
0000
0000
0000
0000
0000
0000
0000
0000
0001
0000
0000
0000
0000
0000
0010
,
0000
0000
0000
0000
0000
0100
0000
0000
0000
0000
0000
1000
0000
0000
0000
0000
0000
0000
0000
0000
0000
0000
0000
0000
0000
0000
0000
0000
0000
0000
0000
0000
0000
0000
0000
0000
0000
0000
0000
0000
0000
0000
0000
0000
0000
0000
0000
0000
;

//---------------dance-single - ----------------
#NOTES:
     dance-single:
     :
     Medium:
     11:
     0.376909,0.475219,0.191564,0.304761,0.056599,303.000000,281.000000,22.000000,35.000000,0.000000,0.000000,0.376909,0.475219,0.191564,0.304761,0.056599,303.000000,281.000000,22.000000,35.000000,0.000000,0.000000:
0000
0000
0000
0000
,
0000
0000
0000
0000
,
0000
0000
0000
0000
,
0000
0000
0000
0000
,
0000
0000
0000
0000
,
0001
0000
1000
0001
0000
0001
0000
0001
,
0000
1000
0001
0000
0001
0000
0001
0000
,
0001
0000
1000
1000
0010
0000
1000
0010
,
0000
0010
0000
0010
0000
1000
0010
0000
,
0010
0000
0010
0000
0010
0000
0100
0100
,
0010
0000
0100
0010
0000
0010
0000
0010
,
0000
0100
0010
0000
0010
0000
0010
0000
,
0010
0000
1000
1000
0100
0000
1000
0100
,
0000
0100
0000
0100
0000
1000
0100
0000
,
0100
0000
0100
0000
0100
0000
0010
0010
,
0001
0000
0010
0001
0000
0001
0000
0001
,
0000
1000
0001
0000
0001
0000
0001
0000
,
0001
0000
0100
0100
0001
0000
0000
0000
,
1000
0000
0000
0000
0000
0000
0000
0000
0000
0000
0000
0000
0000
0000
0000
0000
0000
0001
0000
0000
0000
0000
0000
0000
0000
0000
0000
0000
0000
0000
0000
0000
0000
0000
1000
0000
0000
0000
0000
0000
0000
0000
0000
0000
0000
0000
0000
0000
0000
0000
0000
0000
0000
0000
0000
0000
0000
0000
0000
0000
0000
0000
0000
0000
,
0001
0000
0000
0000
0000
0000
0000
0000
0000
0000
0000
0000
0000
1000
0000
0000
0000
0000
0000
0000
0000
0000
0000
0000
0000
0000
0000
0001
0000
0000
0000
0000
0000
0000
0000
0000
0000
0000
0000
0000
0000
0000
1000
0000
0000
0000
0000
0000
,
0000
0000
0000
0001
0000
0000
0000
0000
0000
0000
0000
0000
0000
0010
0000
0000
0000
0000
0000
0000
0000
0000
0000
0100
0000
0000
0000
0000
0000
0000
0000
0000
0000
1000
0000
0000
0000
0000
0000
0000
0000
0000
0000
0100
0000
0000
0000
0000
,
0000
0000
0000
0000
0000
0010
0000
0000
0000
0000
0000
0000
0000
0000
0000
0000
0000
0000
0000
0000
0000
0000
0002
0000
0000
0000
0000
0000
0000
0000
0000
0000
0000
0000
0000
0000
0000
0000
0000
0000
0000
0000
0000
0000
0000
0000
0000
0000
,
0000
0000
0003
0000
2000
0000
0000
3001
,
0200
0000
0000
0000
0000
0000
0300
0020
,
0000
0000
0000
0000
,
1030
0000
0010
1000
0000
0010
1000
0000
,
0200
0000
0000
0300
,
1000
0000
0001
0010
0000
0001
0010
0000
,
0200
0000
0000
0320
0000
0000
0031
0000
,
1000
0000
0010
1000
0000
0010
1000
0000
,
0200
0000
0000
0300
,
0010
0000
0001
0010
0000
0001
0010
0000
,
0200
0000
0000
2300
0000
0000
3010
0000
,
0100
0000
0001
0100
0000
0001
0100
0000
,
0020
0000
0000
0030
,
1000
0000
0100
1000
0000
0100
1000
0000
,
0200
0000
0000
0320
0000
0000
0031
0000
,
0001
0000
0100
0001
0000
0100
0001
0000
,
0020
0000
0000
0030
,
0100
0000
1000
0100
0000
1000
0001
0000
,
0200
0000
0000
0302
0000
0000
1003
0000
,
1100
0000
0000
1000
0000
0000
0001
0000
,
0000
1000
0000
0001
,
0101
0000
0000
0001
0000
0000
1000
0000
,
0000
0001
0000
1000
,
1010
0000
0000
1000
0000
0000
0001
0000
,
0000
1000
0000
0001
,
0011
0000
1100
0000
0000
1000
0000
0000
,
0001
0000
1000
0000
,
0001
0000
0101
0000
0000
0001
0000
0000
,
1000
0000
0001
0000
,
1000
0000
1010
0000
0000
1000
0000
0000
,
0001
0000
1000
0000
,
0001
0011
1100
1000
,
0000
0000
0100
0010
,
0001
0000
0101
0001
,
0000
0000
0100
0010
,
1000
0000
1010
0010
,
0000
0000
1000
0001
,
0010
0000
0011
0100
,
1000
1100
0000
0001
,
0100
0101
0000
1000
,
0100
1100
0000
0001
,
0100
0101
0000
1000
,
0010
1010
0000
0001
,
0010
0011
0000
1010
,
0200
0000
1300
0000
,
0100
0000
0001
0000
,
0200
0000
1300
0000
,
0100
0000
0001
0000
,
0020
0000
1030
0000
,
0010
0000
0001
0000
,
0010
0000
1100
0000
0000
1000
0000
0000
,
0200
0000
0000
0000
0000
0300
0000
0000
,
0000
0000
0101
0000
0000
0001
0000
0000
,
0200
0000
0000
0000
0000
0300
0000
0000
,
0000
0000
1010
0000
0000
0010
0000
0000
,
2000
0000
0000
0000
0000
3000
0000
0000
,
0000
0000
0001
0000
0200
0000
0000
2300
,
0000
3010
0100
0000
,
0100
0000
0000
0010
,
0010
0010
1000
0000
,
0001
0000
0000
0000
2000
0000
0000
3020
,
0000
0130
0001
0000
,
0001
0000
0000
0010
,
0010
0010
0200
1300
,
0001
0000
0000
0000
0002
0000
0000
0203
,
0000
0000
1300
0000
1000
0100
0001
0100
,
2000
0000
3000
1000
,
0001
0000
0010
0000
0001
0010
1000
0010
,
0001
0010
0001
0000
2000
0000
0000
3002
,
0000
0000
1003
0000
0001
0100
1000
0100
,
0002
0000
0000
0000
,
0000
0000
0000
0000
,
0000
0000
0000
0003
0000
0000
0000
0000
,
0010
0000
0010
0000
0100
0010
0000
0010
,
0000
0010
0000
0200
0000
0000
0000
0000
,
0000
0000
0000
0000
,
0000
0000
0000
0000
0000
0000
0000
0000
0000
0000
0000
0000
0000
0000
0000
0000
0000
0000
0000
0000
0000
0000
0000
0000
0000
0000
0000
0000
0000
0000
0300
0000
0000
0000
0000
0000
0000
0000
0000
0000
0000
0002
0000
0000
0000
0000
0000
0000
,
0000
0000
0000
0000
0000
0000
0000
0000
0000
0000
0000
1003
0000
0000
0000
0000
0000
0000
0000
0000
0000
0000
0000
0000
0000
0000
0000
0000
0000
0000
0000
0000
0000
0000
0000
0000
0000
0000
0000
0000
0000
0000
0000
0000
0000
0000
0000
0000
;

//---------------dance-single - ----------------
#NOTES:
     dance-single:
     :
     Easy:
     5:
     0.271175,0.344308,0.104490,0.165442,0.039184,218.000000,206.000000,12.000000,19.000000,0.000000,0.000000,0.271175,0.344308,0.104490,0.165442,0.039184,218.000000,206.000000,12.000000,19.000000,0.000000,0.000000:
0000
0000
0000
0000
,
0000
0000
0000
0000
,
0000
0000
0000
0000
,
0000
0000
0000
0000
,
0000
0000
0000
0000
,
1000
0000
0000
0010
0000
1000
0000
0010
,
0000
1000
0010
1000
,
0010
0000
0000
0000
0001
0000
0000
0100
,
0000
0001
0000
0100
0000
0000
0001
0000
,
0100
0001
0100
0000
,
0001
0000
0000
1000
0000
0001
0000
1000
,
0000
0001
1000
0100
,
1000
0000
0000
0000
0001
0000
0000
0010
,
0000
0001
0000
0010
0000
0000
0001
0000
,
0010
0001
0010
0010
,
0001
0000
0000
1000
0000
0001
0000
1000
,
0000
0001
1000
0001
,
1000
0000
1000
0000
,
1000
0000
0000
0000
0000
0000
0000
0000
0000
0000
0000
0000
0000
0000
0000
0000
0000
1000
0000
0000
0000
0000
0000
0000
0000
0000
0000
0000
0000
0000
0000
0000
0000
0000
1000
0000
0000
0000
0000
0000
0000
0000
0000
0000
0000
0000
0000
0000
0000
0000
0000
0000
0000
0000
0000
0000
0000
0000
0000
0000
0000
0000
0000
0000
,
1000
0000
0000
0000
0000
0000
0000
0000
0000
0000
0000
0000
0000
1000
0000
0000
0000
0000
0000
0000
0000
0000
0000
0000
0000
0000
0000
1000
0000
0000
0000
0000
0000
0000
0000
0000
0000
0000
0000
0000
0000
0000
1000
0000
0000
0000
0000
0000
,
0000
0000
0000
0000
0000
0000
0000
0000
0000
0000
0000
0000
0000
0000
0000
0000
0000
0000
0000
0000
0000
0000
0000
0100
0000
0000
0000
0000
0000
0000
0000
0000
0000
0000
0000
0000
0000
0000
0000
0000
0000
0000
0000
0000
0000
0000
0000
0000
,
0000
0000
0000
0000
0000
0010
0000
0000
0000
0000
0000
0000
0000
0000
0000
0000
0000
0000
0000
0000
0000
0000
0002
0000
0000
0000
0000
0000
0000
0000
0000
0000
0000
0000
0000
0000
0000
0000
0000
0000
0000
0000
0000
0000
0000
0000
0000
0000
,
0000
0000
0003
0000
2000
0000
0000
3000
,
0100
0000
0000
0000
0000
0000
0000
0000
0000
0000
0100
0000
0000
0000
0000
0000
0000
0000
0000
0000
0000
2000
0000
0000
,
0000
0000
0000
0000
0000
3000
0000
0000
,
0001
0000
0000
0010
0000
0000
0100
0000
,
2000
0000
0000
3000
,
0001
0000
0000
0010
0000
0000
0100
0000
,
1000
0000
0000
0100
0000
0000
1000
0000
,
0001
0000
0000
0100
0000
0000
0010
0000
,
2000
0000
0000
3000
,
0001
0000
0000
0100
0000
0000
0010
0000
,
1000
0000
0000
0010
0000
0000
0100
0000
,
0010
0000
0000
1000
0000
0000
0001
0000
,
0200
0000
0000
0300
,
0010
0000
0000
1000
0000
0000
0001
0000
,
0100
0000
0000
0001
0000
0000
1000
0000
,
0010
0000
0000
1000
0000
0000
0001
0000
,
0200
0000
0000
0000
0000
0300
0000
0000
,
0010
0000
0000
1000
0000
0000
0001
0000
,
0010
0000
0000
0001
0000
0000
1000
0000
,
0100
0100
0000
0100
,
0000
0100
0000
0100
,
0001
0001
0000
1000
,
0000
0001
0000
1000
,
0010
0010
0000
0010
,
0000
0010
0000
0010
,
0110
0001
1000
0000
,
1000
0000
0001
0000
,
0001
0100
0001
0000
,
0100
0000
0001
0000
,
1000
0010
0010
0000
,
0010
0000
0010
0000
,
0010
0110
1001
0000
,
0000
0000
0100
0000
,
0010
0000
1001
0000
,
0000
0000
0100
0000
,
0010
0000
1001
0000
,
0000
0000
1000
0000
,
0010
0000
0110
1000
,
0000
1100
0000
0001
,
0000
0101
0000
1000
,
0000
1100
0000
0001
,
0000
0101
0000
1000
,
0000
1010
0000
0001
,
0000
0011
0000
0001
,
0200
0000
0301
0000
,
1000
0000
0001
0000
,
0200
0000
0301
0000
,
1000
0000
0001
0000
,
0020
0000
0031
0000
,
1000
0000
0001
0000
,
0010
0000
0200
0000
0000
0300
0000
0000
,
0200
0000
0000
0000
0000
0300
0000
0000
,
0000
0000
0002
0000
0000
0003
0000
0000
,
0002
0000
0000
0000
0000
0003
0000
0000
,
0000
0000
2000
0000
0000
3000
0000
0000
,
2000
0000
0000
0000
0000
3000
0000
0000
,
0000
0010
0100
0000
,
1000
0000
0100
0000
,
0000
0000
0000
1000
,
0010
0000
0100
0000
,
0001
0000
1000
0000
,
0001
0000
0100
0000
,
0000
0000
0000
0010
,
0010
0010
0200
0300
,
0010
0000
0001
0000
,
1000
0000
0001
0100
,
0001
0000
0000
0000
,
0001
0000
1000
0100
,
1000
0000
0010
0000
,
0100
0000
0001
0000
,
0200
0000
0000
0000
,
0000
0000
0000
0000
,
0000
0000
0000
0300
0000
0000
0000
0000
,
1000
0000
0001
0000
0000
1000
0000
0001
,
0000
1000
0000
0002
0000
0000
0000
0000
,
0000
0000
0000
0000
,
0000
0000
0000
0000
0000
0000
0000
0000
0000
0000
0000
0000
0000
0000
0000
0000
0000
0000
0003
0000
0000
0000
0000
0000
0000
0000
0000
0000
0000
0000
0000
0000
0000
0000
0000
0000
0000
0000
0000
0000
0000
0100
0000
0000
0000
0000
0000
0000
;

//---------------dance-single - ----------------
#NOTES:
     dance-single:
     :
     Beginner:
     4:
     0.149271,0.259319,0.008707,0.078367,0.004354,120.000000,119.000000,1.000000,9.000000,0.000000,0.000000,0.149271,0.259319,0.008707,0.078367,0.004354,120.000000,119.000000,1.000000,9.000000,0.000000,0.000000:
// measure 0
0000
0000
0000
0000
,  // measure 1
0000
0000
0000
0000
,  // measure 2
0000
0000
0000
0000
,  // measure 3
0000
0000
0000
0000
,  // measure 4
0000
0000
0000
0000
,  // measure 5
0010
0000
0010
0000
,  // measure 6
0010
0000
0010
0000
,  // measure 7
0010
0000
0100
0000
,  // measure 8
0100
0000
0100
0000
,  // measure 9
0100
0000
0100
0000
,  // measure 10
0001
0000
0001
0000
,  // measure 11
0001
0000
0001
0000
,  // measure 12
0001
0000
1000
0000
,  // measure 13
1000
0000
1000
0000
,  // measure 14
1000
0000
1000
0000
,  // measure 15
1001
0000
1000
0000
,  // measure 16
1000
0000
0001
0000
,  // measure 17
0001
0000
0001
0000
,  // measure 18
0002
0000
0003
0000
,  // measure 19
0002
0000
0000
0000
0000
0000
0000
0003
,  // measure 20
0000
0020
0000
0000
,  // measure 21
0000
0000
0000
0000
,  // measure 22
0000
0030
0010
0000
,  // measure 23
2000
0000
0000
0000
,  // measure 24
0000
0000
0000
0000
0000
3000
0000
0000
,  // measure 25
0010
0000
0000
0000
,  // measure 26
0100
0000
0000
0000
,  // measure 27
0010
0000
0000
0000
,  // measure 28
1000
0000
0001
0000
,  // measure 29
0100
0000
0000
0000
,  // measure 30
0010
0000
0000
0000
,  // measure 31
0100
0000
0000
0000
,  // measure 32
0001
0000
1000
0000
,  // measure 33
0100
0000
0000
0000
,  // measure 34
0010
0000
0000
0000
,  // measure 35
0100
0000
0000
0000
,  // measure 36
0010
0000
0001
0000
,  // measure 37
1000
0000
0000
0000
,  // measure 38
0001
0000
0000
0000
,  // measure 39
1000
0000
0000
0000
,  // measure 40
0010
0000
0010
0000
,  // measure 41
0010
0000
0000
0000
,  // measure 42
1000
0000
0000
0000
,  // measure 43
0010
0000
0000
0000
,  // measure 44
1000
0000
0000
0000
,  // measure 45
0001
0000
0000
0000
,  // measure 46
0100
0000
0000
0000
,  // measure 47
0001
1000
0000
0000
,  // measure 48
0000
0010
0000
0000
,  // measure 49
0000
1000
0000
0000
,  // measure 50
0000
0010
0000
0000
,  // measure 51
0000
0100
0000
0000
,  // measure 52
0000
0001
0000
0000
,  // measure 53
0000
0100
0001
0000
,  // measure 54
0000
0000
0100
0000
,  // measure 55
0000
0000
0001
0000
,  // measure 56
0000
0000
0100
0000
,  // measure 57
0000
0000
0010
0000
,  // measure 58
0000
0000
1000
0000
,  // measure 59
0000
0000
1000
1000
,  // measure 60
0000
1000
0000
0001
,  // measure 61
0000
0001
0000
1000
,  // measure 62
0000
1000
0000
0001
,  // measure 63
0000
0001
0000
0100
,  // measure 64
0000
0100
0000
0010
,  // measure 65
0000
0010
0000
0010
,  // measure 66
0100
0000
0010
0000
,  // measure 67
0100
0000
0010
0000
,  // measure 68
0100
0000
0010
0000
,  // measure 69
0100
0000
0010
0000
,  // measure 70
1000
0000
0010
0000
,  // measure 71
1000
0000
0010
0000
,  // measure 72
1000
0002
0000
0000
,  // measure 73
0000
0000
0003
0000
,  // measure 74
0000
0002
0000
0000
,  // measure 75
0000
0000
0003
0000
,  // measure 76
0000
0020
0000
0000
,  // measure 77
0000
0000
0030
0000
,  // measure 78
0000
0010
0010
0000
,  // measure 79
0000
0000
1000
0000
,  // measure 80
0000
0000
0001
0000
,  // measure 81
0000
0000
1000
0000
,  // measure 82
0000
0000
0010
0000
,  // measure 83
0000
0000
0100
0000
,  // measure 84
0000
0000
0010
0000
,  // measure 85
0000
0000
1000
0000
,  // measure 86
0000
0000
0001
0000
,  // measure 87
0000
0000
0010
0000
,  // measure 88
0000
0000
0000
0000
,  // measure 89
0001
0000
0010
0000
,  // measure 90
0000
0000
0001
0000
,  // measure 91
0000
0000
0010
0000
,  // measure 92
0020
0000
0000
0000
,  // measure 93
0000
0000
0000
0000
,  // measure 94
0000
0030
0000
0000
,  // measure 95
0200
0000
0000
0000
,  // measure 96
0000
0000
0000
0000
,  // measure 97
0000
0000
0000
0000
,  // measure 98
0000
0000
0000
0300
,  // measure 99
0000
0000
0000
0000
0000
0000
0000
0000
0000
0000
0000
0000
0000
0100
0000
0000
0000
0000
0000
0000
0000
0000
0000
0000
0000
0000
0000
0000
0000
0000
0000
0000
0000
0000
0000
0000
0000
0000
0000
0000
0000
0000
0000
0000
0000
0000
0000
0000
;
