#VERSION:0.83;
#TITLE:Tranceformers;
#SUBTITLE:;
#ARTIST:Dizzy;
#TITLETRANSLIT:;
#SUBTITLETRANSLIT:;
#ARTISTTRANSLIT:;
#GENRE:;
#ORIGIN:;
#CREDIT:;
#BANNER:bn.png;
#BACKGROUND:bg.png;
#PREVIEWVID:;
#JACKET:bn.png;
#CDIMAGE:;
#DISCIMAGE:;
#LYRICSPATH:;
#CDTITLE:;
#MUSIC:Tranceformers.ogg;
#OFFSET:0.000000;
#SAMPLESTART:29.000000;
#SAMPLELENGTH:20.000000;
#SELECTABLE:YES;
#BPMS:0.000=175.000;
#STOPS:;
#DELAYS:;
#WARPS:;
#TIMESIGNATURES:0.000=4=4;
#TICKCOUNTS:0.000=4;
#COMBOS:0.000=1;
#SPEEDS:0.000=1.000=0.000=0;
#SCROLLS:0.000=1.000;
#FAKES:;
#LABELS:0.000=Song Start,
32.000=start,
64.000=slow,
96.000=build start,
128.000=build fast,
144.000=build fast rapid,
160.000=melody,
220.000=chill,
224.000=again,
284.000=end,
288.000=finish;
#BGCHANGES:;
#KEYSOUNDS:;
#ATTACKS:
;

//---------------dance-single - ----------------
#NOTEDATA:;
#CHARTNAME:;
#STEPSTYPE:dance-single;
#DESCRIPTION:;
#CHARTSTYLE:Pad;
#DIFFICULTY:Challenge;
#METER:14;
#RADARVALUES:0.600174,0.652851,0.030225,0.272021,0.025187,417.000000,414.000000,3.000000,27.000000,0.000000,0.000000,0.000000,0.000000,0.000000,0.600174,0.652851,0.030225,0.272021,0.025187,417.000000,414.000000,3.000000,27.000000,0.000000,0.000000,0.000000,0.000000,0.000000;
#CREDIT:Elik;
#NOTES:
0000
0000
0000
0000
,
0000
0000
0000
0000
,
0000
0000
0000
0000
,
0000
0000
0000
0000
,
0000
0000
0000
0000
,
0000
0000
0000
0000
,
0000
0000
0000
0000
,
0000
0000
0000
0000
,
1000
0100
0010
0001
1000
0100
0010
0001
,
0001
0100
0010
1000
0001
0100
0010
1000
,
1000
0010
0100
0001
0010
0100
1000
0001
,
1000
0010
0100
0001
0010
0100
1000
0001
,
0001
0010
0100
1000
0001
0010
0100
1000
,
1000
0010
0100
0001
1000
0010
0100
0001
,
0001
0100
0010
1000
0100
0010
0001
1000
,
0010
0100
0001
0010
0100
1000
0001
0010
,
0200
0000
0000
0000
,
2300
0000
0000
0000
,
3020
0000
0000
0000
,
0000
0000
0000
0000
,
0230
0000
0000
0000
,
0302
0000
0000
0000
,
0023
0000
0000
0030
,
0220
0000
0000
0300
,
1030
0010
0001
1000
0010
0001
0010
2000
,
0000
3010
0001
0010
1000
0100
0001
0200
,
0000
0310
0001
0100
1000
0100
0001
0020
,
0000
1030
0010
0001
1000
0010
0001
0020
,
0000
1030
0001
0010
1000
0010
0001
0200
,
0000
1300
0100
0001
0010
1000
0010
0002
,
0000
1003
0100
0001
0100
1000
0010
0002
,
0000
0013
1000
0100
0001
0100
1000
0020
,
0031
0001
0010
0010
,
1000
1000
0100
0100
,
0110
0010
0001
0001
,
0100
0100
0010
0010
,
0210
0300
0000
0000
0010
0100
0010
0000
0200
0300
0000
0000
0010
1000
0010
0000
,
2000
3000
0000
0000
0100
1000
0100
0000
2000
3000
0000
0000
0100
0010
0100
0000
,
0010
0001
0010
0100
1000
0010
0200
0000
,
0020
0000
0000
0000
0330
0000
0000
0000
0100
0000
0000
0000
0001
1000
0001
0000
,
0200
0310
0001
0010
0100
0001
0010
0100
,
1000
0100
0001
0100
1000
0010
0100
0001
,
0010
0100
0001
0100
0010
0001
0100
0010
,
1000
0010
0001
0010
1000
0100
0010
0100
,
1000
0100
0001
0100
0010
0001
0100
0010
,
1000
0010
0001
0010
0100
0001
0010
0100
,
1000
0100
0001
0100
0010
0001
0100
0010
,
1000
0010
0001
0010
0100
0001
0010
0100
,
1000
0100
0001
0100
0010
0100
0001
0100
,
1000
0010
0001
0010
0100
0010
0001
0010
,
1000
0100
0001
0100
0010
0001
0100
1000
,
0100
0010
1000
0100
0001
0100
0010
0001
,
0100
1000
0100
0010
1000
0100
0001
0100
,
1000
0010
0001
0010
0100
0001
0010
1000
,
0010
0100
0010
0001
0100
1000
0100
0020
,
0200
0000
0030
0000
,
0301
0010
1000
0010
0100
0010
0001
1000
,
0100
0001
0100
0010
0100
0001
0100
1000
,
0001
0100
1000
0100
0010
0100
0001
1000
,
0010
0001
0010
0100
0010
0001
0010
0100
,
0001
0010
1000
0010
0100
0010
0001
1000
,
0100
0001
0100
0010
0001
0010
1000
0010
,
0100
1000
0100
0001
0100
0010
0001
0010
,
0100
0001
0100
1000
0010
0001
0010
0100
,
0001
0010
0100
1000
0001
0010
0100
1000
,
0010
0100
0001
1000
0010
0100
0001
1000
,
0100
0001
0100
0010
0100
0001
0100
1000
,
0010
0001
0010
0100
0010
0001
0010
0100
,
0001
0100
1000
0100
0001
0010
1000
0010
,
0001
0100
1000
0100
0010
1000
0100
0001
,
0100
0010
0001
0100
1000
0100
0010
2000
,
0200
0000
0000
0000
,
3300
0000
0000
0000
;

//---------------dance-single - ----------------
#NOTEDATA:;
#CHARTNAME:;
#STEPSTYPE:dance-single;
#DESCRIPTION:;
#CHARTSTYLE:Pad;
#DIFFICULTY:Hard;
#METER:12;
#RADARVALUES:0.598734,0.616581,0.020150,0.191422,0.000000,416.000000,414.000000,2.000000,19.000000,0.000000,0.000000,0.000000,0.000000,0.000000,0.598734,0.616581,0.020150,0.191422,0.000000,416.000000,414.000000,2.000000,19.000000,0.000000,0.000000,0.000000,0.000000,0.000000;
#CREDIT:Elik;
#NOTES:
0000
0000
0000
0000
,
0000
0000
0000
0000
,
0000
0000
0000
0000
,
0000
0000
0000
0000
,
0000
0000
0000
0000
,
0000
0000
0000
0000
,
0000
0000
0000
0000
,
0000
0000
0000
0000
,
0001
0010
0100
1000
0001
0010
0100
1000
,
1000
0100
0010
0001
1000
0100
0010
0001
,
0001
0100
0010
1000
0001
0100
0010
1000
,
0001
0100
0010
0100
0001
1000
0010
1000
,
0001
0010
0100
1000
0001
0010
0100
1000
,
1000
0100
0010
0001
1000
0100
0010
0001
,
0001
0100
0010
1000
0001
0100
0010
1000
,
0001
0100
0010
0100
0001
1000
0010
1000
,
0002
0000
0000
0000
,
0023
0000
0000
0000
,
0230
0000
0000
0000
,
0000
0000
0000
0000
,
0320
0000
0000
0000
,
0032
0000
0000
0000
,
2003
0000
0000
3000
,
2200
0000
0000
0300
,
3001
0100
0010
0100
0001
0100
0010
0200
,
0000
0310
1000
0010
0100
0010
1000
0020
,
0000
1030
0100
1000
0001
1000
0010
2000
,
0000
3001
0010
0001
1000
0001
0100
0002
,
0000
0103
0001
0100
0010
1000
0100
2000
,
0000
3010
1000
0010
0100
0001
0010
0002
,
0000
0013
0100
0010
0001
0100
0010
0200
,
0000
0310
1000
0010
0100
0001
0010
0001
,
0010
0010
0100
0100
,
1000
1000
0100
0100
,
0010
0010
0001
0001
,
0100
0100
0010
0010
,
1000
0001
1000
0001
0100
0001
0100
0001
,
0010
0100
0010
0100
1000
0100
1000
0100
,
0010
0001
0010
0001
1000
0100
1000
0100
,
0010
0001
0100
0010
2000
0000
0000
3000
,
0001
0100
0010
0100
0001
0010
0100
0010
,
0001
1000
0100
1000
0010
0100
0001
0100
,
0010
1000
0001
1000
0100
0010
0001
0010
,
0100
1000
0010
1000
0100
0010
0001
0100
,
0100
0001
0010
0001
0100
0010
1000
0010
,
0100
0001
1000
0001
0010
0100
1000
0100
,
0010
0001
0100
0001
1000
0100
0010
0100
,
1000
0010
0100
0010
1000
0001
0100
0010
,
0010
1000
0100
1000
0010
0100
0001
0100
,
0010
1000
0001
1000
0100
0010
0001
0010
,
0100
1000
0010
1000
0001
0100
0010
0100
,
0001
0010
0100
0010
0001
0100
0010
1000
,
1000
0010
0100
0010
1000
0100
0010
0100
,
1000
0001
0010
0001
0100
0010
1000
0010
,
1000
0100
0010
0100
0010
0001
0100
0010
,
0200
0000
0000
0000
0000
0000
0000
0300
,
0001
1000
0010
0100
0010
1000
0100
0010
,
0001
0010
0100
1000
0010
0100
0001
0010
,
0100
0010
0001
1000
0010
0100
0001
0100
,
0010
1000
0100
0010
0100
1000
0010
0100
,
0100
0010
1000
0100
0010
0100
1000
0010
,
0100
0001
0010
0100
0010
0001
0100
0010
,
1000
0100
0010
0001
1000
0010
0100
0001
,
0010
0100
0010
0001
1000
0010
1000
0100
,
0100
0010
0100
1000
0010
0100
0001
0010
,
0100
0010
0001
0100
0010
1000
0100
0010
,
0001
1000
0010
0100
0001
1000
0010
0100
,
0010
1000
0100
0010
0001
0100
0001
0010
,
0010
0100
1000
0100
0001
0100
1000
0010
,
0100
0001
0010
0100
0010
1000
0010
0100
,
0010
0001
0100
0010
0100
1000
0100
0000
,
0220
0000
0000
0000
,
0330
0000
0000
0000
;

//---------------dance-single - ----------------
#NOTEDATA:;
#CHARTNAME:;
#STEPSTYPE:dance-single;
#DESCRIPTION:;
#CHARTSTYLE:Pad;
#DIFFICULTY:Easy;
#METER:4;
#RADARVALUES:0.231722,0.326425,0.020150,0.100749,0.000000,161.000000,159.000000,2.000000,10.000000,0.000000,0.000000,0.000000,0.000000,0.000000,0.231722,0.326425,0.020150,0.100749,0.000000,161.000000,159.000000,2.000000,10.000000,0.000000,0.000000,0.000000,0.000000,0.000000;
#CREDIT:Elik;
#NOTES:
// measure 0
0000
0000
0000
0000
,  // measure 1
0000
0000
0000
0000
,  // measure 2
0000
0000
0000
0000
,  // measure 3
0000
0000
0000
0000
,  // measure 4
0000
0000
0000
0000
,  // measure 5
0000
0000
0000
0000
,  // measure 6
0000
0000
0000
0000
,  // measure 7
0000
0000
0000
0000
,  // measure 8
1000
0000
0001
0000
,  // measure 9
1000
0000
1000
0000
,  // measure 10
0001
0000
0001
0000
,  // measure 11
0001
0000
0001
0000
,  // measure 12
0001
0000
0100
0000
,  // measure 13
0001
0000
0001
0000
,  // measure 14
0010
0000
0010
0000
,  // measure 15
0010
0000
0010
0000
,  // measure 16
0002
0000
0000
0003
,  // measure 17
2000
0000
0000
3000
,  // measure 18
0020
0000
0000
0000
,  // measure 19
0000
0000
0000
0030
,  // measure 20
0200
0000
0000
0300
,  // measure 21
0020
0000
0000
0030
,  // measure 22
0200
0000
0300
0000
,  // measure 23
0110
0000
0000
0000
,  // measure 24
0100
0010
0100
0000
,  // measure 25
0001
0100
0001
0000
,  // measure 26
0010
0001
0010
0000
,  // measure 27
0100
0010
0100
0000
,  // measure 28
1000
0100
1000
0000
,  // measure 29
0010
1000
0010
0000
,  // measure 30
0100
0010
0100
0000
,  // measure 31
0001
0100
0001
0000
,  // measure 32
0100
0100
0100
0000
,  // measure 33
0010
0010
0010
0000
,  // measure 34
1000
1000
1000
0000
,  // measure 35
0100
0100
0100
0000
,  // measure 36
0000
1000
1000
0001
,  // measure 37
0001
0100
0100
0010
,  // measure 38
0010
0100
0100
0010
,  // measure 39
0020
0000
0000
0030
,  // measure 40
0100
0010
0100
0000
,  // measure 41
0001
0100
0001
0000
,  // measure 42
0010
0100
0010
0000
,  // measure 43
0001
0010
0001
0000
,  // measure 44
1000
0001
1000
0000
,  // measure 45
0100
1000
0100
0000
,  // measure 46
0010
0100
0010
0000
,  // measure 47
0100
1000
0100
0000
,  // measure 48
1000
0010
1000
0000
,  // measure 49
0010
0100
0010
0000
,  // measure 50
0100
0001
0100
0000
,  // measure 51
0001
1000
0001
0000
,  // measure 52
1000
0010
1000
0000
,  // measure 53
0010
1000
0010
0000
,  // measure 54
1000
0100
1000
0000
,  // measure 55
0200
0000
0000
0300
,  // measure 56
0010
0010
0010
0000
,  // measure 57
0001
0010
0010
0000
,  // measure 58
0100
0100
0100
0000
,  // measure 59
1000
0100
0100
0000
,  // measure 60
0010
0010
0010
0000
,  // measure 61
0001
0010
0010
0000
,  // measure 62
0001
0010
0100
0000
,  // measure 63
0100
0000
1000
0000
,  // measure 64
0100
0010
0001
0000
,  // measure 65
0001
0000
0100
0000
,  // measure 66
0001
0100
0010
0000
,  // measure 67
0100
0000
0010
0000
,  // measure 68
0100
0010
1000
0000
,  // measure 69
0010
0000
1000
0000
,  // measure 70
0100
0010
0001
0000
,  // measure 71
2002
0000
0000
0000
,  // measure 72
3003
0000
0000
0000
;

//---------------dance-single - ----------------
#NOTEDATA:;
#CHARTNAME:;
#STEPSTYPE:dance-single;
#DESCRIPTION:;
#CHARTSTYLE:Pad;
#DIFFICULTY:Beginner;
#METER:2;
#RADARVALUES:0.123777,0.181347,0.010075,0.100749,0.000000,86.000000,85.000000,1.000000,10.000000,0.000000,0.000000,0.000000,0.000000,0.000000,0.123777,0.181347,0.010075,0.100749,0.000000,86.000000,85.000000,1.000000,10.000000,0.000000,0.000000,0.000000,0.000000,0.000000;
#CREDIT:Elik;
#NOTES:
0000
0000
0000
0000
,
0000
0000
0000
0000
,
0000
0000
0000
0000
,
0000
0000
0000
0000
,
0000
0000
0000
0000
,
0000
0000
0000
0000
,
0000
0000
0000
0000
,
0000
0000
0000
0000
,
1000
0000
0000
0000
,
0010
0000
0000
0000
,
0100
0000
0000
0000
,
0001
0000
0000
0000
,
0001
0000
0000
0000
,
1000
0000
0000
0000
,
0010
0000
0000
0000
,
0010
0000
0000
0000
,
0002
0000
0003
0000
,
2000
0000
3000
0000
,
0020
0000
0000
0000
,
0030
0000
0000
0000
,
0002
0000
0003
0000
,
2000
0000
3000
0000
,
0200
0000
0300
0000
,
0010
0000
0000
0000
,
0001
0000
0001
0000
,
0000
0000
1000
0000
,
0010
0000
0010
0000
,
0000
0000
1000
0000
,
0001
0000
0001
0000
,
0000
0000
1000
0000
,
0001
0000
0001
0000
,
0000
0000
0100
0000
,
1000
0000
0000
0000
,
0001
0000
0000
0000
,
0100
0000
0000
0000
,
0010
0000
0000
0000
,
1000
0000
0000
0000
,
0001
0000
0000
0000
,
0010
0000
0000
0000
,
0020
0000
0030
0000
,
0100
0000
0100
0000
,
0000
0000
0001
0000
,
1000
0000
1000
0000
,
0000
0000
0010
0000
,
1000
0000
0010
0000
,
0000
0000
0100
0000
,
0001
0000
0001
0000
,
0000
0000
1000
0000
,
0010
0000
0100
0000
,
0000
0000
0001
0000
,
0100
0000
0100
0000
,
0000
0000
0001
0000
,
1000
0000
0010
0000
,
0000
0000
0100
0000
,
1000
0000
0001
0000
,
0200
0000
0300
0000
,
0010
0000
0010
0000
,
0100
0000
0001
0000
,
0100
0000
0000
0000
,
0010
0000
0010
0000
,
1000
0000
0010
0000
,
1000
0000
0000
0000
,
0100
0000
0001
0000
,
0100
0000
0001
0000
,
0100
0000
0000
0000
,
0001
0000
0010
0000
,
0100
0000
0001
0000
,
0010
0000
0000
0000
,
1000
0000
0010
0000
,
1000
0000
1000
0000
,
0100
0000
0000
0000
,
2002
0000
0000
0000
,
3003
0000
0000
0000
;

//---------------dance-single - ----------------
#NOTEDATA:;
#CHARTNAME:;
#STEPSTYPE:dance-single;
#DESCRIPTION:;
#CHARTSTYLE:Pad;
#DIFFICULTY:Medium;
#METER:7;
#RADARVALUES:0.377087,0.507773,0.030225,0.211572,0.000000,262.000000,259.000000,3.000000,21.000000,0.000000,0.000000,0.000000,0.000000,0.000000,0.377087,0.507773,0.030225,0.211572,0.000000,262.000000,259.000000,3.000000,21.000000,0.000000,0.000000,0.000000,0.000000,0.000000;
#CREDIT:Elik;
#NOTES:
0000
0000
0000
0000
,
0000
0000
0000
0000
,
0000
0000
0000
0000
,
0000
0000
0000
0000
,
0000
0000
0000
0000
,
0000
0000
0000
0000
,
0000
0000
0000
0000
,
0000
0000
0000
0000
,
1000
0100
0010
0001
,
0001
0010
0100
1000
,
1000
0010
0100
0001
,
1000
0010
0100
0001
,
0001
0010
0100
1000
,
1000
0100
0010
0001
,
0001
0100
0010
1000
,
0001
0100
0010
1000
,
0200
0000
0000
0000
,
0320
0000
0000
0000
,
0032
0000
0000
0000
,
0000
0000
0000
0000
,
0203
0000
0000
0000
,
0320
0000
0000
0000
,
2030
0000
3000
0000
,
2002
0000
0003
3000
,
0000
0001
1000
0000
0010
0000
0200
0000
,
0300
0010
0100
0000
0001
0000
2000
0000
,
3000
0001
1000
0000
0010
0000
2000
0000
,
3000
0010
1000
0000
0001
0000
0020
0000
,
0030
0001
0010
0000
0100
0000
2000
0000
,
3000
0100
1000
0000
0010
0000
0200
0000
,
0300
0010
0100
0000
0001
0000
0020
0000
,
0030
0001
0010
0000
0100
0000
0020
0000
,
0031
0001
0100
0100
,
0010
0010
1000
1000
,
0100
0100
0010
0010
,
0100
0100
1000
1000
,
0000
0000
0100
0010
0100
0000
0001
0100
,
0001
0000
1000
0001
1000
0000
0100
1000
,
0100
0000
0010
0100
0010
0000
1000
0000
,
2020
0000
3030
0100
,
0100
0010
0100
0000
1000
0000
0010
0000
,
0100
0001
0100
0000
0010
0000
1000
0000
,
0100
0010
0100
0000
1000
0000
0100
0000
,
0010
0001
0010
0000
0100
0000
0010
0000
,
0001
0100
0001
0000
0100
0000
0010
0000
,
1000
0100
1000
0000
0010
0000
0100
0000
,
0010
0100
0010
0000
1000
0000
0100
0000
,
0010
0100
0010
0000
0001
0000
0100
0000
,
0001
0010
0001
0000
0100
0000
0010
0000
,
1000
0100
1000
0000
0010
0000
0100
0000
,
0010
0100
0010
0000
1000
0000
0100
0000
,
0010
0001
0010
0000
0100
0000
0010
0000
,
0001
0100
0001
0000
1000
0000
0010
0000
,
0100
0010
0100
0000
0001
0000
0010
0000
,
0100
0010
0100
0000
0010
0000
0001
0000
,
0200
0000
0000
0300
,
0010
1000
0001
0000
0100
0000
0010
0000
,
1000
0100
0010
0000
0100
0000
1000
0000
,
0010
0100
0001
0000
0010
0000
0100
0000
,
0010
0001
1000
0000
0010
0000
0100
0000
,
0001
0010
0100
0000
1000
0000
0010
0000
,
0100
0001
0010
0000
0100
0000
0010
0000
,
0001
0100
0010
0000
1000
0000
0100
0000
,
0010
0100
1000
0000
0010
0000
0100
0000
,
0001
0010
0100
0000
0010
0000
0001
0000
,
0100
0010
1000
0000
0100
0000
0010
0000
,
0100
1000
0010
0000
0100
0000
0001
0000
,
0010
0001
0100
0000
0010
0000
1000
0000
,
0100
0010
0001
0000
0100
0000
0010
0000
,
0100
0001
0010
0000
0100
0000
1000
0000
,
0010
0100
0001
0100
0010
0100
0001
0000
,
0202
0000
0000
0000
,
0303
0000
0000
0000
;
