#TITLE:Time Traveler;
#SUBTITLE:;
#ARTIST:Knower;
#TITLETRANSLIT:;
#SUBTITLETRANSLIT:;
#ARTISTTRANSLIT:;
#GENRE:;
#CREDIT:;
#BANNER:Time Traveler-bn.png;
#BACKGROUND:Time Traveler-bg.png;
#LYRICSPATH:;
#CDTITLE:;
#MUSIC:Time Traveler.ogg;
#OFFSET:0.000000;
#SAMPLESTART:79.488998;
#SAMPLELENGTH:12.000000;
#SELECTABLE:YES;
#BPMS:0.000000=160.000000
,60.000000=320.000000
,60.500000=160.000000
,63.500000=80.000000
,63.625000=240.000000
,64.000000=160.000000
,68.000000=320.000000
,68.500000=160.000000
,68.750000=80.000000
,69.000000=160.000000
,72.000000=80.000000
,72.250000=320.000000
,72.750000=80.000000
,73.000000=320.000000
,73.500000=80.000000
,73.750000=320.000000
,74.250000=160.000000
,74.500000=80.000000
,74.750000=320.000000
,75.250000=160.000000
,76.000000=320.000000
,76.500000=160.000000
,79.500000=80.000000
,79.625000=240.000000
,80.000000=160.000000
,82.500000=80.000000
,82.625000=240.000000
,83.000000=160.000000
,84.000000=320.000000
,84.500000=160.000000
,88.000000=80.000000
,88.250000=320.000000
,88.750000=80.000000
,89.000000=320.000000
,89.500000=160.000000
,90.000000=80.000000
,90.250000=320.000000
,90.750000=80.000000
,91.000000=320.000000
,91.500000=160.000000
,92.000000=80.000000
,92.250000=320.000000
,92.750000=80.000000
,93.000000=320.000000
,93.500000=160.000000
,94.000000=80.000000
,94.250000=320.000000
,94.750000=80.000000
,95.000000=320.000000
,95.500000=160.000000
,96.000000=80.000000
,111.500000=40.000000
,111.625000=80.000000
,111.750000=240.000000
,112.000000=160.000000
,144.000000=80.000000
,159.000000=120.000000
,160.500000=160.000000
,162.500000=240.000000
,164.000000=320.000000
,198.000000=160.000000
,201.500000=80.000000
,201.625000=240.000000
,202.000000=160.000000
,206.000000=320.000000
,206.500000=160.000000
,210.000000=80.000000
,210.250000=320.000000
,210.750000=80.000000
,211.000000=320.000000
,211.500000=80.000000
,211.750000=320.000000
,212.250000=160.000000
,212.500000=80.000000
,212.750000=320.000000
,213.250000=160.000000
,214.000000=320.000000
,214.500000=160.000000
,222.000000=80.000000
,222.125000=160.000000
,222.250000=240.000000
,222.875000=80.000000
,223.000000=160.000000
,226.000000=80.000000
,226.250000=320.000000
,226.750000=80.000000
,227.000000=320.000000
,227.500000=80.000000
,227.750000=320.000000
,228.250000=160.000000
,228.500000=80.000000
,228.750000=320.000000
,229.250000=160.000000
,230.000000=80.000000
,246.000000=160.000000
,258.000000=80.000000
,258.250000=320.000000
,258.750000=80.000000
,259.000000=320.000000
,259.500000=80.000000
,259.750000=320.000000
,260.250000=160.000000
,260.500000=80.000000
,260.750000=320.000000
,261.250000=160.000000
,268.500000=80.000000
,268.625000=240.000000
,269.000000=160.000000
,274.000000=80.000000
,274.250000=320.000000
,274.750000=80.000000
,275.000000=320.000000
,275.500000=80.000000
,275.750000=320.000000
,276.250000=160.000000
,276.500000=80.000000
,276.750000=320.000000
,277.250000=160.000000
,278.000000=80.000000
,282.000000=40.000000
;
#STOPS:60.479168=0.100000,
76.479164=0.100000,
84.479164=0.100000,
206.479172=0.100000,
214.479172=0.100000
;
#BGCHANGES:;
#KEYSOUNDS:;
#ATTACKS:;

//---------------dance-single - ----------------
#NOTES:
     dance-single:
     :
     Beginner:
     3:
     0.088570,0.190206,0.061233,0.145429,0.000000,81.000000,73.000000,8.000000,19.000000,0.000000,0.000000,0.088570,0.190206,0.061233,0.145429,0.000000,81.000000,73.000000,8.000000,19.000000,0.000000,0.000000:
// measure 0
0000
0000
0000
0000
,  // measure 1
0000
0000
0000
0000
,  // measure 2
0000
0000
0000
0000
,  // measure 3
0020
0000
0000
0000
,  // measure 4
0000
0000
0000
0000
,  // measure 5
0000
0000
0000
0000
,  // measure 6
0000
0000
0000
0000
,  // measure 7
0030
0000
0001
0000
,  // measure 8
0001
0000
0000
0000
,  // measure 9
0000
0000
1000
0000
,  // measure 10
2000
0000
0000
3000
,  // measure 11
0000
0000
0010
0000
,  // measure 12
0010
0000
0000
0000
,  // measure 13
0000
0000
0100
0000
,  // measure 14
0200
0000
0000
0300
,  // measure 15
0100
0000
0000
0000
,  // measure 16
0010
0000
0000
0000
,  // measure 17
0010
0000
0000
0000
,  // measure 18
0200
0000
0000
0300
,  // measure 19
0100
0000
0000
0000
,  // measure 20
1000
0000
0000
0000
,  // measure 21
0001
0000
0000
0000
,  // measure 22
0020
0000
0000
0000
,  // measure 23
0000
0000
0000
0030
,  // measure 24
0010
0000
0010
0000
,  // measure 25
0010
0000
0010
0000
,  // measure 26
0110
0000
0100
0000
,  // measure 27
0100
0000
0100
0000
,  // measure 28
1001
0000
0000
0000
,  // measure 29
0001
0000
0000
0000
,  // measure 30
0010
0000
0000
0000
,  // measure 31
0100
0000
0000
0000
,  // measure 32
1001
0000
0000
0000
,  // measure 33
1000
0000
0000
0000
,  // measure 34
0100
0000
0000
0000
,  // measure 35
0010
0000
0000
0000
,  // measure 36
0002
0000
0003
0000
,  // measure 37
0200
0000
0300
0000
,  // measure 38
2000
0000
3000
0000
,  // measure 39
0100
0000
0100
0100
,  // measure 40
0000
0100
0000
0000
0000
0100
0000
0000
,  // measure 41
0000
0000
0220
0000
,  // measure 42
0000
0030
0000
0000
,  // measure 43
0000
0000
0000
0000
,  // measure 44
0000
0000
0000
0000
,  // measure 45
0000
0000
0000
0000
,  // measure 46
0000
0000
0000
0000
,  // measure 47
0000
0000
0000
0000
,  // measure 48
0000
0000
0000
0000
,  // measure 49
0000
0300
0010
0000
,  // measure 50
0000
0000
0010
0000
,  // measure 51
0000
0000
1000
0000
,  // measure 52
0000
0000
2000
0000
,  // measure 53
0000
3000
0001
0000
,  // measure 54
0000
0000
0001
0000
,  // measure 55
0000
0000
1001
0000
,  // measure 56
0000
0000
0020
0000
,  // measure 57
0000
0030
0000
1000
,  // measure 58
1000
0000
0000
0010
,  // measure 59
0020
0030
0000
0100
,  // measure 60
0100
0000
0000
0001
,  // measure 61
0002
0003
1001
0000
,  // measure 62
1000
0000
1000
0000
,  // measure 63
0000
0000
0100
0000
,  // measure 64
0100
0000
0020
0000
,  // measure 65
0030
0000
1001
0000
,  // measure 66
0001
0000
0001
0000
,  // measure 67
0000
0000
0010
0000
,  // measure 68
0010
0000
0200
0000
,  // measure 69
0300
0000
0220
0330
,  // measure 70
0001
0000
0200
0000
,  // measure 71
0300
0000
0000
0000
;

//---------------dance-single - ----------------
#NOTES:
     dance-single:
     :
     Easy:
     6:
     0.214316,0.326067,0.206662,0.336783,0.000000,196.000000,169.000000,27.000000,44.000000,0.000000,0.000000,0.214316,0.326067,0.206662,0.336783,0.000000,196.000000,169.000000,27.000000,44.000000,0.000000,0.000000:
0000
0000
0000
0000
,
0000
0000
0000
0000
,
0000
0000
0000
0000
,
0020
0000
0000
0000
,
0000
0000
0000
0000
,
0000
0000
0000
0000
,
0000
0000
0000
0030
,
0000
1000
0100
0000
,
0010
0001
0000
0000
,
0000
0001
0010
0000
,
2200
0000
0000
3300
,
0000
1000
0010
0000
,
0100
0001
0000
0000
,
0000
0001
0100
0000
,
2020
0000
0000
3030
,
0001
1000
0100
1000
,
1001
0110
0000
0000
,
0100
0001
0010
0001
,
2002
0000
0000
3003
,
1001
1000
0010
0100
,
0001
1000
0100
0010
,
0110
0010
0001
0000
,
2001
0000
0000
3000
1002
0000
0000
0003
,
2001
0000
0000
3000
1002
0000
0000
0003
,
0100
0010
0100
0010
,
1000
0010
1000
0001
,
0010
0001
0010
0001
,
0100
0010
1000
0100
,
1001
0001
0001
0001
,
0010
0010
0010
0010
,
1100
1000
1000
1000
,
0001
0001
0001
0001
,
0101
0001
1000
0010
,
1010
0010
0100
0001
,
1001
0001
1000
0100
,
1100
0100
0010
0001
,
2000
3200
0320
0031
,
0002
0023
0230
1300
,
2000
3020
0230
0320
,
2030
3002
0023
0230
,
0000
0320
0000
0000
0000
0230
0000
0000
,
0000
0300
1001
0000
,
0100
0020
0000
0000
,
0000
0000
0000
0000
,
0000
0000
0000
0000
,
0000
0000
0000
0000
,
0000
0000
0000
0000
,
0000
0000
0000
0000
,
0000
0000
0000
0000
,
0000
0030
1000
1000
,
0100
0000
0110
0010
,
0000
0000
0001
1000
,
0010
0000
0202
0000
,
0000
0303
0100
0010
,
0100
0000
0001
1000
,
0000
0000
1100
1000
,
0100
0000
2002
0000
,
0000
0000
3003
0000
0000
0001
0010
0000
,
0100
1000
0000
0000
0000
1000
0100
0000
,
0022
0000
0000
0033
0000
0001
0100
0000
,
0010
1000
0000
0000
0000
1000
0010
0000
,
0202
0000
0000
0303
1000
0000
0100
0000
,
1000
0000
0001
0010
,
0010
0001
0100
0010
,
1000
0000
2002
0000
,
0000
3003
1001
0010
,
0100
0000
0100
0010
,
0100
0010
0100
0000
0001
0000
0001
0000
,
1000
0000
2002
0000
,
0000
3003
0020
0000
,
2030
3002
0203
0000
,
0300
0000
0000
0000
;

//---------------dance-single - ----------------
#NOTES:
     dance-single:
     :
     Medium:
     10:
     0.293045,0.407584,0.160737,0.367399,0.072714,268.000000,247.000000,21.000000,48.000000,0.000000,0.000000,0.293045,0.407584,0.160737,0.367399,0.072714,268.000000,247.000000,21.000000,48.000000,0.000000,0.000000:
0000
0000
0000
0000
,
0000
0000
0000
0000
,
0000
0000
0000
0000
,
0020
0000
0000
0000
,
0000
0000
0000
0000
,
0000
0000
0000
0000
,
0000
0000
0000
0030
,
0000
1000
0100
0000
,
0001
0100
0000
0000
,
0000
1000
0010
0000
,
0022
0000
0030
0020
0000
0033
0000
0000
,
0000
0100
0010
0000
,
1000
0001
0000
0000
,
0000
0010
0100
0000
,
2002
0000
0003
0002
0000
0000
3003
0000
,
1000
0000
0001
0001
0010
0000
0001
0001
,
0100
0100
0000
0000
,
2001
0000
3010
0000
0100
0001
0100
0000
,
2010
0000
0000
3002
0000
0000
0003
0000
,
1001
0100
0010
0000
,
0001
0000
0010
0000
0100
1000
0100
0000
,
0110
0000
0010
0000
0001
1000
0001
0000
,
0012
0000
0000
0003
2100
0000
0000
3000
,
1020
0000
0000
0030
0210
0000
0000
0300
,
0001
0000
0000
0010
0000
0001
0000
0000
1000
0000
0000
0010
0000
1000
0000
0000
,
0001
0000
0000
0100
0000
0001
0000
0000
1000
0000
0000
0100
0000
1000
0000
0000
,
0010
0000
0000
0100
0000
0001
0000
0000
0010
0000
0000
0100
0000
1000
0000
0000
,
0010
0000
0000
1000
0000
0001
0000
0000
0010
0000
0000
0001
0000
1000
0000
0000
,
0100
0000
0100
0000
1000
0010
0000
0000
,
0100
0001
0010
0001
0100
0001
0000
0000
,
1000
0100
0000
0100
0000
0100
0000
0100
,
0010
0001
0000
0001
0000
0001
0000
0001
,
1000
0010
0000
0010
0100
0010
1000
0010
,
0100
0001
0000
0010
0100
1000
0100
0010
,
0001
0010
0000
0001
0000
0001
0000
1000
,
0100
0010
0000
0010
0000
0010
0000
0100
,
1200
2300
3002
0203
,
2300
3200
0302
0023
,
0230
0320
0032
2003
,
3200
0000
0000
0000
0320
0000
0000
0000
0031
0000
0001
0000
1000
0000
0000
1000
,
0000
0100
0000
0100
0000
0010
0000
0000
,
0010
0000
2001
0000
,
3200
0320
0000
0000
,
0001
0000
0000
0000
,
0001
0000
0000
0000
,
0001
0000
0000
0000
,
0001
0000
0000
0000
,
0001
0000
0000
0000
,
0001
0000
0000
0000
,
0001
0000
0030
0000
1001
0000
1000
1000
,
0100
0000
0010
0010
0100
0000
1000
0000
,
0001
1000
0001
0000
1001
0000
0100
0000
,
0010
0000
0100
0000
0001
0000
0100
0000
0020
0000
0000
2030
0000
0000
3002
0000
,
0000
0000
0000
0000
0000
0003
0000
0000
1001
0000
0000
0000
0001
0000
0001
0000
,
0100
0000
0010
0010
0100
0000
0001
0000
,
1000
0001
1000
0000
1100
0000
0100
0000
,
0100
0000
1000
0000
0001
0000
1000
0000
0020
0000
0000
0230
0000
0000
0302
0000
,
0000
0000
0000
0000
0000
0003
0000
0000
0000
0000
0010
0000
1000
0000
0000
0000
,
0100
0001
0000
0000
0000
0001
0100
0000
,
2020
0000
0000
3030
0000
1000
0100
0000
,
0001
0010
0000
0000
0000
0001
0100
0000
,
2020
0000
0000
3030
1000
0001
0100
0001
,
1000
0000
0001
0001
0010
0000
0010
0000
,
0001
0100
0001
0000
1000
1000
0001
0000
,
0010
0000
0001
0000
2001
0000
0000
3001
,
0000
0100
0000
0000
0001
1000
0100
1000
,
0001
0000
0010
0001
0100
0000
0100
0010
,
1000
0010
0100
0000
1001
0000
0100
0000
,
0010
0100
1000
0100
0020
0000
0000
0000
,
0000
0000
0030
0000
2020
0000
0000
0030
,
3002
0023
0230
0000
,
0300
0000
0000
0000
;

//---------------dance-single - ----------------
#NOTES:
     dance-single:
     :
     Hard:
     14:
     0.458156,0.597789,0.489866,0.619987,0.183700,419.000000,355.000000,64.000000,81.000000,0.000000,0.000000,0.458156,0.597789,0.489866,0.619987,0.183700,419.000000,355.000000,64.000000,81.000000,0.000000,0.000000:
0000
0000
0000
0000
,
0000
0000
0000
0000
,
0000
0000
0000
0000
,
0020
0000
0000
0000
,
0000
0000
0000
0000
,
0000
0000
0000
0000
,
0000
0000
0000
0030
,
0000
1100
1001
0000
,
0011
1001
0000
0000
,
0000
1100
1001
0000
,
0022
0000
0000
0033
,
0000
0101
0110
0000
,
1010
0110
0000
0000
,
0000
0101
0110
0000
,
2020
0000
0000
3030
,
0001
0000
0010
0000
0010
0000
0010
0000
0001
0000
0000
0000
1000
0000
0100
0010
,
0100
1000
0001
0000
0100
0001
1000
0000
,
0012
0000
0000
0000
1003
0000
0010
0000
1000
0000
0100
0000
0010
0100
0010
0000
,
0002
0000
0000
2003
0000
0000
3200
0000
0000
0300
0020
0000
0000
0030
0000
0000
,
1001
0100
0010
0100
0001
1000
0100
1000
,
1010
0000
0000
0000
0001
0000
0100
0001
0010
0000
0100
0000
2000
0000
0000
0000
,
3001
0000
0100
0000
0010
0000
1000
0000
0010
0000
1000
0000
0001
1000
0001
0000
,
0102
0000
0000
0100
0000
0000
0103
0000
2100
0000
0000
0100
0000
0000
3100
0000
,
0120
0000
0000
0100
0000
0000
0130
0000
0012
0000
0000
0010
0000
0000
0013
0000
,
0011
0000
0000
0000
1000
0000
0100
0000
0000
0000
0010
0000
0000
0010
0000
0000
0200
0000
0300
0000
1000
0000
0001
0000
0000
0000
0100
0000
0000
0100
0000
0000
,
0002
0000
0003
0000
0001
0000
0010
0000
0000
0000
0100
0000
0000
0100
0000
0000
2000
0000
3000
0000
1000
0000
0010
0000
0000
0000
0100
0000
0000
0100
0000
0000
,
0002
0000
0003
0000
0010
0000
0010
0000
0000
0000
0001
0000
0000
0001
0000
0000
2000
0000
3000
0000
1000
0000
0100
0000
0000
0000
0001
0000
0000
0100
0000
0000
,
2000
0000
3000
0000
0001
0000
1000
0000
0000
0000
0010
0000
0000
1000
0000
0000
0002
0000
0003
0000
0010
0000
0100
0000
0000
0000
2000
0000
0000
0000
3000
0000
,
1010
0010
1000
0100
1000
0010
0000
0010
,
0100
0001
0010
0001
0100
1000
0000
1000
,
0100
0001
1000
0001
0000
0001
0000
1000
,
0100
0000
0010
0000
0001
0000
1000
0000
0000
0000
1000
0010
1000
0000
0100
0000
,
0010
0100
0000
1000
0001
0010
1000
0010
,
0001
1000
0000
0010
1000
0001
0000
0010
,
0001
1000
1100
1000
0001
0100
0101
0100
,
0010
1000
1010
1000
0100
0010
0011
0001
,
2001
0000
3002
0000
2003
0000
3002
0000
0203
0000
0320
0000
0230
0300
0200
0000
,
0302
2003
3200
0302
0203
2300
3020
2030
,
3002
0203
2300
3200
0302
2003
3020
2030
,
3200
0000
2300
0000
3002
0000
2003
0000
3010
0000
0010
0000
0110
0000
0000
0110
,
0000
1001
0000
1001
0000
1001
0000
0000
,
1000
0010
1000
0010
2000
0000
0000
3001
,
1000
0120
0000
0000
,
1000
0000
0100
0000
,
1000
0100
0000
0000
,
1000
0000
0100
0000
,
1000
0100
0000
0000
,
1000
0000
0100
0000
,
1000
0000
0001
0000
,
1000
0000
0030
0000
1010
0001
0010
0001
,
0101
1000
0011
1010
,
0100
0000
0010
0000
1000
0001
1000
0000
2002
0000
3003
0000
0110
0000
0001
0000
,
0100
0000
0010
0000
1000
0000
0001
0010
0200
0000
0000
0302
0000
0000
0203
0000
,
0000
0300
2000
0000
0000
3000
0000
0000
1010
0000
0100
0000
0001
0000
0100
0000
,
0110
0001
1010
1100
,
0010
0000
0100
0000
1000
0100
0010
0000
0002
0000
1000
0000
0103
0000
0000
0000
,
1010
0000
0010
0000
0100
0000
0010
0000
0002
0000
0000
0023
0000
0000
2030
0000
,
0000
3000
0002
0000
0000
0003
0000
0000
0000
0000
0101
0000
1001
0000
0000
0000
,
1010
1001
0000
0000
0000
0101
1001
0000
,
2020
0000
0000
3030
0000
1100
0110
0000
,
0011
0110
0000
0000
0000
1100
0110
0000
,
0022
0000
0000
0000
0000
0000
0000
0000
0033
0000
0000
0000
0001
0010
0100
1000
0001
0000
0000
0000
1000
0000
0000
0000
0010
0000
0000
0000
1000
0000
0000
0000
,
0001
0000
0010
0000
0100
0000
1000
0001
1000
0000
0100
0000
0001
0000
1000
0000
,
0010
0001
1000
0100
0110
0000
0101
0000
,
1010
0000
1000
0000
0001
0000
0000
0000
0200
0000
0000
0320
0000
0000
2030
0000
,
0000
3000
2000
0000
0000
3000
0000
0000
0011
0000
1000
0000
0100
0000
1000
0000
,
0100
0000
0000
0000
1000
0000
0001
0100
0001
0000
0010
0000
0001
0000
1000
0100
,
0010
0001
0002
0000
1003
0100
0010
0100
,
1000
0000
0010
0000
0100
0001
0100
0000
0020
0000
0000
2030
0000
0000
3200
0000
,
0000
0300
0020
0000
0000
0030
0000
0000
1002
0000
0000
0000
0000
0000
0000
0000
,
0203
2300
3200
0000
,
0300
0000
0000
0000
;

//---------------dance-single - ----------------
#NOTES:
     dance-single:
     :
     Challenge:
     17:
     0.541258,1.032545,0.543445,0.872574,0.313820,495.000000,424.000000,71.000000,114.000000,0.000000,0.000000,0.541258,1.032545,0.543445,0.872574,0.313820,495.000000,424.000000,71.000000,114.000000,0.000000,0.000000:
0000
0000
0000
0000
,
0000
0000
0000
0000
,
0000
0000
0000
0000
,
0020
0000
0000
0000
,
0000
0000
0000
0000
,
0000
0000
0000
0000
,
0000
0000
0000
0030
,
0000
0101
1100
0000
,
1010
0011
0000
0000
,
0000
0011
1010
0000
,
2002
0000
0000
3003
,
0000
0101
1100
0000
,
1010
0011
0000
0000
,
0000
1100
0101
0000
,
0220
0000
0000
0000
0000
0000
0000
0000
0030
0000
0000
0000
0301
1000
0001
1000
,
0020
0000
0130
0000
1001
0000
1000
0000
0001
0000
0000
0000
0010
0000
0100
1000
,
0100
0001
0100
1000
0001
0000
0101
0000
,
1020
0000
0000
0000
0130
0000
0001
0000
0010
0000
0001
0000
1000
0000
0100
0010
,
0200
0000
0300
2200
0000
3300
2002
0000
3003
0000
0022
0000
0033
0000
0000
0000
,
1001
0000
0010
0000
0100
0000
1000
0000
0100
0000
0010
0000
0001
0000
1000
0010
,
1000
0000
0001
0000
0010
0000
0100
0100
0020
0000
0032
0000
0203
0000
0300
0000
,
1010
0000
0001
0000
0100
0000
0010
0000
0001
0000
0010
0000
0100
0001
0100
0000
,
0210
0000
0000
0302
0000
0000
2003
3000
1200
0000
0000
0320
0000
0000
0032
0003
,
2001
0000
0000
3020
0000
0000
0032
0000
0023
0000
0000
2030
0000
3000
0200
0300
,
0011
0000
0000
0000
0010
0000
0100
0000
0001
0000
0100
0000
0010
0100
0000
0000
2000
0000
0000
0000
3001
0000
0100
0000
0001
0000
0010
0000
0001
0100
0000
0000
,
0020
0000
0000
0000
1030
0000
0100
0000
0010
0000
0100
0000
1000
0001
0000
0000
0020
0000
0000
0000
0031
0000
0100
0000
0010
0000
0100
0000
0001
1000
0000
1000
,
0100
0000
0001
0000
0100
0000
1000
0000
0001
0000
0100
0000
0010
0100
0000
0001
1000
0000
0010
0000
0100
0000
0010
0000
1000
0000
0001
0000
0010
0100
0000
1000
,
0001
0000
0100
0000
0010
0000
1000
0000
0100
0000
0100
0000
0010
0100
0000
0010
0001
0000
1000
0000
0001
0000
0100
0000
0010
1000
0002
0000
0000
0000
0003
0000
,
1001
0000
0000
1000
0100
0000
0020
0000
0030
0100
1000
0000
0001
0000
0100
0001
,
0010
0100
1000
0000
1010
0000
0100
0000
0001
0000
1000
0000
0100
1000
0000
0010
,
0100
0000
0000
0100
0000
0001
1000
0001
0010
0000
1000
0000
0010
0001
0000
1000
,
0100
0010
0100
0000
1000
0000
0001
0000
1000
0000
0010
0010
1000
0000
0001
0100
,
0010
0000
1000
0000
1001
0000
0001
0000
0000
0000
0001
0000
0010
0000
0100
0010
,
0001
0000
1000
0000
0010
0000
0100
1000
0100
0000
0010
0000
1000
0000
0100
0001
,
0100
0000
1000
0001
0000
0010
0001
0000
0000
0000
0001
0000
1000
0000
0100
1000
,
0100
0000
0010
1000
0000
0001
1000
0000
0100
0000
0220
0000
0000
0000
0330
0000
,
0002
0203
0302
0023
0230
2300
3020
2030
,
3200
0000
0000
0302
0000
0000
2003
0000
0000
3020
0000
0000
0032
0000
0000
2003
0000
0000
3020
0000
0000
0230
0000
0001
,
2300
3200
2300
3020
0230
0302
0023
0032
,
0203
0000
2300
0000
3002
0000
0023
0000
2030
3000
2000
3000
0002
0000
0003
0002
,
0000
0003
0220
0000
0000
0330
0220
0000
0000
0330
2002
0000
0000
0000
3003
0000
,
0010
0001
0100
0010
1000
0100
0010
0001
,
0100
0010
0200
0000
0000
0000
0000
0000
,
0001
0000
1000
0000
,
0010
0001
0000
0000
,
0010
0000
1000
0000
,
0010
0001
0000
0000
,
1000
0000
0001
0000
,
0010
1000
0010
0001
,
0310
0000
0100
0000
1001
0010
0001
0100
,
0010
0000
1000
0000
1000
0000
1000
0001
0100
0000
0010
0000
0100
0000
0001
0000
,
0000
0000
0010
0000
0010
0001
0010
0000
2100
0000
3001
0000
0100
0000
0001
0000
,
1000
0000
0100
0000
0100
0000
0100
0000
2020
0000
3030
0220
0000
0330
0202
0000
,
0303
1200
0000
1300
0001
0010
0100
0010
,
0001
1000
1000
1000
1001
0010
0110
0000
,
0100
0000
0001
0000
1000
0001
1000
0000
0002
0000
0103
0000
1010
0000
0100
0000
,
0011
0000
0100
0000
1000
0000
0100
0000
0002
0000
0003
0002
0000
0003
0002
0000
,
0003
0000
1200
0000
0000
0300
1000
0000
0010
0000
0011
0000
0101
0000
0000
0000
,
1100
1010
0000
0000
0000
1010
1100
0000
,
0220
0000
0000
0330
0000
0101
1100
0000
,
1010
0011
0000
0000
0000
0101
1100
0000
,
2002
0000
0000
0000
0000
0000
0000
0000
3003
0000
0000
0000
0010
0001
0100
0010
1000
0000
0000
0000
0100
0000
0000
0000
0100
0000
0000
0000
0100
0000
0000
0000
,
1000
0000
0001
0000
0010
0000
0001
0100
0010
0000
0100
0000
0001
0000
0010
0000
,
0100
1000
0010
0001
1000
0100
0101
0001
,
0011
0000
0010
0000
0100
0000
1000
0000
2200
0000
3300
0202
0000
0303
0022
0000
,
0033
0000
0220
0000
0000
0330
0000
0000
1001
0000
0010
0000
0100
0000
1000
0000
,
0001
0000
1000
0000
0100
0000
1000
0010
0001
0000
0010
0000
1000
0000
0100
0001
,
0100
0000
1000
0000
0020
0000
0000
0000
0130
0000
0100
0000
1001
0000
0020
0030
,
1001
0000
1000
0000
0001
0010
0001
0000
0022
0000
0033
2020
0000
3030
2200
0000
,
3300
0000
0202
0000
0000
0303
0000
0000
0020
0000
0000
0000
0000
0000
0000
0000
,
2030
3002
0203
0000
,
0300
0000
0000
0000
;
