#TITLE:The Big Black;
#SUBTITLE:;
#ARTIST:The Quick Brown Fox;
#TITLETRANSLIT:;
#SUBTITLETRANSLIT:;
#ARTISTTRANSLIT:;
#GENRE:;
#CREDIT:;
#BANNER:big black-bn.png;
#BACKGROUND:big black-bg.png;
#LYRICSPATH:;
#CDTITLE:;
#MUSIC:The Big Black.ogg;
#OFFSET:0.000000;
#SAMPLESTART:7.333000;
#SAMPLELENGTH:12.000000;
#SELECTABLE:YES;
#BPMS:0.000000=34.000000
,4.000000=180.000000
,40.000000=360.500000
,168.000000=45.125000
,176.000000=90.000000
,192.000000=180.000000
,196.000000=360.250000
,324.000000=45.125000
,332.000000=90.000000
,348.000000=180.000000
,384.000000=360.500000
,512.000000=180.000000
,513.000000=90.000000
,513.500000=45.000000
;
#STOPS:
;
#BGCHANGES:;
#KEYSOUNDS:;
#ATTACKS:;

//---------------dance-single - Osu!----------------
#NOTES:
     dance-single:
     :
     Edit:
     21:
     1.189392,2.859407,0.095856,0.075315,1.314591,1216.000000,1202.000000,14.000000,11.000000,0.000000,0.000000,1.189392,2.859407,0.095856,0.075315,1.314591,1216.000000,1202.000000,14.000000,11.000000,0.000000,0.000000:
0000
0000
0000
0000
,
0001
0010
1000
0010
0001
0000
0100
0010
1000
0000
0001
1000
0100
0000
0100
0000
,
1000
0010
0001
0010
1000
0000
0001
0100
1000
0000
0100
0001
0010
0000
0100
0000
,
0001
0100
1000
0100
0001
0000
1000
0010
0001
0000
0010
0100
1000
0000
1000
0000
,
0100
0010
0001
0100
0010
1000
0001
0100
0010
0100
1000
0001
0010
0100
0010
1000
,
1001
0001
0010
0100
0010
0000
0001
0000
1000
0000
1000
0000
0100
0000
0100
0000
,
0010
0100
1000
0010
0001
0000
0010
1000
0001
0000
0010
0000
0100
0000
1000
0000
,
1010
0001
0010
0100
1000
0000
0100
0010
0011
0000
1000
0000
0010
0000
0100
0000
,
0001
0000
0000
0010
0000
0000
1000
0000
0000
0001
0000
0000
0100
0000
0000
0010
0000
0000
0001
0000
0000
1000
0000
0000
0100
0000
0000
0010
0000
0000
0001
0000
0000
0100
0000
0000
0010
0000
1000
0000
0010
0000
1000
0000
0010
0000
1000
0000
,
0100
0000
0000
0000
0000
0000
0000
0000
0000
0000
0000
0000
0110
0000
0000
0000
0000
0000
0100
0010
0100
0010
0000
0000
,
0100
0001
0100
0010
1000
0010
0100
0001
,
0100
0001
0100
0010
1000
0010
0100
0000
,
1000
0100
1000
0100
0010
0001
0010
0100
,
1000
0100
1000
0100
0010
0001
0010
0000
,
0001
0100
1000
0100
0001
1000
0001
0100
,
1000
0100
0001
1000
0001
0100
1000
0100
,
0001
0010
1000
0010
0001
1000
0001
0010
,
1000
0010
0001
1000
0001
0010
0100
1000
,
0010
0100
1000
0001
1000
0100
0010
1000
,
0100
0010
0001
1000
0010
0100
0001
0100
,
0010
0001
1000
0001
0010
0100
0001
0010
,
0100
1000
0100
0010
0001
0010
0001
0010
,
0001
0100
1000
0100
0001
0010
0100
1000
,
0001
0100
1000
0100
0001
0010
0100
1000
,
0001
0100
0010
0001
1000
0001
0010
0100
,
0001
0010
0100
1000
0001
0010
0100
1000
,
0010
0001
1000
0100
0001
0010
1000
0001
,
0100
1000
0010
0001
1000
0001
0010
1000
,
0001
0100
1000
0001
1000
0100
0001
0010
,
0100
0000
0000
1000
0000
0000
0010
0000
0000
0100
0000
0000
0001
0100
0001
0100
0000
0000
0010
0000
0000
1000
0000
0000
,
0100
0010
1000
0010
0001
0010
0100
0001
,
0100
1000
0010
0100
1000
0100
0010
0001
,
0010
1000
0001
0100
0010
1000
0100
0010
,
0001
0010
0100
1000
0001
0010
0100
0000
,
1000
0100
0001
1000
0010
0100
1000
0010
,
0001
1000
0100
0010
1000
0100
0010
0000
,
0001
0100
1000
0001
0010
0100
0001
0010
,
1000
0001
0100
0010
0001
0100
0010
0001
,
1000
0001
1000
0001
0010
0100
0010
0100
,
1000
0001
1000
0001
0100
0010
0100
0010
,
1000
0010
0100
0001
,
1000
0100
0010
0001
,
1001
0000
0000
0000
,
0000
0000
0000
0000
,
1000
0100
0010
0001
0010
0100
1000
0001
1000
0100
0010
0001
0010
0100
1000
0000
0001
0100
0010
1000
0010
0100
0001
1000
0001
0100
0010
1000
0010
0100
0001
0000
,
0010
0001
1000
0100
1000
0001
0010
0001
1000
0100
1000
0001
0010
0001
1000
0000
0010
1000
0001
0100
0001
1000
0010
1000
0001
0100
0001
1000
0010
1000
0100
0000
,
0010
0001
0100
1000
0100
0001
1000
0001
1000
0100
0001
0100
1000
0001
1000
0001
0010
1000
0010
0001
1000
0001
1000
0010
0001
0010
1000
0100
0010
0001
0010
0100
,
1000
0100
0010
0001
1000
0100
0001
0100
1000
0001
0010
0100
1000
0001
0010
0100
2000
0000
3020
0000
0032
0000
0203
0000
2300
0000
3020
0000
0032
0000
0103
0000
,
1010
0000
0000
0000
0000
0000
0000
0000
0101
0000
0000
0000
1000
0010
1000
0000
,
0001
0010
0001
0010
0001
0010
0001
0010
0001
0010
0001
0010
,
0001
0000
0000
0100
0000
0000
0010
1000
0010
1000
0000
0000
,
0001
0010
0001
0010
0001
0010
0001
0010
0001
0010
0001
0010
,
0001
0010
0001
1000
0000
0000
0001
0100
0001
0100
0000
0000
,
0010
1000
0010
1000
0010
1000
0010
1000
0010
1000
0010
1000
,
0010
0000
0000
0100
0000
0000
0001
0010
0001
0010
0000
0000
,
0100
0000
0000
0110
0000
0000
1000
0100
0010
0001
0000
0000
,
0001
0010
0100
1000
0000
0000
1000
0000
0000
0001
0000
0000
,
1000
0100
0001
0000
0001
0100
1000
0000
,
0010
0100
0001
0100
,
0010
0000
0000
1000
0010
1000
0010
0000
0000
1000
0000
0000
,
0100
0010
0100
0010
0000
0000
0001
1000
0001
1000
0000
0000
,
0010
0100
0010
0100
0010
0100
0010
0000
1000
0100
1000
0100
,
1000
0100
1000
0100
0000
0000
0010
0001
1000
0100
0010
0001
,
1000
0000
0000
0100
0000
0000
0001
0000
0000
0100
0000
0000
0010
0000
1000
0000
0010
0000
0001
0000
0000
0100
0000
0000
,
1000
0000
0100
0000
0010
0000
0001
0000
0000
0010
0000
0000
1000
0000
0000
0010
0000
0000
0100
0000
0000
0000
0000
0000
,
0001
0100
0010
1000
0010
0100
0001
0100
0010
1000
0010
0100
,
0001
0000
0000
0001
0000
0000
0010
0100
0010
0100
0000
0000
,
1000
0100
0010
0001
0010
0100
1000
0100
0010
0001
0010
0100
,
1000
0000
0000
0010
0000
0000
0100
0001
1000
0010
0000
0000
,
1000
0100
0001
0100
1000
0100
0001
0000
0000
0100
0000
0000
,
1000
0010
0001
0010
1000
0010
0001
0000
0000
0010
0000
0000
,
1000
0100
0001
0000
1000
0010
0001
0000
,
1000
0000
0000
0100
0010
0100
0010
0000
0000
0001
0000
0000
,
0010
0100
1000
0000
0100
0010
0001
0000
,
0011
1010
0101
1100
,
0001
0010
0001
0010
0001
0010
0001
0000
0000
1000
0000
0000
,
0010
1000
0010
1000
0000
0000
0001
0100
0001
0100
0000
0000
,
0010
0000
1000
0000
0010
0000
1000
0000
0000
0001
0000
0000
0010
0000
0100
0000
0010
0000
0100
0000
0010
0000
0100
0000
,
0010
0000
0100
0000
0010
0000
0100
0000
0000
0000
0000
0000
1000
0000
0000
0000
0000
0000
0001
0000
0000
0100
0000
0000
,
0010
1000
0100
0010
0001
0010
0100
1000
,
0010
0100
0001
0100
0010
1000
0100
0000
,
0011
0000
0000
0000
,
0000
0000
0000
0000
,
0100
1000
0010
0001
0010
1000
0100
1000
0100
1000
0010
0001
0010
0100
1000
0100
1000
0100
0001
0100
1000
0010
1000
0010
1000
0100
0001
0100
1000
0010
1000
0010
,
0100
0001
0100
0001
0010
1000
0010
0001
0100
0001
0100
0001
0010
1000
0010
0001
0100
0001
0100
0001
0100
1000
0100
0001
0010
0001
0100
0001
0100
1000
0100
0001
,
0010
1000
0010
0001
0010
0001
0100
0001
0010
1000
0010
0001
0010
0001
0100
0001
1000
0010
0001
0010
1000
0010
1000
0100
1000
0010
0001
0010
1000
0010
1000
0100
,
0010
0001
0010
0100
1000
0100
0010
0001
0010
0100
1000
0010
0100
0001
0010
0100
1000
0010
1000
0000
0001
0010
0001
0000
1000
0100
1000
0000
0001
0100
0001
0000
,
1000
0100
0001
0100
1000
0000
0001
0100
1000
0000
1000
0100
0001
0000
0001
0000
,
1000
0010
0001
0010
1000
0000
1000
0100
0001
0000
0001
0100
1000
0000
1000
0000
,
0010
0100
0001
0100
0010
0000
1000
0100
0010
0000
0001
0010
0100
0000
1000
0000
,
0010
0001
1000
0100
0001
0010
1000
0001
0100
1000
0010
0100
0001
0010
0100
1000
,
0100
0001
0100
1000
0010
0000
0100
0001
0100
0000
0010
1000
0010
0000
0100
0000
,
0010
1000
0100
0001
0100
0000
1000
0010
0001
0000
1000
0100
0001
0000
0010
0000
,
0100
0010
0100
0010
0100
0000
1000
0000
0001
0100
0001
0100
0001
0000
0010
0000
,
0100
0000
0000
1000
0000
0000
0100
0000
0000
0001
0000
0000
0100
0000
0000
1000
0000
0000
0010
0000
0000
0001
0000
0000
0010
0000
0000
1000
0000
0000
0100
0000
0000
0010
0000
0000
0001
0000
0010
0000
0001
0000
0010
0000
0001
0000
0010
0000
,
0001
0000
0000
0000
0000
0000
0000
0000
1000
0000
0000
0000
0010
0100
0010
0000
,
0001
0010
1000
0010
0100
0001
0010
0100
,
1000
0000
0000
0100
0000
0000
0001
0000
0000
0100
0000
0000
1000
0000
0010
0000
1000
0000
0010
0000
0000
0100
0000
0000
,
0001
0010
0100
1000
0010
0001
0010
1000
,
0100
0000
0000
0001
0000
0000
0010
0000
0000
0100
0000
0000
1000
0000
0010
0000
0100
0000
0001
0000
0000
0000
0000
0000
,
0001
0010
0100
0010
0100
1000
0100
0010
,
0100
0010
0001
1000
0010
0100
0010
0100
,
0001
0100
0010
0100
0010
1000
0100
0010
,
0001
0010
0100
0001
0100
1000
0010
0100
,
0001
0010
0001
0010
0100
1000
0100
1000
,
0010
0000
0000
0100
0000
0000
0010
0000
0000
0100
0000
0000
0001
0000
0100
0000
0001
0000
0100
0000
0000
0010
0000
0000
,
1000
0010
1000
0010
0100
0000
0001
0010
,
0001
0000
0000
0000
1000
0000
0100
0000
1000
0010
0000
0000
0100
0001
0000
0000
,
1000
0100
0001
0100
1000
0000
0010
0001
,
1000
0000
0100
0001
0010
0000
0010
0000
,
0001
1000
0010
0100
0001
1000
0010
0100
,
0001
0000
0000
0010
0000
0000
0100
0000
0000
1000
0000
0000
0100
0000
0010
0000
0001
0000
1000
0000
0000
0000
0000
0000
,
0010
0100
0001
0010
2000
0000
0001
3020
,
0031
0000
1000
0010
0100
0000
0100
0000
,
0001
0100
1000
0010
0001
0000
0010
1000
,
0001
0000
0000
0000
0000
0000
0100
0000
0000
0001
0000
0000
0010
0000
1000
0000
0001
0000
0100
0000
0000
0000
0000
0000
,
1000
0010
0100
0001
0010
0000
0010
0001
,
0100
0000
0100
0001
0010
0000
0010
0000
,
1000
0100
0100
0001
1000
0010
0010
0001
,
1000
0100
0100
0001
1000
0010
0010
0001
,
1000
0100
0010
0001
1000
0000
0001
0100
,
1000
0000
0000
0000
0000
0000
1000
0000
0000
0100
0000
0000
0001
0000
1000
0000
0001
0000
1000
0000
0000
0010
0000
0000
,
1000
0000
0010
0000
0001
0000
1000
0000
0100
0000
0000
0100
0010
0000
0000
0000
,
0010
0000
0000
0000
0000
0000
0010
0000
0000
1000
0000
0000
0100
0000
0010
0000
0100
0000
0010
0000
0000
0000
0000
0000
,
0001
0010
1000
0100
1000
0010
0001
0100
,
1000
0010
1000
0100
0001
0010
0100
1000
,
0100
0010
0001
1000
0100
0010
0001
0100
,
0010
1000
0010
0100
0001
0000
0000
0000
,
2002
0000
3003
0000
;

//---------------dance-single - ----------------
#NOTES:
     dance-single:
     :
     Beginner:
     3:
     0.070425,0.219954,0.047928,0.082162,0.000000,72.000000,65.000000,7.000000,12.000000,0.000000,0.000000,0.070425,0.219954,0.047928,0.082162,0.000000,72.000000,65.000000,7.000000,12.000000,0.000000,0.000000:
0000
0000
0000
0000
,
0010
0000
0000
0000
,
0000
0000
0000
0000
,
0000
0000
0000
0000
,
0000
0000
0000
0000
,
0110
0110
0000
0000
,
0000
0000
0000
0000
,
0100
0000
0000
0000
,
0100
0000
0000
0000
,
0000
0000
0000
0000
,
0001
0000
0000
0000
,
0000
0000
0000
0000
,
0000
0000
0000
0000
,
0000
0000
0000
0000
,
1000
0000
0000
0000
,
0000
0000
0000
0000
,
0000
0000
0000
0000
,
0000
0000
0000
0000
,
0001
0000
0000
0000
,
0000
0000
0000
0000
,
1000
0000
0000
0000
,
0000
0000
0000
0000
,
0001
0000
0000
0000
,
0000
0000
0000
0000
,
1000
0000
0000
0000
,
0000
0000
0000
0000
,
0010
0000
0000
0000
,
0000
0000
0000
0000
,
0010
0000
0000
0000
,
0000
0000
0000
0000
,
0100
0000
0000
0000
,
0000
0000
0000
0000
,
0100
0000
0000
0000
,
0000
0000
0000
0000
,
0010
0000
0000
0000
,
0000
0000
0000
0000
,
0100
0000
0000
0000
,
0000
0000
0000
0000
,
0010
0000
0000
0000
,
0000
0000
0000
0000
,
0000
0000
0000
0000
,
0000
0000
0000
0000
,
1001
0000
0000
0000
,
0000
0000
0000
0000
,
0020
0000
0000
0000
,
0000
0000
0030
0000
,
0010
0000
1000
0000
,
0010
0000
0000
0000
,
0100
0000
0000
0000
,
0200
0000
0000
0000
,
0000
0000
0000
0000
,
0300
0000
0000
0000
,
0000
0000
0000
0000
,
0200
0000
0000
0000
,
0000
0000
0000
0000
,
0300
0000
0000
0000
,
0000
0000
0000
0000
,
0002
0000
0000
0000
,
0000
0000
0000
0000
,
0003
0000
0000
0000
,
0000
0000
0000
0000
,
0002
0000
0000
0000
,
0000
0000
0000
0000
,
0003
0000
0000
0000
,
0000
0000
0000
0000
,
2000
0000
0000
0000
,
0000
0000
0000
0000
,
3000
0000
0000
0000
,
0000
0000
0000
0000
,
2000
0000
0000
0000
,
0000
0000
0000
0000
,
3000
0000
0000
0000
,
0000
0000
0000
0000
,
0020
0000
0000
0000
,
0000
0000
0000
0000
,
0030
0000
0000
0000
,
0000
0000
0000
0000
,
0020
0000
0000
0000
,
0000
0000
0000
0000
,
0030
0000
0000
0000
,
0000
0000
0000
0000
,
0110
0000
0000
0000
,
0000
0000
0000
0000
,
0002
0000
0000
0000
,
0000
0000
0003
0000
,
0001
0000
0100
0000
,
0001
0000
0000
0000
,
1000
0000
0000
0000
,
0000
0000
0000
0000
,
0001
0000
0000
0000
,
0000
0000
0000
0000
,
1001
1001
0000
0000
,
0000
0000
0000
0000
,
0010
0000
0000
0000
,
0000
0000
0000
0000
,
0100
0000
0000
0000
,
0010
0000
0000
0000
,
0010
0000
0000
0000
,
0010
0000
0000
0000
,
0000
0000
0000
0000
,
0001
0000
0000
0000
,
0001
0000
0000
0000
,
0001
0000
0000
0000
,
0000
0000
0000
0000
,
1000
0000
0000
0000
,
1000
0000
0000
0000
,
1000
0000
0000
0000
,
0000
0000
0000
0000
,
0100
0000
0000
0000
,
0100
0000
0000
0000
,
0100
0000
0000
0000
,
0000
0000
0000
0000
,
0010
0000
0000
0000
,
0000
0000
0000
0000
,
0001
0000
0000
0000
,
0000
0000
0000
0000
,
1000
0000
0000
0000
,
0000
0000
0000
0000
,
0100
0000
0000
0000
,
0000
0000
0000
0000
,
0010
0000
0000
0000
,
0000
0000
0000
0000
,
0001
0000
0000
0000
,
0000
0000
0000
0000
,
1000
0000
0000
0000
,
0000
0000
0000
0000
,
0001
0000
0000
0000
,
1000
0000
0000
0000
,
0220
0000
0330
0000
;

//---------------dance-single - ----------------
#NOTES:
     dance-single:
     :
     Easy:
     9:
     0.363860,0.615872,0.205405,0.280720,0.000000,372.000000,342.000000,30.000000,41.000000,0.000000,0.000000,0.363860,0.615872,0.205405,0.280720,0.000000,372.000000,342.000000,30.000000,41.000000,0.000000,0.000000:
0000
0000
0000
0000
,
1001
0000
1000
0000
0001
0010
0100
0000
,
1000
0000
0100
0000
0010
0001
1000
0000
,
0001
0000
0100
0000
0010
1000
0001
0000
,
0100
0001
1000
0000
0010
1000
0001
0000
,
1001
0000
0110
0000
0100
0010
0100
0000
,
0010
0000
1000
0000
0001
1000
0001
0000
,
1001
0000
1001
0000
,
1001
0110
1001
0110
,
1001
0000
0110
0000
,
1000
0100
1000
0000
,
0100
0010
0100
0000
,
1000
0100
1000
0000
,
0100
0010
0100
0000
,
0010
0001
0010
0000
,
0100
0010
0100
0000
,
0010
0001
0010
0000
,
0100
0010
0100
0000
,
1000
0001
1000
0000
,
0001
1000
0001
0000
,
1000
0010
1000
0000
,
0010
1000
0010
0000
,
0100
0001
0100
0000
,
0001
0100
0001
0000
,
0100
0010
0100
0000
,
0010
0100
0010
0000
,
1000
0001
1000
0000
,
0001
0100
0001
0000
,
1000
0001
1000
0000
,
0010
1000
0010
0000
,
0100
0010
0100
0000
,
0001
0100
0001
0000
,
1000
0010
1000
0000
,
0001
0100
0001
0000
,
1000
0100
1000
0000
,
0001
0010
0001
0000
,
1000
0100
1000
0000
,
0001
0010
0001
0000
,
1000
0010
1000
0000
,
0001
0100
0001
0000
,
1000
0100
1000
0000
,
0001
1000
0001
0000
,
1001
0000
0000
0000
,
0000
0000
0000
0000
,
0020
0000
0000
0000
,
0000
0000
0000
0000
,
2030
0000
3200
0000
,
0320
0000
0000
0030
,
0110
0000
1001
0000
,
0200
0000
0000
0000
,
0301
0000
0100
0000
,
0020
0000
0000
0000
,
1030
0000
0001
0000
,
0020
0000
0000
0000
,
0130
0000
1000
0000
,
0020
0000
0000
0000
,
0130
0000
0001
0000
,
2000
3000
2000
3000
,
0002
0003
0002
0003
,
0200
0300
0200
0300
,
0020
0030
0020
0030
,
2000
0000
0001
0000
,
3001
0000
0001
0000
,
0002
0000
1000
0000
,
1003
0000
1001
0000
,
0200
0000
0010
0000
,
0310
0000
1000
0000
,
0200
0000
0010
0000
,
0310
0000
0001
0000
,
0020
0000
0100
0000
,
0130
0000
1000
0000
,
0020
0000
0100
0000
,
0130
0000
0001
0000
,
2000
0000
0000
0000
,
3200
0000
0000
0000
,
0320
0000
0000
0000
,
0032
0000
0000
0000
,
0023
0000
0230
0000
,
2300
0000
3200
0000
,
0320
0000
0032
0000
,
0023
0230
1300
0000
,
1100
0000
0000
0000
,
0000
0000
0000
0000
,
1001
2002
0000
0000
0000
0000
0000
0000
,
0000
0000
0000
3003
,
0200
0000
0320
0000
,
2030
0000
3000
0000
,
1001
0000
1000
0000
0100
0010
0001
0000
,
1000
0000
0001
0000
0010
0100
1000
0000
,
0010
0000
0100
0000
0001
1000
0010
0000
,
1000
0001
0100
0000
0001
1000
0010
0000
,
0110
0000
1001
0000
1000
0001
1000
0000
,
0001
0000
0010
0000
0100
1000
0100
0000
,
0110
0000
0110
0000
,
1001
0110
1001
0110
,
1001
0000
0110
0000
,
1000
0000
0010
0000
,
0100
0001
0100
0000
,
0001
0000
0010
0000
,
0100
1000
0100
0000
,
0010
0000
0001
0000
,
1000
0001
1000
0000
,
0010
1000
0001
0000
,
0100
0001
1000
0000
,
0010
0000
0100
0000
,
0001
0010
0001
0000
,
0100
0000
0010
0000
,
1000
0100
1000
0000
,
0010
0000
1000
0000
,
0001
1000
0100
0000
,
1000
0001
0010
0000
,
0001
1000
0100
0000
,
0010
0001
0010
0100
,
1000
0100
0010
0000
,
0001
0100
0010
1000
,
0010
0100
0001
0000
,
1000
0100
0010
0001
,
0010
0100
1000
0000
,
0010
0100
0010
0000
,
1000
0001
1000
0000
,
0001
0010
0001
0010
,
0100
0010
0100
0000
,
1000
0010
1000
0010
,
0100
0010
0100
0000
,
0001
0100
0001
0100
,
0010
1000
0010
0000
,
1000
0100
0010
0001
,
0100
0010
1000
0000
,
2002
0000
3003
0000
;

//---------------dance-single - ----------------
#NOTES:
     dance-single:
     :
     Medium:
     15:
     0.554593,0.791836,0.314954,0.095856,0.000000,567.000000,521.000000,46.000000,14.000000,0.000000,0.000000,0.554593,0.791836,0.314954,0.095856,0.000000,567.000000,521.000000,46.000000,14.000000,0.000000,0.000000:
0000
0000
0000
0000
,
0010
1000
0001
0000
0010
0100
1000
0100
,
0010
0001
1000
0000
0010
0100
0001
0100
,
0010
1000
0100
0000
0010
0001
0100
0010
,
1000
0100
0010
0001
0100
0010
1000
0000
,
1001
0000
0101
0000
1000
0010
0100
0000
,
0001
0010
0100
0000
1000
0010
0100
0000
,
1001
0001
1000
0000
1001
1000
0001
0000
,
0011
1001
1100
0110
,
0011
0000
1000
0000
,
0100
1000
0010
1000
,
0100
0000
1000
0000
0010
1000
0001
0000
,
0100
0001
0010
0001
,
0100
0001
0010
0100
,
1000
0010
0100
0010
,
1000
0000
0010
0000
0100
0010
0100
0000
,
0001
0010
0100
0010
,
0001
0010
0100
0000
,
0010
0001
1000
0010
,
1000
0001
0100
0010
,
1000
0100
0010
0100
,
1000
0001
0010
0001
,
0100
0010
1000
0010
,
1000
0000
0001
0000
1000
0001
0100
0000
,
0001
0100
0010
0100
,
0010
1000
1001
0000
,
0001
0010
0001
0010
,
0001
0010
1000
0010
,
0001
1000
0010
1000
,
0010
0001
0010
1000
,
0001
0100
0001
0100
,
0001
0100
1000
0100
,
0001
1000
0100
1000
,
0100
0001
0100
1000
,
0010
1000
0010
1000
,
0001
0100
0001
0100
,
0010
0100
0010
0100
,
0001
0010
0001
0010
,
0100
0010
0100
0000
1000
0000
0100
0000
,
1000
0100
1000
0010
,
0100
0010
0100
0000
0001
0000
0100
0000
,
0001
0100
0001
0010
,
0110
0000
0000
0000
,
0000
0000
0000
0000
,
1100
0202
0000
0000
0000
0000
0000
0000
,
0000
0000
0000
0300
,
2003
0000
3020
0000
,
0230
0000
0000
0010
0002
0000
0000
0303
,
0101
0000
1100
0000
,
0001
0010
0001
0000
1000
0000
1000
0000
,
0001
0000
0001
0000
1000
0001
1000
0000
,
0010
1000
0010
0000
0100
0000
0100
0000
,
0010
0010
0100
0001
,
0010
0100
0010
0000
0001
0000
0001
0000
,
1000
1000
0010
0010
,
0100
0001
0100
0000
0001
0000
0001
0000
,
1000
1000
1100
1100
,
0100
0001
0100
1000
,
0001
1000
0001
1000
,
0010
0001
0010
1000
,
0100
0010
0100
0010
,
0001
1000
0001
1000
,
0010
0100
0001
0010
,
0100
1000
0010
0100
,
0001
1000
0001
1000
0001
0000
0000
0000
,
1000
0010
1000
0010
1000
0000
0001
0000
,
0100
0001
0010
0100
,
1000
0100
1000
0100
1000
0000
0001
0000
,
0010
0001
0100
0010
,
1000
0001
1000
0001
1000
0000
0100
0000
,
1000
0001
1000
0010
,
1000
1010
1010
1000
,
0001
0011
0011
0000
,
1001
1001
0001
0010
,
0100
1000
0100
0010
,
0110
0110
0100
1000
,
0100
0010
0001
1000
,
1001
0110
0100
0001
,
1000
0010
1000
0001
,
1001
0110
0010
1000
,
0100
0010
0001
0000
,
0011
0000
0000
0000
,
0000
0000
0000
0000
,
1001
2002
0000
0000
0000
0000
0000
0000
,
0000
0000
0000
0003
,
3200
0000
0320
0000
,
0032
0000
0000
0010
2000
0000
3003
0000
,
0010
1000
0001
0000
0100
0010
1000
0100
,
0010
0001
1000
0000
0010
0100
0001
0010
,
0001
1000
0010
0000
1000
0100
0010
0100
,
1000
0100
0010
0001
1000
0100
0010
0000
,
0011
0000
1100
0000
1000
0010
0100
0000
,
0001
1000
0001
0000
1000
0010
0100
0000
,
0110
0001
0101
1000
,
1100
1001
0011
0110
,
1001
0000
1100
0000
,
0001
0001
1000
1000
,
0010
0100
0001
1000
,
0001
0001
1000
1000
,
0100
0000
0010
0000
0001
0010
0001
0000
,
1000
1000
0001
0001
,
1000
0010
0100
0001
,
1000
0100
0010
0001
,
1000
0010
0100
0001
,
0010
0010
0100
0100
,
1000
0010
0100
0001
,
0010
0010
0100
0100
,
1000
0100
1000
0001
,
0100
0100
0010
0010
,
1000
0001
1000
0010
,
0100
0001
1000
0001
,
0010
0000
0001
0000
1000
0001
1000
0000
,
1001
0000
0000
0000
0010
0000
0000
0100
,
0001
0001
0010
0010
,
0110
0000
0000
0000
0100
0000
0000
1000
,
0001
0010
0100
1000
,
1010
0000
0000
0000
0100
0000
0000
0001
,
0100
0100
0010
1000
,
0100
0100
0010
0001
,
0100
0010
0100
0000
0001
0000
0001
0000
,
1000
0100
1000
0000
0001
0000
0001
0000
,
1000
1000
0001
1000
,
0001
0010
0001
0000
0100
0000
0010
0000
,
1000
0010
0100
0001
,
1000
0010
1000
0000
0100
0000
0010
0000
,
0001
0010
0001
0000
0010
0000
0100
0000
,
1000
0001
0010
0000
0001
0000
1000
0000
,
0010
1000
0001
0000
0100
0000
0000
0000
,
0220
0000
0330
0000
;

//---------------dance-single - ----------------
#NOTES:
     dance-single:
     :
     Hard:
     18:
     0.776626,1.495690,0.157477,0.219099,0.287567,794.000000,771.000000,23.000000,32.000000,0.000000,0.000000,0.776626,1.495690,0.157477,0.219099,0.287567,794.000000,771.000000,23.000000,32.000000,0.000000,0.000000:
0000
0000
0000
0000
,
0010
0100
0010
0000
1000
0000
0000
0010
1000
0000
0001
0000
0100
0000
0001
0000
,
0010
0100
0010
0000
0001
0000
0000
0010
0001
0000
1000
0000
0100
0000
1000
0000
,
0001
1000
0001
0000
0010
0000
0000
0100
0010
0000
0001
0000
0100
0000
0100
0000
,
0001
0000
1000
0000
0100
0010
0001
0000
0100
0010
1000
0000
0100
0000
0000
0000
,
0110
0000
0000
0000
1001
0000
0000
0001
0100
0000
0100
0000
0010
0000
1000
0000
,
0100
0010
0100
0000
1000
0000
0000
0001
0010
0000
0010
0000
0100
0000
1000
0000
,
1100
0001
0011
0100
,
1001
1010
0110
0101
,
0011
0000
1100
0000
,
1000
0100
0010
0100
1000
0000
0001
0000
,
1000
0010
0100
0010
1000
0000
1000
0000
,
0001
0100
0010
0100
0001
0000
1000
0000
,
0001
0010
0100
0010
0001
0000
0001
0000
,
0100
0001
0010
0001
0100
0000
0010
0000
,
0100
0001
1000
0001
0100
0000
0010
0000
,
1000
0001
0010
0001
1000
0000
0100
0000
,
0010
0001
0100
0001
0010
0000
0010
0000
,
0100
1000
0010
1000
0100
0000
0010
0000
,
0001
1000
0010
1000
0001
0000
0100
0000
,
0010
1000
0100
1000
0010
0000
0100
0000
,
0001
1000
0001
0100
0001
0000
1000
0000
,
0010
1000
0001
0010
0100
0000
1000
0000
,
0010
0100
0001
1000
0010
0000
0100
0000
,
0100
0001
1000
0010
0100
0000
0010
0000
,
1000
0001
0010
0001
1000
0000
0010
0000
,
0100
0001
0010
0100
1000
0000
0010
0000
,
1000
0100
0010
0001
0100
0000
0010
0000
,
1000
0010
0100
0001
0010
0000
0100
0000
,
1000
0010
0100
0001
0010
0000
0010
0000
,
0001
0100
0010
1000
0100
0000
0010
0000
,
0001
0100
0010
1000
0100
0000
0010
0000
,
0001
0010
0100
1000
0100
0000
0010
0000
,
0100
0010
0001
1000
0010
0000
1000
0000
,
0010
0100
0001
1000
0100
0000
0010
0000
,
0100
1000
0001
0100
0010
0000
0010
0000
,
0100
0001
0010
0100
1000
0000
1000
0000
,
1000
0010
0100
0001
1000
0000
1000
0000
,
0010
1000
0001
0100
0001
1000
0010
1000
,
0001
0010
0001
1000
0100
1000
0001
0010
,
0100
1000
0100
0010
0001
1000
0010
0100
,
0001
1000
0100
0010
0001
0010
0100
1000
,
1001
0000
0000
0000
,
0000
0000
0000
0000
,
1000
0000
0100
0000
0001
0000
0100
0000
1000
0000
0100
0000
0001
0000
0100
0000
1000
0000
0010
0000
0001
0000
0010
0000
1000
0000
0010
0000
0001
0000
0010
1000
,
0001
0010
1000
0010
0001
0010
1000
0010
0001
0100
1000
0100
0001
0100
1000
0100
,
0001
0010
0001
0100
1000
0100
0001
0010
0100
1000
0010
0001
0010
1000
0100
0010
,
0001
0000
0100
0000
1000
0000
0100
0000
0001
0000
0010
0000
1000
0000
0010
0001
1000
0000
0100
0000
0001
0000
0100
0000
1000
0000
0010
0000
0001
0000
0010
0000
,
1000
0000
0001
0000
,
0200
0001
0001
1000
,
0001
1000
0302
2003
,
3200
1000
0001
1000
,
0001
1000
0310
0001
,
2000
0010
0010
0100
,
0010
0100
3010
0100
,
0001
0010
0001
1000
0001
0010
0100
1000
,
0001
1000
0100
1000
0001
0000
0001
0000
,
2000
0001
0010
0100
,
0010
0100
3010
0100
,
0002
0010
0010
0100
,
0010
0100
0013
0100
,
0200
0010
0001
1000
,
0001
1000
0301
1000
,
0002
0010
0100
2003
,
0010
0100
3001
0000
,
0020
1000
0100
0001
,
0100
1000
0130
0010
,
0200
1000
0010
0001
,
0010
1000
0010
0301
,
2000
0100
0001
0010
,
0001
3100
0010
0001
,
0002
0010
1000
0100
,
1000
0010
0103
0000
,
2000
0010
3002
0100
,
0023
1000
0001
1000
,
0032
1000
0203
0010
,
1000
0320
1000
0001
,
2030
0001
0100
0001
,
0010
0001
0100
0010
,
0100
0010
0100
0010
,
0100
0010
3100
0000
,
0011
0000
0000
0000
,
0000
0000
0000
0000
,
0010
1000
0100
1000
0010
1000
0100
1000
0001
0010
1000
0010
0001
0010
1000
0010
,
0100
1000
0010
1000
0100
1000
0010
1000
0001
0100
1000
0100
0001
0100
1000
0100
,
0010
0100
0001
0010
0001
0100
0001
0010
1000
0010
0001
0010
1000
0010
0001
0010
,
0100
1000
0001
1000
0100
1000
0001
1000
0010
0100
0001
0100
0010
0100
0001
0100
,
0010
0000
0000
0000
0010
0000
0000
1000
0001
0000
0001
0000
1000
0000
0100
0000
,
0010
0000
0000
0000
0010
0000
0000
0001
1000
0000
1000
0000
0001
0000
0100
0000
,
0010
0000
0000
0000
0010
0000
0000
1000
0001
0000
0001
0000
1000
0000
0100
0000
,
0010
0000
0100
0000
1000
0100
0010
0000
0001
0100
0010
0000
1000
0000
0001
0000
,
1001
0000
0000
0000
0110
0000
0000
0010
1000
0000
0001
0000
1000
0000
0100
0000
,
0001
0000
0100
0000
1000
0000
0000
0001
1000
0000
0010
0000
0100
0000
0001
0000
,
1010
0100
1001
0010
,
0101
0110
1010
1100
,
0101
0000
0011
0000
,
1000
0010
1000
0000
0100
0000
0000
0010
,
0100
0001
0100
1000
,
0001
0010
0001
0000
0100
0000
0000
0010
,
0100
0000
1000
0100
0001
0000
1000
0000
,
0001
1000
0001
0000
0100
0000
0000
0010
,
0100
1000
0100
0010
,
1000
0100
0010
0001
1000
0010
0100
0001
,
1000
0100
0010
0001
0100
0010
0100
0000
,
0001
0010
0001
0000
1000
0000
0000
0010
,
1000
1000
0010
0100
,
0001
0010
0001
0000
1000
0000
0000
0010
,
1000
1000
0100
0010
,
0100
0010
0100
0000
1000
0000
0000
0001
,
1000
0001
0010
0100
,
1000
0100
0010
0001
0100
0010
1000
0100
,
0010
0001
0100
0010
2000
0000
0001
0000
,
3001
0010
0001
0010
0100
0010
0100
0010
,
0100
1000
0100
1000
0002
0000
1000
0000
,
1003
0010
1000
0010
0100
0010
0100
0010
,
0100
0001
0100
0001
2000
0000
0001
0000
,
3001
0010
0001
0010
0001
1000
0001
1000
,
0010
1000
0010
1000
0020
0000
0100
0000
,
2030
0100
3020
0001
,
2030
0010
0100
3010
,
0100
0001
0010
0100
1000
0010
0100
0001
,
0020
0001
1000
0001
,
0031
0010
0100
1000
0001
0100
0010
1000
,
0002
0100
0010
0103
,
1000
0010
0100
0001
1000
0100
0001
0100
,
1000
0100
0010
0001
1000
0010
0001
0010
,
1000
0010
0100
0010
1000
0100
0010
0100
,
1000
0001
0010
0100
1000
0000
0000
0000
,
2002
0000
3003
0000
;

//---------------dance-single - ----------------
#NOTES:
     dance-single:
     :
     Challenge:
     19:
     1.049521,2.199544,0.349188,0.054775,0.825043,1073.000000,1022.000000,51.000000,8.000000,0.000000,0.000000,1.049521,2.199544,0.349188,0.054775,0.825043,1073.000000,1022.000000,51.000000,8.000000,0.000000,0.000000:
// measure 0
0000
0000
0000
0000
,  // measure 1
0001
0010
0001
0010
0100
0000
0000
0010
0100
0000
0100
0000
1000
0000
0010
0000
,  // measure 2
1000
0010
1000
0010
0100
0000
0000
0010
0100
0000
0001
1000
0100
0000
0010
0000
,  // measure 3
0001
0010
0001
0010
0100
0000
0000
1000
0100
0000
0100
1000
0001
0000
0001
0000
,  // measure 4
1000
0010
1000
0100
0010
0001
0100
0001
1000
0010
0100
0010
0001
0010
0100
0000
,  // measure 5
1100
0000
0000
0000
0101
0000
0000
1000
0001
0000
0100
0001
1000
0000
1000
0000
,  // measure 6
0001
0010
0001
0010
0100
0000
0000
0010
0100
0000
0010
0100
1000
0000
1000
0000
,  // measure 7
1010
0000
0100
0001
0100
0000
0000
0000
0011
0000
0100
1000
0100
0000
0000
0000
,  // measure 8
1001
0010
1001
0010
1001
0010
1001
0000
,  // measure 9
1001
0000
0000
0000
0000
0000
0000
0000
1001
0000
0000
0000
0100
0010
0100
0000
,  // measure 10
0001
0010
0001
0010
0100
1000
0100
1000
,  // measure 11
0001
0010
0001
0010
0100
1000
0100
1000
,  // measure 12
0010
1000
0010
1000
0001
0100
0001
0100
,  // measure 13
0010
1000
0010
1000
0001
0100
0001
0000
,  // measure 14
1000
0100
0010
0001
0010
0100
1000
0001
,  // measure 15
1000
0100
0010
0001
0010
0100
1000
0010
,  // measure 16
0100
0001
1000
0010
1000
0001
0100
0001
,  // measure 17
1000
0010
1000
0001
0100
0010
1000
0000
,  // measure 18
0001
0010
0100
1000
0001
0010
0100
0010
,  // measure 19
0001
1000
0100
0010
0001
1000
0100
0010
,  // measure 20
0100
1000
0001
0010
0100
1000
0001
0010
,  // measure 21
0100
0010
0001
1000
0100
0010
0001
0000
,  // measure 22
1000
0010
1000
0100
1000
0010
0100
0001
,  // measure 23
0100
1000
0100
0001
0100
0010
1000
0010
,  // measure 24
0100
0010
0001
0010
0100
0010
1000
0001
,  // measure 25
0010
0001
0100
0001
1001
0000
0000
0000
,  // measure 26
0100
1000
0010
1000
0010
1000
0010
1000
,  // measure 27
0100
0000
1000
0000
0010
0000
1000
0000
0010
0000
1000
0000
0010
0000
1000
0010
,  // measure 28
0100
0001
0010
0001
0010
0001
0010
0001
,  // measure 29
0100
0000
0000
0001
0000
0000
0010
0000
0000
0001
0000
0000
0010
0000
0001
0000
1000
0000
0001
0000
0000
1000
0000
0000
,  // measure 30
0100
0010
0100
0010
0001
0010
0100
0010
,  // measure 31
0100
0000
1000
0000
0100
0000
0010
0000
0100
0000
0010
0000
0001
0000
0010
0100
,  // measure 32
1000
0010
0100
0010
0100
0001
0100
0010
,  // measure 33
0100
0010
0100
1000
0100
0010
0100
0000
,  // measure 34
0001
0100
0010
1000
0001
0100
0010
0100
,  // measure 35
0001
1000
0010
0100
0001
1000
0010
0100
,  // measure 36
0010
1000
0001
0100
0010
1000
0001
0010
,  // measure 37
0100
0000
0000
0010
0000
0000
0100
0000
0000
1000
0000
0000
0010
0000
0100
0000
0010
0000
0100
0000
0000
0000
0000
0000
,  // measure 38
0110
0110
0010
1001
,  // measure 39
1001
0010
1010
1010
,  // measure 40
0010
0000
0011
0000
0011
0000
0001
0010
,  // measure 41
1000
0010
0001
1000
0100
0001
0100
1000
,  // measure 42
1001
0000
0000
0000
,  // measure 43
0000
0000
0000
0000
,  // measure 44
1000
0100
0001
0100
1000
0000
0001
0000
1000
0100
0001
0100
1000
0000
0000
0000
0001
0100
1000
0100
0001
0000
1000
0000
0001
0100
1000
0100
0001
0000
0000
0000
,  // measure 45
1000
0010
0001
0010
1000
0000
0001
0000
1000
0010
0001
0010
1000
0000
0000
0000
0001
0010
1000
0010
0001
0000
1000
0000
0001
0010
1000
0010
0001
0000
0000
0000
,  // measure 46
0100
0001
0010
1000
0010
0000
0001
0000
0100
1000
0100
0001
0010
0000
0010
0000
0100
1000
0010
0001
0010
0000
1000
0000
0100
0001
0100
1000
0010
0000
0010
0000
,  // measure 47
0100
1000
0001
0010
0100
0000
1000
0000
0010
1000
0001
0100
0010
0000
1000
0000
0001
0010
0100
1000
0001
0000
1000
0000
0001
0100
0010
1000
0001
0000
1000
0000
,  // measure 48
1001
0000
0000
0000
0000
0000
0000
0000
0011
0000
0000
0000
0100
1000
0100
0000
,  // measure 49
0010
0000
0000
0000
0100
0000
0001
1000
0010
0000
0000
0000
0100
0000
0000
0000
,  // measure 50
0001
0000
1000
0000
0010
0000
0100
0000
0000
0000
0000
0000
0001
0000
0010
0000
0001
0000
0010
0000
0000
0100
0000
0000
,  // measure 51
1000
0100
0001
0100
1000
0100
0001
0100
,  // measure 52
1000
0000
0000
0100
0000
0000
0001
0000
0000
0100
0000
0000
1000
0000
0001
0000
0100
0000
0010
0000
0000
0000
0000
0000
,  // measure 53
0001
0100
1000
0001
0010
1000
0001
0100
,  // measure 54
1000
0000
0000
0001
0000
0000
0010
0000
0000
1000
0000
0000
0001
0000
1000
0000
0001
0000
1000
0000
0000
0100
0000
0000
,  // measure 55
0010
0001
1010
0000
0010
0100
0011
0000
,  // measure 56
1000
0110
0001
0110
1000
0000
1000
0000
,  // measure 57
1000
0100
0000
0000
1000
0100
0000
0000
0100
0010
0000
0000
0100
0010
0000
0000
,  // measure 58
0010
0001
0000
0000
0010
0001
0000
0000
1100
0000
0000
0000
0011
0000
0000
0000
,  // measure 59
1000
0000
0001
0100
0000
1000
0010
0000
,  // measure 60
0100
0010
0100
0000
0000
0000
0001
0000
1000
0001
1000
0000
0000
0000
0000
0000
,  // measure 61
0001
0010
0000
0000
0100
1000
0000
0000
1000
0010
0000
0000
0100
0001
0000
0001
,  // measure 62
0100
0000
0010
0100
1000
0001
0010
1000
,  // measure 63
0001
0011
0010
0100
1100
0100
0100
0010
,  // measure 64
0001
0010
0100
1000
1001
0000
0000
0000
,  // measure 65
0010
1000
0000
0000
0100
0001
0000
0000
0010
1000
0000
0000
0100
0001
0000
0000
,  // measure 66
0001
0000
0000
1000
0000
0000
0000
0000
0000
0000
0000
0000
1000
0000
0000
0001
0000
0000
0000
0000
0000
0000
0000
0000
0010
0000
0000
0000
0100
0000
0000
0000
0010
0000
0000
0000
0100
0000
0000
0000
0000
0000
0000
0000
0000
0000
0000
0000
,  // measure 67
1000
0001
0000
0000
0001
0010
0000
0000
0010
0001
0000
0000
0001
0100
0000
0000
,  // measure 68
0100
0000
0000
0010
0000
0000
0000
0000
0000
0000
0000
0000
0010
0000
0000
1000
0000
0000
0000
0000
0000
0000
0000
0000
0001
0000
0000
0000
1000
0000
0000
0000
0001
0000
0000
0000
1000
0000
0000
0000
0000
0000
0000
0000
0000
0000
0000
0000
,  // measure 69
0010
0100
0000
0000
0001
0010
0000
0000
0010
0100
0000
0000
1000
0010
0000
0000
,  // measure 70
0100
0010
0000
0000
0001
0010
0000
0000
0200
0000
0000
0000
0300
0000
0000
0000
,  // measure 71
0100
0001
0010
1000
0001
0100
1000
0010
,  // measure 72
0001
1000
0100
0002
0000
0000
0003
0000
,  // measure 73
0011
0000
0000
0000
0100
1000
0000
0000
1010
0000
0000
0000
0100
0001
0000
0000
,  // measure 74
0101
0000
0000
0000
0010
1000
0000
0000
0011
0000
0000
0000
1010
0000
0000
0020
,  // measure 75
0130
0000
0000
0010
0100
0000
0100
0010
,  // measure 76
1000
0000
0000
0000
0001
0000
0000
0000
1000
0000
0000
0000
0001
0000
0000
0000
0000
0000
0100
0000
0000
0000
0000
0000
0010
0000
0000
1000
0000
0000
0000
0000
0000
0000
0000
0000
0001
0000
0000
0010
0000
0000
0000
0000
0000
0000
0000
0000
,  // measure 77
0001
1000
0001
1000
0001
1000
0010
0100
,  // measure 78
0010
0100
0010
0100
0001
0010
0100
0010
,  // measure 79
0001
1000
0100
0010
0100
1000
0001
0010
,  // measure 80
0100
1000
0010
0100
0001
0000
0000
0000
,  // measure 81
1001
0000
0000
0000
,  // measure 82
0000
0000
0000
0000
,  // measure 83
0100
0001
0010
0001
0100
0000
0010
0000
0100
0001
0010
0001
0100
0000
0000
0000
0010
1000
0100
1000
0010
0000
0100
0000
0010
1000
0100
1000
0010
0000
1000
0000
,  // measure 84
0100
1000
0010
1000
0100
0000
0010
0000
0100
1000
0010
1000
0100
0000
0000
0000
0010
0001
0100
0001
0010
0000
0100
0000
0010
0001
0100
0001
0010
0000
0000
0000
,  // measure 85
0100
1000
0010
0001
0010
0000
1000
0000
0100
0001
0100
1000
0010
0000
0010
0000
0100
0001
0010
1000
0010
0000
0001
0000
0100
1000
0001
0010
1000
0000
0001
0000
,  // measure 86
0100
1000
0001
0010
1000
0000
0100
0000
0001
1000
0010
0001
1000
0000
0100
0000
0010
0001
1000
0100
0010
0000
0001
0000
1000
0100
0010
0001
1000
0000
0001
0000
,  // measure 87
1001
0000
0000
0000
0100
0000
0000
0010
0100
0000
0000
0000
0001
0000
0000
0000
,  // measure 88
0010
0000
0000
0000
0100
0000
0000
0010
0100
0000
0000
0000
1000
0000
0000
0000
,  // measure 89
0010
0000
0000
0000
0100
0000
0000
0010
0100
0000
0000
0000
0100
0000
0000
0000
,  // measure 90
0100
0001
0010
0100
1000
0010
0100
0001
1000
0100
0010
0001
1000
0001
0010
0001
,  // measure 91
1001
0110
0100
0001
,  // measure 92
0010
0000
0000
0000
0100
0000
0000
0010
0100
0000
0000
0000
1000
0000
0000
0000
,  // measure 93
1010
0100
0011
0100
,  // measure 94
1010
0101
0011
1100
,  // measure 95
0110
0000
1001
0000
,  // measure 96
1000
0100
1000
0100
0010
0001
0010
0100
,  // measure 97
1000
0000
0000
0010
0000
0000
0100
0000
0000
0001
0000
0000
1000
0000
0001
0000
1000
0000
0001
0000
0000
0000
0000
0000
,  // measure 98
0100
0010
0100
0010
1000
0010
0001
0010
,  // measure 99
0100
0000
0000
0010
0000
0000
1000
0000
0000
0100
0000
0000
0010
0000
0100
0000
0010
0000
0100
0000
0000
0000
0000
0000
,  // measure 100
1000
0001
1000
0001
0010
0100
1000
0010
,  // measure 101
1000
0000
0100
0000
0010
0000
0001
0000
1000
0001
0000
0000
0001
1000
0000
0000
,  // measure 102
0010
0001
1000
0100
0001
0010
1000
0001
,  // measure 103
0100
1000
0010
0100
0001
1000
0100
0010
,  // measure 104
0001
1000
0001
1000
0010
1000
0001
0010
,  // measure 105
0100
0000
0000
1000
0000
0000
0001
0000
0000
0100
0000
0000
0010
0000
0100
0000
0010
0000
0100
0000
0000
0000
0000
0000
,  // measure 106
0001
1000
0001
1000
0100
0010
0100
0010
,  // measure 107
1000
0000
0000
0010
0000
0000
0100
0000
0000
0001
0000
0000
0100
0000
0010
0000
0100
0000
0010
0000
0000
0000
0000
0000
,  // measure 108
0010
0100
0010
0100
1000
0001
1000
0001
,  // measure 109
0100
0000
0000
0010
0000
0000
0100
0000
0000
0010
0000
0000
1000
0000
0001
0000
1000
0000
0001
0000
0000
0000
0000
0000
,  // measure 110
1000
0100
0010
0001
0100
0010
1000
0100
,  // measure 111
0010
0001
0100
0010
2000
0000
0000
0000
,  // measure 112
0010
0000
0010
0000
0100
0000
0000
0001
,  // measure 113
0001
0010
0001
3100
,  // measure 114
0012
0000
0010
0000
0100
0000
0000
1000
,  // measure 115
1000
0010
1000
0103
,  // measure 116
0210
0000
0010
0000
1000
0000
0000
0010
,  // measure 117
0001
1000
0010
0301
,  // measure 118
1000
0100
0010
0001
1000
0100
0001
1000
,  // measure 119
0010
0001
1000
0100
0010
0001
0100
0010
,  // measure 120
1000
0010
1000
0010
0100
0001
0100
0010
,  // measure 121
1000
0000
0000
0001
0000
0000
1000
0000
0000
0001
0000
0000
0010
0000
0100
0000
0010
0000
0100
0000
0000
0010
0000
0000
,  // measure 122
0001
1000
0001
1000
0100
1000
0100
0010
,  // measure 123
0001
0000
0000
0100
0000
0000
0001
0000
0000
0100
0000
0000
0010
0000
1000
0000
0010
0000
1000
0000
0000
0000
0000
0000
,  // measure 124
0001
0100
0000
0000
0001
0100
0000
0000
0010
0000
0000
0000
1000
0100
0000
0000
,  // measure 125
1000
0100
0000
0000
0010
0000
0000
0000
0001
1000
0000
0000
1000
0001
0000
0000
,  // measure 126
0100
0001
0010
1000
0010
0001
1000
0100
,  // measure 127
0001
0100
1000
0001
1000
0000
0000
0000
,  // measure 128
2002
0000
3003
0000
;
