#TITLE:The Beat Goes On;
#SUBTITLE:;
#ARTIST:Britney Spears;
#TITLETRANSLIT:;
#SUBTITLETRANSLIT:;
#ARTISTTRANSLIT:;
#GENRE:;
#CREDIT:;
#BANNER:beatgoeson-bn.png;
#BACKGROUND:beatgoeson-bg.jpg;
#LYRICSPATH:;
#CDTITLE:;
#MUSIC:beatgoeson.ogg;
#OFFSET:0.065000;
#SAMPLESTART:48.365002;
#SAMPLELENGTH:12.000000;
#SELECTABLE:YES;
#BPMS:0.000000=154.865005
;
#STOPS:
;
#BGCHANGES:;
#KEYSOUNDS:;
#ATTACKS:;

//---------------dance-single - ----------------
#NOTES:
     dance-single:
     :
     Beginner:
     1:
     0.114058,0.180314,0.161476,0.017942,0.000000,89.000000,71.000000,18.000000,2.000000,0.000000,0.000000,0.114058,0.180314,0.161476,0.017942,0.000000,89.000000,71.000000,18.000000,2.000000,0.000000,0.000000:
// measure 0
0000
0000
0000
0000
,  // measure 1
0000
0000
0000
0000
,  // measure 2
0000
0000
0000
0000
,  // measure 3
0000
0000
0000
0000
,  // measure 4
0200
0000
0000
0000
,  // measure 5
0000
0000
0000
0000
,  // measure 6
0300
0000
0000
0000
,  // measure 7
0000
0000
0000
0000
,  // measure 8
1000
0000
0000
0000
,  // measure 9
0001
0000
0000
0000
,  // measure 10
1000
0000
0000
0000
,  // measure 11
0001
0000
0000
0000
,  // measure 12
0010
0000
0000
0000
,  // measure 13
0100
0000
0000
0000
,  // measure 14
0010
0000
0000
0000
,  // measure 15
0100
0000
0000
0000
,  // measure 16
2000
0000
3000
0000
,  // measure 17
1000
0000
0000
0000
,  // measure 18
0001
0000
0000
0000
,  // measure 19
1000
0000
0000
0000
,  // measure 20
0010
0000
0000
0000
,  // measure 21
0100
0000
0000
0000
,  // measure 22
0010
0000
0000
0000
,  // measure 23
0100
0000
0000
0000
,  // measure 24
0001
0000
0001
0000
,  // measure 25
0001
0000
0000
0000
,  // measure 26
1000
0000
1000
0000
,  // measure 27
1000
0000
0000
0000
,  // measure 28
0100
0000
0100
0000
,  // measure 29
0100
0000
0000
0000
,  // measure 30
0010
0000
0010
0000
,  // measure 31
0010
0000
0000
0000
,  // measure 32
1001
0000
0000
0000
,  // measure 33
1001
0000
0000
0000
,  // measure 34
1001
0000
0000
0000
,  // measure 35
1001
0000
0000
0000
,  // measure 36
0110
0000
0000
0000
,  // measure 37
1001
0000
0000
0000
,  // measure 38
0110
0000
0000
0000
,  // measure 39
1001
0000
0000
0000
,  // measure 40
0110
0000
0010
0000
,  // measure 41
0100
0000
0000
0000
,  // measure 42
1001
0000
0001
0000
,  // measure 43
1000
0000
0000
0000
,  // measure 44
0010
0000
0000
0000
,  // measure 45
0100
0000
0100
0000
,  // measure 46
0100
0000
0000
0000
,  // measure 47
1000
0000
1000
0000
,  // measure 48
1000
0000
0000
0000
,  // measure 49
0001
0000
0001
0000
,  // measure 50
0001
0000
0000
0000
,  // measure 51
0010
0000
0010
0000
,  // measure 52
0010
0000
0000
0000
,  // measure 53
1000
0000
0000
0000
,  // measure 54
0010
0000
0000
0000
,  // measure 55
0100
0000
0000
0000
,  // measure 56
0001
0000
0000
0000
,  // measure 57
0100
0000
0000
0000
,  // measure 58
0010
0000
0000
0000
,  // measure 59
1000
0000
0000
0000
,  // measure 60
1001
0000
0000
0000
,  // measure 61
0110
0000
0000
0000
,  // measure 62
0110
0000
0000
0000
,  // measure 63
1001
0000
0000
0000
,  // measure 64
0110
0000
0000
0000
,  // measure 65
1001
0000
0000
0000
,  // measure 66
0110
0000
0000
0000
,  // measure 67
1001
0000
0000
0000
;

//---------------dance-single - ----------------
#NOTES:
     dance-single:
     :
     Easy:
     3:
     0.189670,0.299963,0.197359,0.026913,0.000000,148.000000,126.000000,22.000000,3.000000,0.000000,0.000000,0.189670,0.299963,0.197359,0.026913,0.000000,148.000000,126.000000,22.000000,3.000000,0.000000,0.000000:
0000
0000
0000
0000
,
0000
0000
0000
0000
,
0000
0000
0000
0000
,
0000
0000
0000
0000
,
0000
0000
0100
0000
0000
0010
0000
0000
,
0000
0000
0010
0000
0000
0100
0000
0000
,
0000
0000
0100
0000
0000
0001
0000
0000
,
0000
0000
1000
0000
0000
0001
0000
0000
,
0001
0001
0010
0100
,
1000
0000
0000
1000
0000
0100
0000
1000
,
0000
0000
0000
0000
,
0000
0000
0010
0010
,
0010
0000
0000
0000
,
0000
0000
1000
0001
,
1000
0000
0000
0000
,
0000
0000
0000
0000
,
0000
1000
0100
1000
,
0100
0000
0000
0010
0000
0000
0001
0000
,
0001
0000
0000
0000
,
1000
0000
0000
0000
,
0100
0000
0001
0001
0000
0100
0000
0002
,
0000
0000
0000
1003
0000
0000
0000
0000
,
0010
0000
0000
0000
,
0000
0000
0000
0000
,
0010
0001
0010
0001
,
1000
0100
1000
0100
,
0100
0000
0000
0000
,
0001
0000
0000
0000
,
1000
0100
0010
0100
,
1000
0000
0000
0001
0000
0001
0000
1000
,
0000
0000
0000
0000
,
0200
0000
0000
0000
0000
0000
0300
1001
,
0000
0000
0000
0000
0000
0000
0000
0110
,
0000
0000
1000
0000
1000
0000
0000
1001
,
0000
0000
0000
0000
0000
0000
0000
0110
,
0000
0000
0001
0000
0001
0000
0000
1001
,
0000
0000
0000
0000
0000
0000
0000
1001
,
0000
0000
0010
0000
0010
0000
0000
0110
,
0000
0000
0000
0000
0000
0000
0000
1001
,
0000
0000
0100
0000
0100
0000
0000
0110
,
0000
0000
0000
0000
0000
1001
0000
0110
,
0000
0000
0000
0000
0000
0000
0000
1001
,
0000
0000
0000
0000
0000
0110
0000
1001
,
0000
0000
0000
0000
,
1000
0010
1000
0010
,
0100
0000
0000
0001
0000
0100
0000
0001
,
0000
0000
0000
0000
,
0000
0000
1000
0100
,
0010
0000
0000
0000
,
0000
0000
0010
0100
,
1000
0000
0000
0000
,
0000
0000
0000
0000
,
0001
0001
1000
0010
,
1000
1000
0100
0010
,
0100
0000
0000
0000
,
0010
0000
0000
0000
,
0001
0000
0001
0001
0000
1000
0000
1000
,
0000
0000
0000
0010
0000
0100
0000
0010
,
0000
0000
0000
0000
,
0200
0000
0000
0000
0000
0000
0300
1001
,
0000
0000
0000
0000
0010
0000
0000
0110
,
0000
0000
0000
0000
1000
0000
0000
1001
,
0000
0000
0000
0000
0100
0000
0000
0110
,
0000
0000
0000
0000
0001
0000
0000
1001
,
0000
0000
0000
0000
0010
0000
0000
1010
,
0000
0000
0000
0000
1000
0000
0000
1100
,
0000
0000
0000
0000
0100
0000
0000
1001
;

//---------------dance-single - ----------------
#NOTES:
     dance-single:
     :
     Medium:
     6:
     0.351145,0.539934,0.224272,0.116621,0.004485,274.000000,249.000000,25.000000,13.000000,0.000000,0.000000,0.351145,0.539934,0.224272,0.116621,0.004485,274.000000,249.000000,25.000000,13.000000,0.000000,0.000000:
0000
0000
0000
0000
,
0000
0000
0000
0000
,
0000
0000
0000
0000
,
0000
0000
0000
0000
,
0000
0000
1000
0000
0000
0100
0000
0000
,
0000
0000
0001
0000
0000
0100
0000
0000
,
0000
0000
0010
0000
0000
1000
0000
0000
,
0000
0000
0010
0000
0000
0001
0000
0000
,
0010
0000
1000
0000
0100
0000
1000
0010
,
0100
0001
0000
0010
0000
0000
0100
1000
,
0000
0000
0000
0000
,
0000
0000
0000
0000
1000
0100
0001
0100
,
1000
0000
0000
0000
,
0000
0000
0000
0000
1000
0010
0001
0010
,
1000
0000
0000
0000
,
0000
0000
0000
0000
,
0200
0000
0310
1000
0001
0001
0000
0010
,
0000
0100
0000
1000
0000
0000
1000
0000
,
0001
0000
0000
0000
,
0000
0000
0000
0000
,
1000
0000
0100
1000
0000
0001
0000
0010
,
0000
0000
0001
0100
0000
0000
0010
0000
,
0000
1001
0000
0000
,
0000
0000
0000
0000
,
0001
0010
0001
0010
0001
0010
0100
0010
,
0001
1000
0000
0010
0000
1000
0000
0001
,
0000
0000
0100
0000
0000
0100
0000
0000
,
0000
0000
0010
0000
0000
0100
0000
0000
,
0001
0000
0001
0000
0001
1000
0000
0020
,
0000
0030
1000
0001
0000
1000
0000
0100
,
0000
0000
1000
0000
0000
0001
0000
0000
,
0000
0000
0001
0010
0100
1000
0000
1010
,
0000
0000
0000
0000
0000
0000
0000
1001
,
0000
0000
1000
0010
0100
0001
0000
0011
,
0000
0000
0000
0000
0000
0000
0000
1001
,
0000
0000
0001
0100
0010
1000
0000
0101
,
0000
0000
0000
0000
0000
0000
0000
0110
,
0000
0000
1000
0100
0010
0001
0000
1100
,
0000
0000
0000
0000
0000
0000
0000
0110
,
0000
0000
1000
0100
1000
0001
0000
0101
,
0000
0000
0000
0000
0100
0110
0000
1010
,
0000
0000
1000
0100
0010
0100
0000
1100
,
0000
0000
0000
0000
1000
1001
0000
0101
,
0000
0000
0001
0000
0010
0000
0001
0000
0010
0000
0001
0000
1000
0001
1000
0000
,
0200
0000
1300
0020
0000
0130
0001
0000
,
2000
0000
3010
0200
0000
0301
0010
0000
,
0200
0000
1300
0002
0000
0103
0010
0000
,
2000
0000
3001
0000
0100
0010
0100
0010
,
0100
0000
0001
1000
0000
0001
1000
0000
,
0100
0000
0100
0000
1000
0001
1000
0001
,
1000
0000
0010
0100
0000
0010
0100
0000
,
0110
0000
0100
0010
0000
0100
0010
0000
,
0001
0000
0001
0010
0100
0000
0100
0010
,
0001
0000
0001
0010
0100
1000
0000
0010
,
1000
0010
0000
0000
0000
0000
0000
0000
,
0100
0000
0010
1000
0000
0001
1000
0000
,
0010
0000
1000
0001
0000
0010
0001
1000
,
0000
0000
0010
1000
0000
0001
1000
0020
,
0000
0000
0130
0002
0000
1003
0000
0000
,
2002
0000
0000
0000
0000
0000
3003
0110
,
0000
0100
0100
0001
0010
0100
1000
1001
,
0000
0010
0100
0001
1000
0001
0010
0110
,
0000
0100
1000
0100
0010
0001
1000
1100
,
0000
1000
0001
0100
0001
1000
0010
1010
,
0000
0001
0010
0100
1000
0100
0010
0011
,
0000
1000
0010
1000
0001
0010
0100
0110
,
0000
0100
1000
0010
0001
0010
1000
1001
;

//---------------dance-single - ----------------
#NOTES:
     dance-single:
     :
     Hard:
     9:
     0.534407,0.599926,0.681786,0.008971,0.008971,417.000000,341.000000,76.000000,1.000000,0.000000,0.000000,0.534407,0.599926,0.681786,0.008971,0.008971,417.000000,341.000000,76.000000,1.000000,0.000000,0.000000:
0000
0000
0000
0000
,
0000
0000
0000
0000
,
0000
0000
0000
0000
,
0000
0000
0000
0000
,
0000
0000
1001
0000
0000
0011
0000
0000
,
0000
0000
1001
0000
0000
1010
0000
0000
,
0000
0000
0110
0000
0000
0101
0000
0000
,
0000
0000
0110
0000
0000
1100
0000
0000
,
0001
0000
0001
0010
0001
0000
0001
0010
,
0100
1000
0000
0001
0000
1000
0001
0100
,
0000
0000
1010
0100
0000
0011
0000
0000
,
0100
0000
1010
0100
0001
0010
1000
0010
,
0001
0000
1000
0001
0000
1001
0000
0100
,
0010
0000
0110
0010
1000
0100
0001
0100
,
1000
0000
1010
0100
0000
0011
0000
0000
,
0100
0000
0011
0100
0000
1010
0000
1000
,
0020
0000
0031
0010
1000
0010
0000
0100
,
0000
0001
0000
1000
0000
0100
1000
0000
,
0001
0000
0110
0100
0000
0101
0000
0001
,
1000
0000
0110
0100
0000
1100
0000
1000
,
0010
0000
0010
0010
0000
0010
0100
0001
,
0000
0001
0100
1000
0000
1000
0100
0000
,
0000
0000
1010
0000
0000
0001
0000
0000
,
0000
0000
0011
0000
0000
1000
0000
1000
,
0010
1000
0010
1000
0001
1000
0100
0010
,
0001
0100
0000
0001
0000
1001
0000
1100
,
0000
0000
1100
0001
0000
1001
0000
0000
,
0010
0000
0101
1000
0000
1001
0000
0100
,
0010
0100
0010
0100
0010
0100
0000
1000
,
0000
0100
0010
0001
0000
0010
0100
1000
,
0000
0000
1100
1000
0000
1010
0000
0000
,
0000
0000
0101
0001
0000
0011
0000
0110
,
0000
1000
0001
1000
0100
0010
0000
1001
,
0000
0001
1000
0001
0010
0100
0000
1001
,
0000
0100
0001
0010
0001
0100
0000
1010
,
0000
0100
0010
1000
0010
0100
0000
0101
,
0000
0001
0010
1000
0010
0001
0000
1100
,
0000
1000
0010
1000
0001
0100
0000
1010
,
0000
0100
0010
0100
0001
0001
0000
1001
,
0000
0001
0010
0100
1000
0100
0000
0110
,
0000
1000
0100
0010
0100
1001
0000
1100
,
0000
0000
0001
0010
0001
0010
0000
1010
,
0000
0000
0100
0001
0100
0101
0000
1010
,
0000
0000
0100
0000
0010
0000
1000
0000
0010
0000
0100
0000
0001
0010
0100
1000
,
0001
0100
1010
0000
0100
0011
0000
0010
,
1000
0100
1001
0000
0001
1001
0000
0010
,
0001
1000
1100
0000
0001
0101
0000
1000
,
0010
1000
1010
0000
0001
0010
0001
0010
,
0001
0000
1100
0010
0000
1100
0000
0010
,
0100
0000
0110
0000
1000
0010
1000
0010
,
1000
0000
0110
0001
0000
1001
0000
0001
,
1000
0000
0110
0010
0000
0110
0000
0100
,
1000
0100
0010
0100
1000
0001
0010
0100
,
1000
0001
0010
0100
1000
0010
0100
0001
,
0000
0000
1001
0100
0000
1001
0000
0000
,
0100
0000
1001
0010
0000
1001
0000
0010
,
1000
0000
1000
0010
0000
0010
1000
0001
,
0000
0010
0001
1000
0000
0100
1000
0010
,
0000
0000
0101
0100
0000
0101
0000
1000
,
0010
1000
0010
0100
0001
0100
0001
0011
,
0000
0010
0100
1000
0000
0100
0010
1001
,
0000
0100
0010
0100
0001
1000
0001
0110
,
0000
1000
0100
0010
0001
1000
0100
0011
,
0000
0100
0010
1000
0010
0100
0001
1001
,
0000
0100
0010
1001
0000
0100
0010
1001
,
0000
0100
0001
0010
1000
0010
0001
0101
,
0000
0010
1000
0100
0000
0010
0001
1001
;
