#TITLE:Tear Rain;
#SUBTITLE:;
#ARTIST:cYsmix feat. Emmy;
#TITLETRANSLIT:;
#SUBTITLETRANSLIT:;
#ARTISTTRANSLIT:;
#GENRE:;
#CREDIT:;
#BANNER:;
#BACKGROUND:;
#LYRICSPATH:;
#CDTITLE:;
#MUSIC:Tear Rain.ogg;
#OFFSET:0.020000;
#SAMPLESTART:53.396000;
#SAMPLELENGTH:12.000000;
#SELECTABLE:YES;
#BPMS:0.000000=128.000000
,100.000000=64.014999
,116.000000=64.000000
,117.500000=320.000000
,120.000000=128.000000
,161.500000=220.000000
,164.000000=128.000000
,212.000000=64.014999
,220.000000=64.050003
,222.000000=64.074997
,224.000000=64.099998
,228.000000=64.000000
;
#STOPS:161.500000=0.050000,
161.750000=0.050000,
162.000000=0.050000,
162.250000=0.050000,
162.500000=0.050000,
162.750000=0.050000,
163.000000=0.050000,
163.250000=0.050000,
163.500000=0.050000,
163.750000=0.050000
;
#BGCHANGES:;
#KEYSOUNDS:;
#ATTACKS:;

//---------------dance-single - ----------------
#NOTES:
     dance-single:
     :
     Challenge:
     17:
     0.571484,0.786154,0.252057,0.894396,0.487852,492.000000,461.000000,31.000000,110.000000,0.000000,0.000000,0.571484,0.786154,0.252057,0.894396,0.487852,492.000000,461.000000,31.000000,110.000000,0.000000,0.000000:
0000
0000
0000
0000
,
0000
0000
0000
0000
,
0000
0000
0000
0000
,
0000
0000
0000
0000
,
0000
0000
0000
0000
,
0000
0000
0000
0000
,
0000
0000
0000
0000
,
0000
0000
0000
0000
,
0000
0000
0000
0000
,
1002
0000
0000
0000
0010
0000
2003
0000
0010
0000
3002
0000
1003
0000
0010
0010
,
0002
0000
1003
0000
0001
0000
0010
0010
1000
0000
0001
0000
1000
0010
1000
0000
,
0200
0000
0010
0000
0301
0000
0100
2000
0010
0000
0002
3000
0100
0000
1003
0000
,
2000
0001
0000
0000
3002
0010
0000
0000
0103
0100
1000
0000
0010
0010
0001
1000
,
0002
0000
0000
0000
0103
0100
0020
0000
0001
0000
0230
0000
2300
0100
3002
0000
,
2003
0020
0000
3000
0130
0001
0010
0010
1000
0001
0010
0010
2000
0000
3001
0000
,
0200
0000
0000
0000
0301
0000
2000
0010
3200
0000
0010
0000
1300
0000
0002
0000
,
0010
0000
0000
0000
0013
0000
1010
0000
0010
1000
0001
0000
0010
0010
1000
0000
,
0201
0000
0001
0000
0310
0000
0101
0000
1000
0101
0000
0000
1000
0000
0100
2000
,
0010
0000
0000
0000
0100
0000
0000
0000
3010
0000
0000
0000
0100
0000
0100
0000
1000
0000
0000
1000
0010
0000
0010
0000
0001
0000
0000
0000
1010
0000
0000
0000
,
0001
0000
0000
0000
0100
0001
0010
0010
0000
1000
0010
0000
0000
0001
0010
0000
,
0011
0000
0000
0000
0100
0001
0010
0000
0001
0100
0010
0000
0100
0000
0100
0001
,
0201
0000
0000
0310
1000
0000
0101
0000
0010
0101
0000
1000
0200
0000
1300
0000
,
0021
0000
0000
0000
0000
0000
0130
0000
1000
0000
0000
0000
0010
0000
0010
0000
0001
0000
0000
1000
0010
0000
0010
0000
0002
0000
0000
0000
1003
0000
0000
0000
,
2010
0000
0000
0000
3100
1000
0010
0000
0000
0100
0010
0000
0000
1000
0001
0000
,
2001
0010
3001
0010
1000
0010
0001
1000
,
1200
1000
0010
0310
2000
0001
0010
3010
0200
0001
0320
1030
0002
0010
1000
1000
,
2003
0100
0001
3002
0023
1000
0100
0032
1000
0010
1000
0103
0200
1000
0010
0301
,
2000
0100
0001
3100
0200
0010
1000
0010
0320
0100
0001
0130
2000
0100
0001
3100
,
0200
1000
0010
1300
2000
0010
0001
3020
0001
0100
1030
2000
0010
0001
0100
3001
,
1001
0000
1001
0000
1000
0100
0022
0000
0000
0000
0000
0000
0000
0000
0033
0000
,
0020
0000
0130
0000
2000
0100
0001
0000
3020
1000
0100
0000
0230
0010
0001
0000
,
0301
0000
0000
0000
1010
0000
0200
0000
0010
0001
0000
0301
1000
0000
0100
0010
,
0001
1000
0002
0000
0013
0010
2000
0000
3200
0000
1300
0000
0001
0100
0001
0000
,
2200
0000
0000
3300
0022
0000
0000
0033
0010
0010
1000
0000
0102
0000
1003
0000
,
0000
0000
1001
0000
0020
0000
0000
0000
1030
0001
0010
0010
1000
0001
0100
0100
,
1000
0001
0100
0000
2010
0000
3100
0010
0100
1000
0002
0000
0010
0000
0100
0000
,
1003
0000
0010
0000
0100
0002
2000
3003
1000
0200
0020
0330
0001
0000
1001
0000
,
0110
2000
0000
0000
0100
0001
0000
3001
0100
0001
0010
0000
0001
0100
0010
1000
,
0002
0000
0010
0000
2003
0010
0001
0000
3200
0010
1000
0000
2300
0010
3002
0000
,
0103
0000
0000
0000
2100
0000
3001
0000
0020
0001
0000
0230
2000
0300
3100
0100
,
0002
0000
1003
0000
0010
0000
1000
0001
0100
0010
1000
0001
0010
0100
1000
0001
,
2000
0000
0100
0000
0020
3000
0130
0000
0010
0010
0001
0000
2100
0000
3001
0000
,
0000
0000
0100
0000
0002
0010
0003
0000
0001
1000
0100
0100
0001
1000
0010
0010
,
0002
0000
1003
0000
2010
0000
3001
0010
0200
0000
1000
0000
0320
0000
1000
0000
,
0031
0000
0100
0100
1000
0000
0010
0010
0001
0000
0010
0010
1000
0000
0000
0000
,
0120
0001
0100
1000
0230
1000
0010
0301
,
0002
0010
0010
1000
2003
0010
0010
3100
,
0012
1000
0010
1000
2003
0100
0001
0100
,
3200
0001
0010
2300
3020
0001
0100
1030
,
0201
0010
1000
0010
0302
0010
1000
0010
,
2003
0010
0001
0010
3200
0010
0001
0010
,
2300
0010
0001
3100
2000
0010
0001
3200
,
0010
0001
0010
1000
0320
0100
0001
0230
,
1300
0000
0010
0010
0001
0000
0010
0010
,
1000
0000
0100
0100
0001
0000
0100
0100
,
2000
0001
0000
3100
0020
0001
0000
0230
,
1000
0010
0000
1300
0002
0010
0000
1003
;

//---------------dance-single - ----------------
#NOTES:
     dance-single:
     :
     Beginner:
     3:
     0.090601,0.184571,0.016262,0.154487,0.000000,78.000000,76.000000,2.000000,19.000000,0.000000,0.000000,0.090601,0.184571,0.016262,0.154487,0.000000,78.000000,76.000000,2.000000,19.000000,0.000000,0.000000:
0000
0000
0000
0000
,
0000
0000
0000
0000
,
0000
0000
0000
0000
,
0000
0000
0000
0000
,
0000
0000
0000
0000
,
0000
0000
0000
0000
,
0000
0000
0000
0000
,
0000
0000
0000
0000
,
0000
0000
0000
0000
,
0010
0000
0000
0000
,
0100
0000
0000
0000
,
0001
0000
0000
0000
,
0100
0000
0000
0000
,
0010
0000
0000
0000
,
0100
0000
0000
0000
,
1000
0000
0000
0000
,
0100
0000
0000
0000
,
0020
0030
0000
0000
,
0200
0300
0000
0000
,
0002
0003
0000
0000
,
0002
0003
0000
0000
,
0020
0030
0000
0000
,
0200
0300
0000
0000
,
2000
3000
0000
0000
,
2000
3000
0000
0000
,
0001
0001
0001
0000
,
1000
1000
1000
0000
,
0001
0000
1000
0000
,
0001
0000
1000
0000
,
2002
0000
0000
3003
0000
0000
0000
0000
,
0000
1000
0000
0100
,
0000
1000
0000
0000
,
0000
0001
0000
0010
,
0000
0001
0001
0001
,
0000
1000
0000
0001
,
0000
1000
0000
0010
,
0000
0100
0000
0010
,
0000
1000
1000
1000
,
0000
0010
0000
0010
,
0000
0001
0000
0010
,
0000
0200
0000
0000
,
0300
0000
0000
1001
,
0000
1000
0000
1000
,
0000
0001
0000
0001
,
0000
1000
0000
1000
,
2000
0000
3000
0000
,
0020
0000
0030
0000
,
0200
0000
0300
0000
,
0002
0000
0003
0000
,
0020
0000
0030
0000
,
0200
0000
0300
0000
,
2000
0000
3000
0000
,
0020
0000
0030
0000
,
0100
0000
0100
0000
,
0100
0000
0010
0000
,
0010
0010
0010
0010
,
0010
0010
0010
0010
;

//---------------dance-single - ----------------
#NOTES:
     dance-single:
     :
     Easy:
     5:
     0.210241,0.277771,0.138225,0.268319,0.000000,181.000000,164.000000,17.000000,33.000000,0.000000,0.000000,0.210241,0.277771,0.138225,0.268319,0.000000,181.000000,164.000000,17.000000,33.000000,0.000000,0.000000:
0000
0000
0000
0000
,
0000
0000
0000
0000
,
0000
0000
0000
0000
,
0000
0000
0000
0000
,
0000
0000
0000
0000
,
0000
0000
0000
0000
,
0000
0000
0000
0000
,
0000
0000
0000
0000
,
0000
0000
0000
0000
,
2000
3001
1000
0001
,
0200
0310
0100
0010
,
2000
3100
1000
0100
,
0020
0031
0010
0010
,
1002
1003
0001
1000
,
0020
1030
0010
1000
,
0002
0103
0001
0100
,
0020
0130
0200
0310
,
0110
0110
0100
0000
,
1001
1001
1000
0000
,
0110
0110
0100
0000
,
1001
1001
1000
0000
,
1002
1003
0001
0000
,
0120
0130
0010
0000
,
0120
0130
0010
0000
,
2002
0000
0000
3003
,
0010
0010
0010
0010
,
0100
0100
0100
0100
,
0001
1000
0001
1000
,
0010
0100
0010
0100
,
0220
0000
0000
0330
0000
0000
0000
0000
,
1000
1000
0001
1000
,
0002
0013
0001
0010
,
0020
0130
0200
1300
,
2000
3001
1000
1001
,
0000
0010
0200
0310
,
0020
1030
2000
3001
,
0010
0200
0000
0300
,
0010
0001
1000
1001
,
0000
1000
0000
1000
,
0002
1003
2000
3001
,
0200
0020
0000
0000
,
0330
0100
0010
0110
,
0000
1000
0001
1000
,
0002
1003
2000
3100
,
0200
0310
0020
0031
,
1000
1000
1000
1000
,
0001
0001
0001
0001
,
0100
0100
0100
0100
,
0010
0010
0100
0010
,
1000
1000
1000
1000
,
0001
0001
0001
0001
,
0010
0010
0010
0010
,
0100
0010
0100
0100
,
1000
0000
0010
0100
,
0010
0000
0001
1000
,
0001
0000
0010
0100
,
0020
0000
0000
0000
0000
0000
0000
0000
0000
0000
0000
0000
0000
0000
0000
0030
;

//---------------dance-single - ----------------
#NOTES:
     dance-single:
     :
     Medium:
     10:
     0.347305,0.417114,0.187010,0.504114,0.008131,299.000000,276.000000,23.000000,62.000000,0.000000,0.000000,0.347305,0.417114,0.187010,0.504114,0.008131,299.000000,276.000000,23.000000,62.000000,0.000000,0.000000:
0000
0000
0000
0000
,
0000
0000
0000
0000
,
0000
0000
0000
0000
,
0000
0000
0000
0000
,
0000
0000
0000
0000
,
0000
0000
0000
0000
,
0000
0000
0000
0000
,
0000
0000
0000
0000
,
0000
0000
0000
0000
,
2001
0000
3100
0000
1000
0100
1100
0000
,
0001
0100
0101
0000
1000
0100
1100
0000
,
0020
0000
0130
0001
0020
0000
0130
1000
,
0010
0000
0100
0000
0010
0000
1000
0000
0001
1000
0000
0000
1000
0001
0000
0000
,
2001
0000
3010
0000
1000
0010
1010
0000
,
0001
0010
0011
0000
0100
1000
1100
0000
,
0020
0000
1030
0001
0020
0000
0031
1000
,
0200
0000
0310
0100
2000
0000
3001
1000
,
2010
0000
3001
0010
0002
0010
1003
0000
,
0102
0000
1003
0010
2000
0010
3001
0000
,
0210
0000
0301
1000
0002
0100
1003
0000
,
2010
0000
3100
0010
0002
0010
1003
0000
,
2100
0000
3010
0200
0010
0000
0301
0000
,
1002
0000
0013
0200
1000
0000
0310
0000
,
0012
0000
0103
0010
2000
0010
3001
0000
,
0001
0010
0001
0010
0100
1000
0100
1000
,
0020
1000
0001
1000
0230
0001
0320
0100
,
2030
0001
3200
1000
2300
0001
3020
1000
,
2030
0100
3200
0010
2300
0100
3020
0100
,
2030
0001
0001
0001
0010
3002
1000
1003
,
2002
3003
0000
0000
,
0100
0001
0010
0200
1000
0000
0001
0000
,
1300
0010
0100
0002
0100
0000
0013
0000
,
0100
1000
1100
0000
0010
0001
0101
0000
,
2000
0000
3001
0000
1000
0001
1001
0000
,
0000
0000
0200
0000
1000
0310
0001
0000
,
0200
0000
0001
0000
0310
1000
0100
0000
,
0010
0011
1010
0011
,
2000
0000
0001
0000
3010
0100
0001
0000
,
1000
0200
0001
0000
1000
0000
0310
0000
,
0001
0020
1000
0000
0031
0000
1000
0000
,
0010
0100
0020
0200
0000
0000
0000
0000
,
0330
0000
0200
0000
0010
0301
0100
0000
,
0000
0000
2000
0000
0010
3002
0010
0000
,
1003
0100
1000
0000
0002
0010
1000
0000
,
0023
0001
0100
0000
0032
0010
1003
0000
,
0010
0100
0001
1000
0010
0100
0001
1000
,
0001
0010
0100
1000
0001
0010
0100
1000
,
0010
0200
0001
0000
0310
2000
0001
0000
,
3002
0010
1000
0000
0023
0001
0130
0000
,
1000
0010
0100
0001
1000
0010
0100
0001
,
1000
0100
0010
0001
1000
0100
0010
0001
,
2000
0100
0001
0000
3020
1000
0100
0000
,
0230
1000
0010
0000
0302
0100
1003
0000
,
1001
0001
0100
0001
,
1000
0001
0010
0001
,
2000
0100
0010
0100
,
0010
0100
0010
0100
,
3000
0000
0000
0000
;

//---------------dance-single - ----------------
#NOTES:
     dance-single:
     :
     Hard:
     15:
     0.459975,0.784426,0.170748,0.349628,0.247992,396.000000,375.000000,21.000000,43.000000,0.000000,0.000000,0.459975,0.784426,0.170748,0.349628,0.247992,396.000000,375.000000,21.000000,43.000000,0.000000,0.000000:
// measure 0
0000
0000
0000
0000
,  // measure 1
0000
0000
0000
0000
,  // measure 2
0000
0000
0000
0000
,  // measure 3
0000
0000
0000
0000
,  // measure 4
0000
0000
0000
0000
,  // measure 5
0000
0000
0000
0000
,  // measure 6
0000
0000
0000
0000
,  // measure 7
0000
0000
0000
0000
,  // measure 8
0000
0000
0000
0000
,  // measure 9
0002
0000
0000
0000
1003
0020
0100
0000
1030
0000
0001
0000
1000
0000
0000
0000
,  // measure 10
2000
0000
0000
0000
3001
0020
0100
0000
0031
0000
1000
0000
0001
0000
0000
0000
,  // measure 11
0200
0000
0001
0320
0100
1030
0101
0000
,  // measure 12
1000
0000
0000
0000
1010
0000
0000
0000
0100
0000
0001
0000
0010
0000
0001
0100
,  // measure 13
0020
0000
0000
0000
0130
0002
1000
0000
0013
0000
0000
0000
1100
0000
0000
0000
,  // measure 14
0200
0000
0000
0000
1300
0002
0100
0000
0013
0000
0000
0000
1001
0000
0000
0000
,  // measure 15
1000
0000
1100
0000
0010
0000
0210
1300
,  // measure 16
0100
0000
0100
0000
1000
0000
0001
0000
0100
0010
0100
0000
0001
0000
1000
0001
,  // measure 17
0200
0000
1000
0000
0010
0000
0301
0000
0100
0010
0000
0100
0001
0000
0001
0010
,  // measure 18
0200
0000
0001
0000
0010
0000
1300
0000
0000
0100
1000
0000
0010
0000
0010
0000
,  // measure 19
0200
0000
1000
0000
0010
0000
0301
0000
0000
0100
0001
0000
0000
0100
0001
0000
,  // measure 20
0020
0000
1000
0000
0100
0000
0031
0000
0010
0000
0100
0000
1000
0000
0100
0010
,  // measure 21
0200
0000
0001
0000
0010
0000
1300
0000
0010
0100
0001
0000
1001
0000
0000
0000
,  // measure 22
0200
0000
1000
0000
0010
0000
0301
0000
0010
0100
1000
0000
1001
0000
0000
0000
,  // measure 23
0210
0302
1003
0000
0210
2300
3001
0000
,  // measure 24
0012
1000
2003
0100
3002
1000
0103
0000
,  // measure 25
0001
1000
0010
0010
0001
1000
0010
0010
0001
1000
0100
0100
0001
1000
0100
0100
,  // measure 26
0001
0010
0010
1000
0001
0010
0010
1000
0001
0100
0100
1000
0001
0100
0100
1000
,  // measure 27
0010
0010
0001
0100
0001
0010
0010
1000
0100
0100
0001
0100
0100
1000
0010
0010
,  // measure 28
0001
1000
0001
0010
0010
1000
0001
1000
0100
0100
0001
1000
0001
0010
0100
1000
,  // measure 29
1002
0000
1000
0000
1003
0001
1000
0000
0000
0000
0000
0000
0000
0000
0000
0000
,  // measure 30
0200
1000
0310
0100
1000
0010
0100
0010
,  // measure 31
1002
0000
0000
0000
0013
0000
0001
0000
1000
0001
0000
0001
1000
0000
0000
0000
,  // measure 32
0100
2000
0010
0001
3002
0010
1003
0001
,  // measure 33
0101
0000
1010
0000
0002
1003
1001
0000
,  // measure 34
0000
0200
0010
0000
1000
0010
0301
0100
,  // measure 35
0001
0010
0011
0020
0001
0130
0010
0100
,  // measure 36
1000
0000
0000
0000
1000
0010
0000
0000
0010
0100
0000
0000
0100
0001
0000
0000
,  // measure 37
2000
0100
3002
0010
2003
3010
0101
0000
,  // measure 38
2000
0001
3200
1000
0310
0100
1000
0001
,  // measure 39
1000
0000
0000
0000
1010
0000
0000
0000
1000
0001
0000
0001
0100
0000
0000
0000
,  // measure 40
0010
0000
1000
0000
0001
0000
1000
0001
1000
0001
1000
0001
1000
0001
1000
0001
,  // measure 41
2000
0000
3100
0000
1000
0010
0101
0000
,  // measure 42
0000
0100
0020
0000
1000
0130
0010
0100
,  // measure 43
0001
1000
1001
0000
0020
0001
0130
0010
,  // measure 44
0200
1000
0310
0100
0010
0001
0100
0000
,  // measure 45
0001
0010
0010
1000
0001
0100
0100
1000
,  // measure 46
0010
0010
0001
1000
0100
0100
0001
0010
,  // measure 47
0100
0100
0001
1000
0010
0010
0100
1000
,  // measure 48
0010
0010
0001
1000
0100
0100
0010
1000
,  // measure 49
0010
0010
0001
1000
0001
0010
0010
1000
,  // measure 50
0100
0100
0001
1000
0001
0100
0100
1000
,  // measure 51
0001
0010
0010
1000
0001
0100
0100
0010
,  // measure 52
0001
0010
0010
0100
0001
0010
0010
0100
,  // measure 53
0001
0001
0001
0001
,  // measure 54
1000
1000
1000
1000
,  // measure 55
0200
0001
1000
0010
,  // measure 56
2300
0001
0100
3001
;
