#TITLE:Tarantula;
#SUBTITLE:;
#ARTIST:Pendulum;
#TITLETRANSLIT:;
#SUBTITLETRANSLIT:;
#ARTISTTRANSLIT:;
#GENRE:;
#CREDIT:;
#BANNER:tarantula-bn.png;
#BACKGROUND:tarantula-bg.png;
#LYRICSPATH:;
#CDTITLE:;
#MUSIC:tarantula.ogg;
#OFFSET:0.010000;
#SAMPLESTART:33.103001;
#SAMPLELENGTH:12.000000;
#SELECTABLE:YES;
#BPMS:0.000000=87.000000
,39.000000=89.000000
,40.000000=174.000000
,56.000000=348.000000
,296.000000=87.000000
,298.000000=174.000000
,362.000000=348.000000
,474.000000=87.000000
;
#STOPS:296.000000=1.350000,
474.000000=1.350000
;
#BGCHANGES:;
#KEYSOUNDS:;
#ATTACKS:;

//---------------dance-single - ----------------
#NOTES:
     dance-single:
     :
     Beginner:
     4:
     0.120241,0.244461,0.000000,0.041259,0.000000,102.000000,102.000000,0.000000,5.000000,0.000000,0.000000,0.120241,0.244461,0.000000,0.041259,0.000000,102.000000,102.000000,0.000000,5.000000,0.000000,0.000000:
0000
0000
0000
0000
,
0000
0000
0000
0000
,
0010
0000
0001
0000
,
0010
0000
0000
0000
,
0100
0000
1000
0000
,
0100
0000
0000
0000
,
0010
0000
0001
0000
,
0010
0000
0000
0000
,
2000
0000
0000
0000
,
3000
0000
0000
0000
,
0020
0000
0000
0000
,
0000
0000
0030
0000
,
0200
0000
0000
0000
,
0000
0000
0300
0000
,
0100
0000
0000
0000
,
0100
0000
0000
0000
,
0100
0000
0000
0000
,
0000
0000
0000
0000
,
0001
0000
0000
0000
,
0001
0000
0000
0000
,
0001
0000
0000
0000
,
0000
0000
0000
0000
,
0100
0000
0000
0000
,
0100
0000
0000
0000
,
0100
0000
0000
0000
,
0000
0000
0000
0000
,
0001
0000
0000
0000
,
0001
0000
0000
0000
,
0001
0000
0000
0000
,
0000
0000
0000
0000
,
1000
0000
0000
0000
,
1000
0000
0000
0000
,
1000
0000
0000
0000
,
0000
0000
0000
0000
,
0010
0000
0000
0000
,
0010
0000
0000
0000
,
0010
0000
0000
0000
,
0000
0000
0000
0000
,
2000
0000
0000
0000
,
0000
0000
0000
0000
,
3000
0000
0000
0000
,
0000
0000
0000
0000
,
0020
0000
0000
0000
,
0000
0000
0000
0000
,
0030
0000
0000
0000
,
0000
0000
0000
0000
,
0100
0000
0000
0000
,
0100
0000
0000
0000
,
0100
0000
0000
0000
,
0000
0000
0000
0000
,
0001
0000
0000
0000
,
0001
0000
0000
0000
,
0001
0000
0000
0000
,
0000
0000
0000
0000
,
0100
0000
0000
0000
,
0001
0000
0000
0000
,
0100
0000
0000
0000
,
0000
0000
0000
0000
,
0001
0000
0000
0000
,
0100
0000
0000
0000
,
0001
0000
0000
0000
,
0000
0000
0000
0000
,
1000
0000
0000
0000
,
1000
0000
0000
0000
,
1000
0000
0000
0000
,
0000
0000
0000
0000
,
0010
0000
0000
0000
,
0010
0000
0000
0000
,
0010
0000
0000
0000
,
0000
0000
0000
0000
,
1000
0000
0000
0000
,
1000
0000
0000
0000
,
0010
0000
0000
0000
,
0010
0000
0000
0000
,
1000
0000
0001
0000
,
0000
0000
1000
0000
,
0000
0000
0001
0000
,
0000
0000
1000
0000
,
1000
0000
0001
0000
,
0000
0000
1000
0000
,
0001
0000
1000
0000
,
0000
0000
0001
0001
,
0001
0000
0100
0000
,
0000
0000
0010
0000
,
0010
0000
0100
0000
,
0000
0000
0010
0000
,
0000
0000
0100
0000
,
0000
0000
0100
0000
,
0100
0000
0100
0000
,
0000
0000
0010
0010
,
0010
0000
1000
0000
,
0000
0000
1000
0000
,
0000
0000
1000
0000
,
0000
0000
0000
0000
,
0000
0000
0010
0000
,
0000
0000
0010
0000
,
0000
0000
0010
0000
,
0000
0000
0000
0000
,
0000
0000
1000
0000
,
0000
0000
0010
0000
,
0000
0000
1000
0000
,
0000
0000
0000
0000
,
0000
0000
0010
0000
,
0000
0000
1000
0000
,
0000
0000
0010
0000
,
0000
0000
0000
0000
,
0000
0000
0100
0000
,
0000
0000
0100
0000
,
0000
0000
0100
0000
,
0000
0000
0000
0000
,
0000
0000
0001
0000
,
0000
0000
0001
0000
,
0000
0000
0100
0000
,
0000
0000
0000
0000
,
0000
0000
0001
0000
,
0000
0000
0001
0000
,
0000
0000
0001
0000
,
0000
0000
0001
0000
,
0000
0000
1000
0000
;

//---------------dance-single - ----------------
#NOTES:
     dance-single:
     :
     Easy:
     6:
     0.315928,0.586706,0.123778,0.148533,0.000000,268.000000,253.000000,15.000000,18.000000,0.000000,0.000000,0.315928,0.586706,0.123778,0.148533,0.000000,268.000000,253.000000,15.000000,18.000000,0.000000,0.000000:
0000
0000
0000
0000
,
0000
0000
0000
0000
,
1000
1000
0010
1000
,
0010
0000
0000
0000
,
0100
0100
0001
0100
,
0001
0000
0000
0000
,
0001
0010
0100
1000
,
0010
0000
0000
1000
,
0002
0000
0000
0003
,
0001
0000
0000
0000
,
0010
0010
1000
0100
,
0010
0010
0001
0100
,
0010
0010
1000
0001
,
1000
0001
1000
1001
,
0010
0100
0000
0000
,
0001
1000
0000
0000
,
0010
0100
0010
0000
,
1000
0001
0000
0000
,
0010
0100
0000
0000
,
1000
0001
0000
0000
,
0100
0010
0100
0000
,
0001
1000
0000
0000
,
0001
0010
0000
0000
,
0100
1000
0000
0000
,
1000
0100
0010
0000
,
0001
0010
0000
0000
,
1000
0010
0000
0000
,
0100
0001
0000
0000
,
1000
0010
0100
0000
,
0001
0000
0000
0000
,
0001
1000
0000
0000
,
0010
0100
0000
0000
,
0001
0010
0000
0000
,
0100
1000
0000
0000
,
1000
0010
0000
0000
,
0100
0001
0000
0000
,
0010
0100
0000
0000
,
1000
0001
0000
0000
,
0001
0000
0001
0000
,
0001
0000
0001
0000
,
0010
0000
0010
0000
,
0010
0000
0010
0000
,
0100
0000
0100
0000
,
0100
0000
0100
0000
,
1000
0000
1000
0000
,
1000
0000
1000
0000
,
1001
0000
0000
1000
,
0001
0000
0000
0000
,
1000
1000
0010
0000
,
1000
0000
0001
0000
,
0010
0000
0001
0000
,
0000
0000
0000
0000
,
0100
0000
0100
0000
,
0010
0000
0100
0000
,
1001
0000
0000
0001
,
1000
0000
0000
0000
,
0010
0010
1000
0000
,
0100
0000
1000
0000
,
0010
0000
0000
0000
,
0100
0000
0100
0000
,
0001
0000
0100
0000
,
0001
0000
0001
0000
,
1001
0000
0000
0100
,
0010
0000
0000
0000
,
1000
0010
1000
0000
,
0001
0000
0100
0000
,
0001
0000
1000
0000
,
0000
0000
1000
0000
,
0001
0000
0100
0000
,
0010
0000
0000
0000
,
0210
0000
0000
0000
,
0010
0000
0000
0000
,
0010
0000
0000
0000
,
0010
0000
0000
0000
,
0310
0000
0000
0000
2000
3000
0000
0020
,
0030
0000
0010
0000
2000
3000
0000
0002
,
0003
0000
0100
0000
0002
0003
0000
0020
,
0030
0000
0010
0000
1001
0000
0000
0110
,
0000
0000
1001
0000
2000
3000
0000
0002
,
0003
0000
0010
0000
0200
0300
0000
2000
,
3000
0010
0200
0001
,
0001
0301
0001
1000
,
0010
0000
1000
0000
0210
0000
0000
0310
,
0000
0000
1000
0000
2001
0000
0000
3001
,
0000
0000
0100
0000
0210
0000
0000
0310
,
0000
0000
0000
0000
0100
0000
0000
0010
,
0000
0100
0001
0001
,
0010
0010
0100
0100
,
1000
1000
0100
0010
,
0001
0000
1000
0000
0001
1000
0001
0000
,
1000
0001
1000
0000
0110
0000
0000
0000
,
0000
1000
0001
0000
,
0000
0000
0100
0010
,
0100
0000
0001
0000
,
1000
0000
0010
0000
,
0100
0000
0000
0000
,
1000
0000
0001
0000
,
1000
0000
0010
0000
,
0000
0000
0110
0000
,
0000
1000
0001
0000
,
0000
0000
0100
0010
,
0100
0000
0001
0000
,
1000
0000
0001
0000
,
0100
0000
0000
0000
,
0100
0000
0010
0000
,
1000
0000
0001
0000
,
0000
0000
1001
0000
,
0000
0100
0010
0000
,
0000
0000
1000
0001
,
1000
0000
0010
0100
,
0010
0000
1000
0001
,
1000
0000
0000
0000
,
1000
0000
0100
0000
,
0010
0000
0001
0000
,
0000
0000
2001
0000
,
0000
0000
0001
0000
,
0000
0000
3002
0000
,
0000
0000
1000
0000
,
0000
0000
1003
0000
;

//---------------dance-single - ----------------
#NOTES:
     dance-single:
     :
     Medium:
     12:
     0.462103,0.782309,0.247555,0.313570,0.000000,392.000000,362.000000,30.000000,38.000000,0.000000,0.000000,0.462103,0.782309,0.247555,0.313570,0.000000,392.000000,362.000000,30.000000,38.000000,0.000000,0.000000:
0000
0000
0000
0000
,
0000
0000
0000
0000
,
0001
1000
0001
0000
0100
0010
0100
0000
,
0001
1000
0000
0000
0000
0000
0000
0000
,
0010
0100
0010
0000
1000
0001
1000
0000
,
0010
0100
0000
0000
0000
0000
0000
0000
,
0002
1003
0200
0310
,
0002
0000
1003
0000
0000
0000
0000
0010
,
0020
0000
0000
0000
0000
0000
0030
0010
,
0010
0000
0000
0000
,
0001
0010
0000
0000
0100
1000
0000
0000
,
0010
1000
0000
0000
0001
0100
0000
0000
,
0010
0100
0010
0000
1000
0001
1000
0000
,
0010
0100
0010
0000
1000
0000
1001
0000
,
1000
0010
0010
0000
,
0001
0010
0010
0000
,
1000
0010
1000
0100
,
0010
0001
0001
0000
,
1000
0100
0100
0000
,
0001
0100
0100
0000
,
0001
0100
0010
1000
,
0100
0010
0001
0000
,
0100
1000
1000
0000
,
0010
1000
1000
0000
,
0001
0010
0001
0100
,
0010
1000
0001
0000
,
1000
0010
0010
0000
,
0010
0100
0100
0000
,
0001
1000
0001
0100
,
0010
1000
0001
0000
,
1001
0100
0000
0000
,
0010
0100
0100
0000
,
0001
0010
0001
0010
,
0100
1000
1000
0000
,
0001
1000
1000
0000
,
0001
1000
1000
0000
,
0010
1000
0001
0100
,
0001
1000
0010
0000
,
0200
0300
0200
0300
,
0200
0300
0200
0300
,
0002
0003
0002
0003
,
0002
0003
0002
0003
,
0020
0030
0020
0030
,
0020
0030
0020
0030
,
0200
0300
0200
0300
,
0200
0300
0200
0300
,
0110
0000
0100
1000
,
0010
0000
0010
0100
,
0001
0010
0100
0000
,
1000
0010
1000
0000
,
0001
0000
0100
0001
,
0000
0000
0010
0000
,
0011
0000
0110
0000
,
0011
0000
0000
0000
,
1000
0000
1000
0010
,
0100
0000
0001
1000
,
0001
0000
1000
0001
,
0001
0000
1000
0100
,
0010
0100
1000
0001
,
0000
0000
0010
0000
,
0110
0000
1100
0000
,
0110
0000
0100
1000
,
0001
0000
0001
1000
,
0100
0000
0001
1000
,
0001
0100
0010
1000
,
0010
0100
0001
0000
,
1000
0000
0001
0010
,
0000
1000
0010
0000
,
1010
0000
0110
0000
,
0101
0000
0001
0001
,
0200
0000
0320
0000
,
2030
0000
3002
0000
,
0203
0000
0302
0000
,
2003
0000
0000
0000
,
3100
0000
0000
0000
0011
0000
0100
1000
,
0000
1000
0001
0000
0101
0000
0010
1000
,
0000
1000
0001
0000
1001
0000
1000
0100
,
0000
0100
1000
0000
0110
0000
0001
0010
,
0000
0010
0001
0000
1020
0000
0000
0230
,
0000
0000
0301
0000
0021
0000
0000
0230
,
0000
0000
1300
0000
0100
1000
0001
0000
,
0100
0001
0010
0000
0100
1000
0001
0000
,
0100
0010
1000
0000
0210
0000
0000
1000
,
0000
0000
0301
0000
1020
0000
0000
0001
,
0000
0000
0130
0000
2001
0000
0000
3001
,
0000
0000
0000
0000
0010
0000
0000
0001
,
0000
0100
0100
0100
,
0100
0000
0100
0000
0100
0001
0100
0000
,
0100
1000
0100
0000
0100
0001
0100
1000
,
0100
0001
0100
1000
0100
0010
0100
0010
,
0100
1001
0200
0000
,
0000
0301
0001
0000
,
1000
0100
0010
0100
,
1000
0000
1000
0100
,
0010
0000
0010
0100
,
1000
1000
0000
0000
,
0001
0000
0011
0000
,
0101
0000
0011
0000
,
0010
0000
0200
0000
,
0000
1300
1000
0000
,
0001
0010
0100
0010
,
0001
0000
0001
0010
,
0100
0000
0010
0100
,
1000
0001
0000
1000
,
0001
0000
0100
0001
,
0010
0001
0100
0010
,
0100
0001
1000
0000
,
0000
0001
1000
0000
,
0010
1000
0001
0000
,
0100
0001
0100
0000
,
0001
0010
0001
0000
,
1000
0001
0100
0001
,
1000
0000
0010
1000
,
0100
0010
0001
1000
,
0100
1000
1100
0000
,
0001
0000
0101
0000
,
1000
0000
1010
0000
,
0001
0000
0011
0000
,
0100
0000
0000
0000
0000
0000
0000
0000
0000
0000
0000
0000
0000
0000
0000
0000
0000
0000
0000
0000
0000
0000
0000
0000
0000
0000
0000
0000
0000
0000
0000
0000
0000
0000
0000
0000
0000
0000
0000
0000
0000
0000
0000
0000
0000
0000
0000
0000
0000
0000
0000
0000
0000
0000
0000
0000
0000
0000
0000
0000
0000
0000
0000
0000
0000
0000
0000
0000
0000
0000
0000
0000
0000
0000
0000
0000
0000
0000
0000
0000
0000
0000
0000
0000
0000
0000
0000
0000
0000
0000
0000
0000
0000
0000
0000
0000
2002
3003
0000
0000
0000
0000
0000
0000
0000
0000
0000
0000
0000
0000
0000
0000
0000
0000
0000
0000
0000
0000
0000
0000
0000
0000
0000
0000
0000
0000
0000
0000
0000
0000
0000
0000
0000
0000
0000
0000
0000
0000
0000
0000
0000
0000
0000
0000
0000
0000
0000
0000
0000
0000
0000
0000
0000
0000
0000
0000
0000
0000
0000
0000
0000
0000
0000
0000
0000
0000
0000
0000
0000
0000
0000
0000
0000
0000
0000
0000
0000
0000
0000
0000
0000
0000
0000
0000
0000
0000
0000
0000
0000
0000
0000
0000
;

//---------------dance-single - ----------------
#NOTES:
     dance-single:
     :
     Hard:
     17:
     0.633035,1.515725,0.684903,0.280563,0.177415,537.000000,454.000000,83.000000,34.000000,0.000000,0.000000,0.633035,1.515725,0.684903,0.280563,0.177415,537.000000,454.000000,83.000000,34.000000,0.000000,0.000000:
// measure 0
0000
0000
0000
0000
,  // measure 1
0000
0000
0000
0000
0000
0000
0000
0000
0000
0000
0010
0000
,  // measure 2
0002
0000
0000
0000
0000
0000
0000
0000
0003
1000
0000
0000
0100
0000
0000
0000
0000
0000
0000
0000
0000
0000
0000
0000
0001
0000
0000
0000
0000
0000
0001
0000
0000
0000
0000
0000
1000
0000
0000
0000
0000
0000
0010
0000
0000
0000
0000
0000
,  // measure 3
1000
0000
0000
0001
0000
0000
0000
0000
0000
0000
0000
0000
0000
0000
0000
0000
0000
0000
0000
0000
1000
0000
0000
0000
,  // measure 4
0002
0000
0000
0103
0001
0000
0000
0100
0000
0010
0000
0010
1000
0000
0100
0000
,  // measure 5
0010
0000
0000
0010
0000
0000
0000
0000
0000
0000
0000
0000
0000
0000
0000
0000
0000
0000
0000
0000
1000
0000
0000
0000
,  // measure 6
0200
0000
0000
1300
0001
0000
0000
0010
0001
0000
0100
0000
0001
0000
0010
0000
,  // measure 7
0100
0000
0000
0100
0000
0000
0000
0000
0000
0000
0000
0000
0000
0000
0000
0000
0000
0000
0000
0000
0010
0100
0000
0010
,  // measure 8
0200
0000
0000
0000
0001
0000
0000
0000
0001
0000
0000
0000
0000
0000
0000
0000
0320
0000
0000
0000
1000
0000
0000
0000
1030
0000
0000
0000
0001
1000
0001
1000
,  // measure 9
0001
0000
0000
0000
,  // measure 10
0100
1000
0100
1000
0001
0100
0001
0100
,  // measure 11
0010
1000
0010
1000
0001
0010
0001
0010
,  // measure 12
0100
1000
0100
0010
0001
0100
0010
1000
,  // measure 13
0010
0100
0001
0100
0001
1000
0001
0000
,  // measure 14
1000
0000
0010
0000
0101
0000
1000
0010
,  // measure 15
1000
0010
1000
0000
0101
0000
0100
0000
,  // measure 16
0110
0001
1001
1000
,  // measure 17
1010
0100
0000
0000
,  // measure 18
0001
0000
0010
0000
1100
0000
0010
0001
,  // measure 19
0010
0001
0010
0000
1100
0000
0100
0000
,  // measure 20
0110
0100
1100
0001
,  // measure 21
1001
0010
0000
0000
,  // measure 22
0001
0000
1000
0000
0110
0000
0001
0100
,  // measure 23
0001
0100
0001
0000
1010
0000
1000
0000
,  // measure 24
1010
0100
0101
0001
,  // measure 25
0011
0100
0000
0000
,  // measure 26
1000
0000
0001
0000
0011
0000
0100
1000
,  // measure 27
0100
1000
0100
0000
0011
0000
0100
0000
,  // measure 28
0110
0001
0010
0001
,  // measure 29
0101
0010
0000
0000
,  // measure 30
0010
1000
0001
0000
0010
0000
0001
0000
,  // measure 31
1000
0001
0100
0000
0001
0000
1000
0000
,  // measure 32
1100
0001
0101
1000
,  // measure 33
1010
0100
0000
0000
,  // measure 34
1001
0010
0000
0100
,  // measure 35
1001
0010
0000
0100
,  // measure 36
0110
0010
1001
1000
,  // measure 37
1100
1000
0000
0000
,  // measure 38
0002
0000
0023
0000
,  // measure 39
2030
0000
3200
0000
,  // measure 40
0302
0000
0023
0000
,  // measure 41
0230
0000
2300
0000
,  // measure 42
3020
0000
0032
0000
,  // measure 43
0203
0000
2300
0000
,  // measure 44
3020
0000
0230
0000
,  // measure 45
0302
0000
0000
0003
0002
0000
0000
0003
,  // measure 46
1001
0100
1000
0000
,  // measure 47
1001
0100
0001
0000
,  // measure 48
0001
0100
1000
0100
,  // measure 49
0001
1000
0001
0000
,  // measure 50
1000
0100
0001
0000
,  // measure 51
0000
0000
1100
0000
,  // measure 52
1010
0000
0101
0000
,  // measure 53
0011
0000
0000
0000
0000
0010
0001
0000
0000
1000
0000
0000
,  // measure 54
1001
0010
0001
0000
,  // measure 55
1001
0010
1000
0000
,  // measure 56
1000
0010
0001
0010
,  // measure 57
1000
0001
1000
0000
,  // measure 58
0001
0010
1000
0000
,  // measure 59
0000
0000
0011
0000
,  // measure 60
0101
0000
1010
0000
,  // measure 61
1200
0000
0301
0000
,  // measure 62
1000
0000
0000
0001
0000
0000
0100
0000
0000
0000
0000
0010
,  // measure 63
1000
0000
0000
0001
0000
0000
0010
0000
0000
0000
0000
0100
,  // measure 64
1000
0100
1000
0100
,  // measure 65
0010
0001
0010
0000
,  // measure 66
1100
0000
0001
1100
,  // measure 67
0000
0000
0001
0000
,  // measure 68
0010
0001
0100
0010
,  // measure 69
1000
0000
0000
0000
0000
0001
1000
0000
0000
0001
0000
0000
,  // measure 70
0021
0032
1003
0000
,  // measure 71
1020
1030
0001
0000
,  // measure 72
0201
0310
1000
0001
,  // measure 73
0100
0001
1000
0100
,  // measure 74
0020
0030
0000
0000
0000
0000
0000
0000
0000
0000
0000
0000
0000
0000
0000
0000
0000
0000
0000
0000
0000
0000
0000
0000
0000
0000
0000
0000
0000
0000
0000
0000
0000
0000
0000
0000
0000
0000
0000
0000
0000
0000
0000
0000
0000
0000
0000
0000
0000
0000
0000
0000
0000
0000
0000
0000
0000
0000
0000
0000
0000
0000
0000
0000
0000
0000
0000
0000
0000
0000
0000
0000
0000
0000
0000
0000
0000
0000
0000
0000
0000
0000
0000
0000
0000
0000
0000
0000
0000
0000
0000
0000
0000
0000
0000
0000
1100
0000
0000
0000
0000
0000
0000
0000
0000
0000
0000
0000
0000
0000
0000
0000
0000
0000
0000
0000
0000
0000
0000
0000
0010
0000
0000
0000
0000
0000
0000
0000
0000
0000
0000
0000
0000
0000
0000
0000
0000
0000
0000
0000
0000
0000
0000
0000
0100
0000
0000
0000
0000
0000
0000
0000
0000
0000
0000
0000
0000
0000
0000
0000
0000
0000
0000
0000
0000
0000
0000
0000
0101
0000
0000
0000
0000
0000
0000
0000
0000
0000
0000
0000
0000
0000
0000
0000
0000
0000
0000
0000
0000
0000
0000
0000
,  // measure 75
0000
0000
1001
0000
0011
0100
0010
1010
,  // measure 76
0000
1000
0001
0000
0200
1000
0310
0001
,  // measure 77
0000
0000
0000
0000
1000
0000
0000
1000
,  // measure 78
0000
0000
0100
0000
1100
0000
0010
1100
,  // measure 79
0000
0010
0101
0000
0011
0000
0100
0011
,  // measure 80
0000
0000
0100
0000
1010
0000
0000
0000
1000
0000
1000
0000
0001
0000
0010
0100
,  // measure 81
1000
0100
0010
0000
0001
0000
1000
0000
0010
0000
0010
0000
1000
0000
0100
0010
,  // measure 82
0001
0010
0100
0000
1000
0000
0010
0000
1010
0000
0000
0000
0100
0000
0101
0000
,  // measure 83
0000
0010
1010
0000
1100
0000
0010
0011
,  // measure 84
0000
0100
1100
0000
0110
0000
0000
1001
,  // measure 85
0000
0000
0000
0000
0100
0000
0000
0100
,  // measure 86
0000
0000
0100
0000
0100
0010
0100
0010
,  // measure 87
0100
0010
0100
0010
0100
0010
0100
0010
,  // measure 88
0100
0000
0010
0000
0100
0000
0010
0000
0100
0010
0100
0010
1000
0010
1000
0010
,  // measure 89
0100
0001
0100
0001
0010
0001
0010
0001
0100
1000
0100
0010
0001
0100
0010
1000
,  // measure 90
0010
0100
0001
1000
0001
0000
0000
0000
0110
0000
0000
0000
1000
0000
0000
0000
,  // measure 91
0010
0000
0110
0001
,  // measure 92
0010
0000
0010
0001
,  // measure 93
0100
0001
0010
0100
,  // measure 94
0010
0000
0001
0100
,  // measure 95
1000
0000
0000
0000
,  // measure 96
1100
0000
0101
0000
,  // measure 97
1010
0000
0000
0000
0000
0000
0011
0000
0000
0000
0000
0001
,  // measure 98
1000
0000
1001
0100
,  // measure 99
1000
0000
1001
0100
,  // measure 100
0001
0000
0001
0010
,  // measure 101
0001
0100
0001
0010
,  // measure 102
1000
0000
1000
0010
,  // measure 103
0001
0000
0000
0000
,  // measure 104
0011
0000
0101
0000
,  // measure 105
1010
0000
1100
0000
,  // measure 106
0200
0000
0310
0000
,  // measure 107
0000
0000
0000
0000
0001
1000
0000
0000
0001
1000
0000
0000
,  // measure 108
0000
0100
1000
0010
,  // measure 109
1000
0100
0010
0001
,  // measure 110
0100
0000
0100
0001
,  // measure 111
0010
0000
0000
0000
,  // measure 112
0011
0000
1100
0000
,  // measure 113
1010
0000
0000
0000
0000
0000
0101
0000
0000
0000
0001
0000
,  // measure 114
1000
0000
2100
0000
,  // measure 115
3010
0000
0102
0000
,  // measure 116
0013
0000
2100
0000
,  // measure 117
3001
0000
0012
0000
,  // measure 118
0103
0000
0000
0000
0000
0000
0000
0000
0000
0000
0000
0000
0000
0000
0000
0000
0000
0000
0000
0000
0000
0000
0000
0000
0000
0000
0000
0000
0000
0000
0000
0000
0000
0000
0000
0000
0000
0000
0000
0000
0000
0000
0000
0000
0000
0000
0000
0000
0000
0000
0000
0000
0000
0000
0000
0000
0000
0000
0000
0000
0000
0000
0000
0000
0000
0000
0000
0000
0000
0000
0000
0000
0000
0000
0000
0000
0000
0000
0000
0000
0010
0000
0000
0000
0000
0000
0000
0000
0000
0000
0000
0000
0000
0000
0000
0000
2000
3000
0000
0000
0000
0000
0000
0000
0000
0000
0000
0000
0000
0000
0000
0000
0000
0000
0000
0000
0000
0000
0000
0000
0000
0000
0000
0000
0000
0000
0000
0000
0000
0000
0000
0000
0000
0000
0000
0000
0000
0000
0000
0000
0000
0000
0000
0000
0000
0000
0000
0000
0000
0000
0000
0000
0000
0000
0000
0000
0000
0000
0000
0000
0000
0000
0000
0000
0000
0000
0000
0000
0000
0000
0000
0000
0000
0000
0000
0000
0000
0000
0000
0000
0000
0000
0000
0000
0000
0000
0000
0000
0000
0000
0000
0000
;
