#VERSION:0.83;
#TITLE:Tank!;
#SUBTITLE:(from Cowboy Bebop);
#ARTIST:The Seatbelts;
#TITLETRANSLIT:;
#SUBTITLETRANSLIT:;
#ARTISTTRANSLIT:;
#GENRE:;
#ORIGIN:;
#CREDIT:;
#BANNER:;
#BACKGROUND:tank.bg.jpg;
#PREVIEWVID:;
#JACKET:;
#CDIMAGE:;
#DISCIMAGE:;
#LYRICSPATH:;
#CDTITLE:;
#MUSIC:tank.ogg;
#OFFSET:0.250000;
#SAMPLESTART:0.250000;
#SAMPLELENGTH:12.000000;
#SELECTABLE:YES;
#DISPLAYBPM:281.000000;
#BPMS:0.000=281.680,
372.500=210.000,
379.500=190.000,
388.000=185.000;
#STOPS:372.500=2.900;
#DELAYS:;
#WARPS:;
#TIMESIGNATURES:0.000=4=4;
#TICKCOUNTS:0.000=4;
#COMBOS:0.000=1;
#SPEEDS:0.000=1.000=0.000=0;
#SCROLLS:0.000=1.000;
#FAKES:;
#LABELS:0.000=Song Start;
#BGCHANGES:1.208=Tank.mov=1.000=0=0=1=====,
99999=-nosongbg-=1.000=0=0=0 // don't automatically add -songbackground-
;
#KEYSOUNDS:;
#ATTACKS:
;

//---------------dance-single - ----------------
#NOTEDATA:;
#CHARTNAME:;
#STEPSTYPE:dance-single;
#DESCRIPTION:;
#CHARTSTYLE:;
#DIFFICULTY:Hard;
#METER:12;
#RADARVALUES:0.669895,0.925798,0.443429,0.942288,0.177372,423.000000,383.000000,40.000000,85.000000,0.000000,0.000000,0.000000,0.000000,0.000000,0.669895,0.925798,0.443429,0.942288,0.177372,423.000000,383.000000,40.000000,85.000000,0.000000,0.000000,0.000000,0.000000,0.000000;
#CREDIT:Mozata;
#NOTES:
// measure 0
0000
0000
0000
0000
,  // measure 1
0001
0010
0000
0010
1000
0000
1000
0010
,  // measure 2
0000
0010
0001
0000
1000
0000
0010
0000
,  // measure 3
0100
0000
0000
0100
0010
0000
0100
0001
,  // measure 4
1000
0100
0010
0000
1001
0000
0000
0000
,  // measure 5
0001
0000
0000
0010
0000
0010
0100
0000
,  // measure 6
1000
0000
0000
0001
0000
0001
0100
0000
,  // measure 7
0010
0000
0000
1000
0000
1000
0010
0000
,  // measure 8
0100
0000
0000
0001
0000
1000
0001
0000
,  // measure 9
1000
0000
0000
0010
0000
0010
0100
0000
,  // measure 10
0001
0000
0000
1000
0000
1000
0100
0000
,  // measure 11
0010
0000
0000
0001
0000
0001
0010
0000
,  // measure 12
0100
0000
0000
1000
0000
0001
1000
0000
,  // measure 13
0010
0000
0000
0100
0000
0001
0010
0000
,  // measure 14
0100
0000
0000
1000
0000
0001
1000
0000
,  // measure 15
0100
0000
0000
0001
0000
1000
0010
0000
,  // measure 16
0001
0000
0000
1000
0000
0100
1000
0000
,  // measure 17
0001
0010
0000
0001
1000
0000
0001
0100
,  // measure 18
0000
0010
2000
0000
0000
0000
3200
0000
,  // measure 19
1300
0000
0000
0100
0000
0100
0001
0000
,  // measure 20
1000
0000
0000
0010
0000
0010
0001
0000
,  // measure 21
1000
0010
0000
1000
0001
0000
1000
0100
,  // measure 22
0000
0010
0002
0000
0000
0000
0203
0000
,  // measure 23
0301
0000
0000
0100
0000
0100
1000
0000
,  // measure 24
0001
0000
0000
0010
0000
0010
1000
0000
,  // measure 25
0100
1000
0000
0001
1000
0000
0010
1000
,  // measure 26
0000
0010
0200
0000
0000
0000
0302
0000
,  // measure 27
0013
0000
0000
0100
0000
0100
0010
0000
,  // measure 28
0001
0000
0000
1000
0000
0010
0100
0000
,  // measure 29
0001
0010
0000
0001
1000
0000
0001
0100
,  // measure 30
0000
0010
2000
0000
0000
0000
3200
0000
,  // measure 31
1300
0000
0000
0100
0000
0100
0001
0000
,  // measure 32
1000
0000
0000
0010
0000
0010
0001
0000
,  // measure 33
2000
0000
0000
3010
0000
0000
0000
0000
0000
0000
1010
0000
0000
0000
0000
0000
0000
0000
0200
0000
0000
0301
0000
0000
,  // measure 34
0000
0000
0000
0000
0101
0000
0000
0000
0000
0000
0000
0000
0002
0000
0000
1003
0000
0000
0000
0000
0000
0000
0000
0000
,  // measure 35
0002
0000
0000
0013
0000
0000
0000
0000
0000
0000
0011
0000
0000
0000
0000
0000
0000
0000
0200
0000
0000
1300
0000
0000
,  // measure 36
0000
0000
0000
0000
1100
0000
0000
0000
0000
0000
0000
0000
2000
0000
0000
3001
0000
0000
0000
0000
0000
0000
0000
0000
,  // measure 37
0100
0010
0000
0100
0001
0000
0100
0010
,  // measure 38
0000
0100
2000
0000
0000
0000
3100
0000
,  // measure 39
0000
0000
1100
0000
,  // measure 40
0110
0011
0000
1002
,  // measure 41
2003
0000
0000
0100
0000
0000
3002
0000
,  // measure 42
0010
0000
0000
2003
0000
0000
3020
0000
,  // measure 43
0230
0000
0000
1000
0000
0000
0302
0000
,  // measure 44
0023
0000
0000
1000
0000
0000
0032
0000
,  // measure 45
1003
0000
0000
0000
0000
0000
0000
0000
0000
0000
2002
0000
0000
0000
0000
0000
0000
0000
0000
0000
0000
3003
0000
0000
,  // measure 46
0100
0000
0000
0000
0000
0000
0000
0000
0000
0000
0220
0000
0000
0000
0000
0000
0000
0000
0000
0000
0000
0330
0000
0000
,  // measure 47
0001
0000
0000
0000
0000
0000
0000
0000
0000
0000
0202
0000
0000
0000
0000
0303
0000
0000
0000
0100
0000
0000
0000
0000
,  // measure 48
0000
0010
0000
0000
0000
0000
0000
1000
0000
0000
0000
0000
0000
0010
0000
0000
0000
0000
0000
0100
0000
0000
0000
0000
,  // measure 49
0000
0102
0000
0000
0000
0000
0000
0000
0000
0003
2000
0000
0000
0000
0000
0000
0000
0000
0000
0000
0000
0000
0000
0000
,  // measure 50
0001
0000
0000
3200
0000
0000
0310
0000
,  // measure 51
0021
0000
0000
0100
0000
0000
1000
0000
,  // measure 52
0100
0000
0000
0032
0000
0000
0013
0000
,  // measure 53
0011
0000
0000
1001
0000
0000
1000
0010
,  // measure 54
1010
0000
0000
1001
0000
0000
1000
0100
,  // measure 55
0020
0000
0000
0000
,  // measure 56
0000
0000
0000
0000
0000
0000
0000
0030
,  // measure 57
0001
0010
0000
0001
1000
0000
0001
0100
,  // measure 58
0000
0010
2000
0000
0000
0000
3100
0000
,  // measure 59
0010
0001
0010
0100
1000
0010
0100
0001
,  // measure 60
1000
0001
0010
0000
0010
0200
0000
0300
,  // measure 61
1000
0010
0000
1000
0001
0000
1000
0100
,  // measure 62
0000
0010
0002
0000
0000
0000
0103
0000
,  // measure 63
0010
1000
0000
0100
0000
0001
0000
0100
,  // measure 64
0000
0010
0000
0001
0100
0000
0010
0000
,  // measure 65
1000
0100
0000
1000
0001
0000
1000
0010
,  // measure 66
0000
0100
0020
0000
0000
0000
1030
0001
,  // measure 67
0010
0001
1000
0001
1000
0100
1000
0001
,  // measure 68
1000
0010
0100
0001
0100
0001
0000
0000
,  // measure 69
1000
0010
0000
1000
0001
0000
1000
0100
,  // measure 70
0000
0010
0002
0000
0000
0000
0203
0000
,  // measure 71
0000
0010
0320
0230
,  // measure 72
1000
0020
0000
0330
,  // measure 73
0200
0000
0000
0301
0000
0000
0000
0000
0000
0000
0101
0000
0000
0000
0000
0000
0000
0000
0020
0000
0000
1030
0000
0000
,  // measure 74
0000
0000
0000
0000
1010
0000
0000
0000
0000
0000
0000
0000
2000
0000
0000
3001
0000
0000
0000
0000
0000
0000
0000
0000
,  // measure 75
0002
0000
0000
0013
0000
0000
0000
0000
0000
0000
0011
0000
0000
0000
0000
0000
0000
0000
0200
0000
0000
1300
0000
0000
,  // measure 76
0000
0000
0000
0000
1100
0000
0000
0000
0000
0000
0000
0000
2000
0000
0000
3001
0000
0000
0000
0000
0000
0000
0000
0000
,  // measure 77
0002
0000
0000
0103
0000
0000
0000
0000
0000
0000
0110
0000
0000
0000
0000
0000
0000
0000
2000
0000
0000
3100
0000
0000
,  // measure 78
0000
0000
0000
0000
0110
0000
0000
0000
0000
0000
0000
0000
0002
0000
0000
1003
0000
0000
0000
0000
0000
0000
0000
0000
,  // measure 79
0000
0000
0020
0130
0000
0000
0000
0000
,  // measure 80
2000
3010
0000
0000
1000
0010
0100
0001
,  // measure 81
0022
0000
0000
0000
0000
0000
0000
0000
0000
0000
0000
0000
0000
0000
0000
0033
0000
0000
0000
2002
0000
0000
0000
0000
,  // measure 82
0000
0000
0000
0000
0000
0000
0000
0000
0000
0000
3003
0000
0000
1001
0000
0000
0000
0000
0000
0000
0000
0000
0000
0000
,  // measure 83
1000
0100
0001
0100
1000
0100
0001
0100
,  // measure 84
1000
0100
0001
0100
1000
0001
1000
0000
,  // measure 85
2020
0000
0000
0000
0000
3030
2002
0000
,  // measure 86
3000
0000
1003
0001
0010
0100
0010
0100
,  // measure 87
0010
0001
0010
0001
0010
0100
0010
0100
,  // measure 88
1000
0100
1000
0100
0010
0000
0000
0000
,  // measure 89
0000
2200
0000
0000
0000
0000
0000
3300
0000
0000
0220
0000
0000
0000
0000
0000
0330
0000
0000
0022
0000
0000
0000
0000
,  // measure 90
0000
0000
0000
0000
0000
0000
0000
0033
0000
0000
2002
0000
0000
0000
0000
0000
3003
0000
0000
2020
0000
0000
0000
0000
,  // measure 91
0000
0000
0000
0000
0000
0000
0000
0000
0000
0000
0000
0000
0000
0000
3030
0000
0000
0000
0000
0000
2002
0000
0000
0000
0000
0000
0000
0000
0000
0000
0000
0000
0000
0000
0000
3003
0000
0000
0000
0000
0000
0202
0000
0000
0000
0000
0000
0000
,  // measure 92
0000
0000
0000
0000
0000
0000
0000
0303
0000
0000
0220
0000
0000
0000
0000
0000
0000
0000
0000
0330
0000
1010
0000
0000
,  // measure 93
0000
0000
0000
0000
0000
0000
0000
0000
0000
0000
0000
0000
0000
0000
0000
0000
0000
0000
0000
0000
0000
0000
0000
0000
0020
0030
0000
0000
0000
0000
0000
0000
0000
0000
0000
0000
0000
0000
0000
0000
0000
0000
0000
0000
0000
0000
0000
0000
0000
0000
0000
0000
0000
0000
0000
0000
0000
0000
0000
0000
0000
0000
0000
0000
0000
0000
0000
0000
0000
0000
0000
0000
0000
0000
0000
0000
0000
0000
0000
0000
0000
0000
0000
0000
0000
0000
0000
0000
0000
0000
0000
0000
0000
0000
0000
0000
0000
0000
0000
0000
0000
0000
0000
0000
0000
0000
0000
0000
0000
0000
0000
0000
0000
0000
0000
0000
0000
0000
0000
0000
0000
0000
0000
0000
0000
0000
0000
0000
0000
0000
0000
0000
0000
0000
0000
0000
0000
0000
0000
0000
0000
0000
0000
0000
0000
0000
0000
0000
0000
0000
0000
0000
0000
0000
0000
0000
0000
0000
0000
0000
0000
0000
0000
0000
0000
0000
0000
0000
0000
0000
0000
0000
0000
0000
0000
0000
0000
0000
0000
0000
0000
0000
0000
0000
0000
0000
0000
0000
0000
0000
0000
0000
,  // measure 94
2002
0000
0000
0000
3000
0000
0003
0010
,  // measure 95
0100
1000
0001
0010
0100
1000
0010
0100
,  // measure 96
0001
0000
0000
0010
0000
0000
0100
0000
0000
2000
0000
0000
0000
0000
0000
0000
0001
0000
0000
0000
0000
0000
0000
0002
,  // measure 97
0000
0000
0000
0000
,  // measure 98
3003
1001
0000
0000
;

//---------------dance-single - ----------------
#NOTEDATA:;
#CHARTNAME:;
#STEPSTYPE:dance-single;
#DESCRIPTION:;
#CHARTSTYLE:;
#DIFFICULTY:Beginner;
#METER:3;
#RADARVALUES:0.147282,0.326752,0.210629,0.155200,0.000000,93.000000,74.000000,19.000000,14.000000,0.000000,0.000000,0.000000,0.000000,0.000000,0.147282,0.326752,0.210629,0.155200,0.000000,93.000000,74.000000,19.000000,14.000000,0.000000,0.000000,0.000000,0.000000,0.000000;
#CREDIT:;
#NOTES:
0000
0000
0000
0000
,
0001
0000
0000
0000
,
0000
0000
0000
0000
,
1000
0000
0000
0000
,
1000
0000
0000
0000
,
0001
0000
0000
0000
,
0100
0000
0000
0000
,
0001
0000
0000
0000
,
1000
0000
0000
0000
,
0100
0000
0000
0000
,
1000
0000
0000
0000
,
0001
0000
0000
0000
,
0100
0000
0000
0000
,
0001
0000
0000
0000
,
1000
0000
0000
0000
,
0010
0000
0010
0000
,
0010
0000
0010
0000
,
0110
0000
0000
0000
,
0000
0000
0000
0000
,
1000
0000
0000
0000
,
0001
0000
0000
0000
,
1001
0000
0000
0000
,
0000
0000
0000
0000
,
0100
0000
0000
0000
,
0010
0000
0000
0000
,
0110
0000
0000
0000
,
0000
0000
0000
0000
,
0001
0000
0000
0000
,
1000
0000
0000
0000
,
1001
0000
0000
0000
,
0000
0000
0000
0000
,
0010
0000
0000
0000
,
0100
0000
0000
0000
,
0110
0000
0000
0000
,
0000
0000
0000
0000
,
1001
0000
0000
0000
,
0000
0000
0000
0000
,
1000
0000
0000
0000
,
0100
0000
0000
0000
,
0010
0000
0000
0000
,
0010
0000
0000
0020
,
0000
0000
0000
0000
,
0000
0000
0000
0000
,
0030
0000
0000
0000
,
0001
0000
0000
0000
,
0200
0000
0000
0000
,
0000
0000
0000
0000
,
0300
0000
0000
0000
,
0010
0000
0000
0000
,
2000
0000
0000
0000
,
0000
0000
0000
0000
,
3000
0000
0000
0000
,
0000
0000
0000
0000
,
1001
0000
0000
0000
,
1001
0000
0000
0000
,
2002
0000
0000
0000
,
0000
0000
0000
0000
,
3003
0000
0000
0000
,
0000
0000
0000
0000
,
0010
0000
0000
0000
,
1000
0000
0000
0000
,
1001
0000
0000
0000
,
0000
0000
0000
0000
,
0010
0000
0000
0000
,
0001
0000
0000
0000
,
1001
0000
0000
0000
,
0000
0000
0000
0000
,
0100
0000
0000
0000
,
1000
0000
0000
0000
,
1001
0000
0000
0000
,
0000
0000
0000
0000
,
0100
0000
0000
0000
,
0001
0000
0000
0000
,
1001
0000
0000
0000
,
0000
0000
0000
0000
,
0110
0000
0000
0000
,
0000
0000
0000
0000
,
0001
0000
0000
0001
,
0000
0000
0001
0000
,
0000
0001
0000
0000
,
0001
0000
0000
0000
,
2002
0000
0000
0000
,
0000
0000
0000
0000
,
3003
0000
0010
0000
,
0010
0000
0010
0000
,
0220
0000
0000
0000
,
0000
0000
0000
0000
,
0330
0000
1000
0000
,
1000
0000
1000
0000
,
2002
0000
0000
3003
,
0000
0000
0000
0110
0000
0000
0000
0000
,
0000
0000
0000
0010
0000
0000
0000
0000
,
0000
0000
0000
0200
0000
0000
0000
0000
,
0000
0000
0000
0000
0000
0000
0000
0000
0000
0000
0000
0000
0000
0000
0000
0000
0000
0000
0000
0000
0000
0000
0000
0000
0000
0300
0000
0000
0000
0000
0000
0000
0000
0000
0000
0000
0000
0000
0000
0000
0000
0000
0000
0000
0000
0000
0000
0000
0000
0000
0000
0000
0000
0000
0000
0000
0000
0000
0000
0000
0000
0000
0000
0000
0000
0000
0000
0000
0000
0000
0000
0000
0000
0000
0000
0000
0000
0000
0000
0000
0000
0000
0000
0000
0000
0000
0000
0000
0000
0000
0000
0000
0000
0000
0000
0000
0000
0000
0000
0000
0000
0000
0000
0000
0000
0000
0000
0000
0000
0000
0000
0000
0000
0000
0000
0000
0000
0000
0000
0000
0000
0000
0000
0000
0000
0000
0000
0000
0000
0000
0000
0000
0000
0000
0000
0000
0000
0000
0000
0000
0000
0000
0000
0000
0000
0000
0000
0000
0000
0000
0000
0000
0000
0000
0000
0000
0000
0000
0000
0000
0000
0000
0000
0000
0000
0000
0000
0000
0000
0000
0000
0000
0000
0000
0000
0000
0000
0000
0000
0000
0000
0000
0000
0000
0000
0000
0000
0000
0000
0000
0000
0000
,
2002
0000
0000
0000
,
0000
0000
0000
0000
,
0000
0000
0000
0000
,
0000
0000
0000
0000
,
0000
3003
0000
0000
;

//---------------dance-single - ----------------
#NOTEDATA:;
#CHARTNAME:;
#STEPSTYPE:dance-single;
#DESCRIPTION:;
#CHARTSTYLE:;
#DIFFICULTY:Easy;
#METER:6;
#RADARVALUES:0.353160,0.490128,0.288229,0.587544,0.011086,223.000000,197.000000,26.000000,53.000000,0.000000,0.000000,0.000000,0.000000,0.000000,0.353160,0.490128,0.288229,0.587544,0.011086,223.000000,197.000000,26.000000,53.000000,0.000000,0.000000,0.000000,0.000000,0.000000;
#CREDIT:;
#NOTES:
0000
0000
0000
0000
,
0001
0000
0000
0001
0000
0000
1000
0000
,
0000
1000
0000
0000
0001
0000
0000
0000
,
0000
0000
0000
0000
,
0000
0000
0000
0000
,
0001
0000
0000
0010
0000
0000
0000
0000
,
0100
0000
0000
0010
0000
0001
0000
0000
,
1000
0000
0000
0010
0000
0000
0000
0000
,
0100
0000
0000
0010
0000
1000
0000
0000
,
0001
0000
0000
0010
0000
0000
0000
0000
,
0100
0000
0000
0010
0000
0001
0000
0000
,
1000
0000
0000
0010
0000
0000
0000
0000
,
0100
0000
0000
0010
0000
1000
0000
0000
,
0001
0000
0000
0010
0000
0000
0000
0000
,
0100
1000
0001
0000
,
0100
0000
0100
0000
,
0100
0010
0100
0000
,
0002
0000
0000
0023
0000
0000
0230
0000
,
0000
2300
0000
0000
0000
0000
0002
0000
,
0000
0000
0000
0000
,
3003
0000
0000
0000
,
2000
0000
0000
3020
0000
0000
0230
0000
,
0000
0302
0000
0000
0000
0000
2000
0000
,
0000
0000
0000
0000
,
3003
0000
0000
0000
,
0200
0000
0000
0302
0000
0000
2003
0000
,
0000
3020
0000
0000
0000
0000
0200
0000
,
0000
0000
0000
0000
,
0330
0000
0000
0000
,
0002
0000
0000
0023
0000
0000
0230
0000
,
0000
2300
0000
0000
0000
0000
0002
0000
,
0000
0000
0000
0000
,
3003
0000
0000
0000
,
0101
0000
0000
1001
,
0000
0000
1100
0000
,
1010
0000
0000
1001
,
0000
0000
0011
0000
,
2000
0000
0000
3020
0000
0000
0230
0000
,
0000
0302
0000
0000
0000
0000
2000
0000
,
3003
0000
0100
0000
,
0001
0010
0000
0110
,
0100
0000
0000
1000
0000
0000
0001
0000
,
1000
0000
0000
0010
0000
0000
0100
0000
,
0001
0000
0000
0010
0000
0000
0100
0000
,
1000
0000
0000
0010
0000
0000
0100
0000
,
0001
0000
0000
0011
0000
0000
0000
0000
,
1000
0000
0000
1010
0000
0000
0000
0000
,
0001
0000
0000
0101
0000
0000
0000
0000
,
1000
0010
0100
0010
,
1000
0000
0000
1100
0000
0000
0000
0000
,
0010
0000
0000
0100
0000
0000
1000
0000
,
0100
0000
0000
0010
0000
0000
0001
0000
,
1000
0000
0000
0001
0000
0000
0100
0000
,
0010
0000
0000
1010
0000
0000
0000
0000
,
0010
0000
0000
0011
0000
0000
0000
0000
,
2002
0000
0000
0000
,
3003
0000
0000
0000
,
0002
0000
0000
0203
0000
0000
0320
0000
,
0000
2030
0000
0000
0000
0000
3001
0000
,
1000
1000
0010
0100
,
0001
0010
0100
0000
,
2000
0000
0000
3200
0000
0000
0320
0000
,
0000
0032
0000
0000
0000
0000
1003
0000
,
0100
0000
0000
1000
0000
0001
0000
1000
,
0000
0001
0000
0000
0100
0000
0010
0000
,
2000
0000
0000
3020
0000
0000
0230
0000
,
0000
0302
0000
0000
0000
0000
1003
0000
,
0001
0010
0100
1000
,
0001
0010
0100
0000
,
2000
0000
0000
3200
0000
0000
0320
0000
,
0000
0032
0000
0000
0000
0000
1003
0000
,
0000
0010
0010
0100
,
0001
0010
0000
0000
,
0011
0000
0000
0110
,
0000
0000
1100
0000
,
1010
0000
0000
0110
,
0000
0000
0101
0000
,
1001
0000
0000
1100
,
0000
0000
0011
0000
,
0000
0101
0000
0000
,
1010
0000
0000
0000
,
2000
0000
0000
0002
,
0000
0000
3003
0000
,
0001
1000
0001
1000
,
0001
1000
0001
0000
,
0200
0000
0000
0020
,
0000
0000
0330
0000
,
0010
0100
0010
0100
,
0010
0100
0010
0000
,
1000
0000
0000
0100
0000
0000
0010
0000
,
0000
0000
0000
0001
0000
0000
0100
0000
,
0000
0000
0000
0001
0000
0000
1000
0000
,
0000
0000
0000
0100
0000
0000
0000
0010
,
0000
0000
0000
0000
0000
0000
0000
0000
0000
0000
0000
0000
0000
0000
0000
0000
0000
0000
0000
0000
0000
0000
0000
0000
0200
0300
0000
0000
0000
0000
0000
0000
0000
0000
0000
0000
0000
0000
0000
0000
0000
0000
0000
0000
0000
0000
0000
0000
0000
0000
0000
0000
0000
0000
0000
0000
0000
0000
0000
0000
0000
0000
0000
0000
0000
0000
0000
0000
0000
0000
0000
0000
0000
0000
0000
0000
0000
0000
0000
0000
0000
0000
0000
0000
0000
0000
0000
0000
0000
0000
0000
0000
0000
0000
0000
0000
0000
0000
0000
0000
0000
0000
0000
0000
0000
0000
0000
0000
0000
0000
0000
0000
0000
0000
0000
0000
0000
0000
0000
0000
0000
0000
0000
0000
0000
0000
0000
0000
0000
0000
0000
0000
0000
0000
0000
0000
0000
0000
0000
0000
0000
0000
0000
0000
0000
0000
0000
0000
0000
0000
0000
0000
0000
0000
0000
0000
0000
0000
0000
0000
0000
0000
0000
0000
0000
0000
0000
0000
0000
0000
0000
0000
0000
0000
0000
0000
0000
0000
0000
0000
0000
0000
0000
0000
0000
0000
0000
0000
0000
0000
0000
0000
,
2002
0000
0000
0003
,
0002
0000
0000
0000
3000
0000
0000
2000
0000
0000
0000
0003
,
0000
0000
0002
0000
0000
0000
0000
0000
0000
0000
0000
0000
,
0000
0000
0000
0000
,
0000
3003
0000
0000
;

//---------------dance-single - ----------------
#NOTEDATA:;
#CHARTNAME:;
#STEPSTYPE:dance-single;
#DESCRIPTION:;
#CHARTSTYLE:;
#DIFFICULTY:Medium;
#METER:8;
#RADARVALUES:0.446597,0.925798,0.177372,0.720573,0.000000,282.000000,266.000000,16.000000,65.000000,0.000000,0.000000,0.000000,0.000000,0.000000,0.446597,0.925798,0.177372,0.720573,0.000000,282.000000,266.000000,16.000000,65.000000,0.000000,0.000000,0.000000,0.000000,0.000000;
#CREDIT:;
#NOTES:
0000
0000
0000
0000
,
0010
0000
0000
0100
0000
0000
0010
0000
,
0000
0100
0000
0000
0100
0000
0010
0000
,
0000
0000
0000
0000
,
0000
0000
0000
0000
,
0001
0000
0000
0010
0000
0000
0100
0000
,
1000
0000
0000
0010
0000
0100
0000
0000
,
0001
0000
0000
0010
0000
0000
0100
0000
,
1000
0000
0000
0010
0000
0100
0000
0000
,
0001
0000
0000
0100
0000
0000
0010
0000
,
1000
0000
0000
0100
0000
0010
0000
0000
,
0001
0000
0000
1000
0000
0000
0010
0000
,
1000
0000
0000
0001
0000
0010
0000
0000
,
0100
0000
0000
0010
0000
0000
0001
0000
,
1000
0010
0100
0010
,
1000
0010
1000
0010
,
1000
0100
1000
0000
,
0002
0000
0000
0203
0000
0000
2300
0000
,
0000
3200
0000
0000
0000
0000
0310
0000
,
1000
0000
0000
0001
0000
0000
0010
0000
,
0001
0000
0000
1000
0000
0001
0000
0000
,
2000
0000
0000
3200
0000
0000
0302
0000
,
0000
0203
0000
0000
0000
0000
0310
0000
,
0001
0000
0000
1000
0000
0000
0010
0000
,
1000
0000
0000
0001
0000
1000
0000
0000
,
0002
0000
0000
0023
0000
0000
2030
0000
,
0000
3020
0000
0000
0000
0000
0031
0000
,
0010
0000
0000
0100
0000
0000
1000
0000
,
0100
0000
0000
0010
0000
0001
0000
0000
,
2000
0000
0000
3200
0000
0000
0302
0000
,
0000
0203
0000
0000
0000
0000
1300
0000
,
0001
0000
0000
1000
0000
0000
0010
0000
,
0100
0000
0000
0001
0000
0000
1000
0000
,
0200
1300
0000
0000
0000
0000
0200
1300
,
0000
0000
0000
0000
0200
0310
0000
0000
,
0020
0031
0000
0000
0000
0000
0020
0031
,
0000
0000
0000
0000
0020
0130
0000
0000
,
2000
0000
0000
3200
0000
0000
0302
0000
,
0000
0203
0000
0000
0000
0000
1300
0000
,
0000
0000
0010
0000
,
0100
0010
0000
2002
,
0000
0000
0000
0000
,
3003
0000
0000
0100
0000
0000
0001
0000
,
0010
0000
0000
0100
0000
0000
1000
0000
,
0010
0000
0000
0100
0000
0000
0001
0000
,
1000
0000
0000
2010
0000
0000
0000
0000
,
3001
0000
0000
0102
0000
0000
0000
0000
,
0013
0000
0000
0210
0000
0000
0310
0000
,
0001
0010
0100
1000
,
2001
0000
0000
0100
0000
0000
0000
0000
,
3100
0000
0000
0010
0000
0000
0001
0000
,
0012
0000
0000
1003
0000
0000
0010
0000
,
0100
0000
0000
0001
0000
0000
1000
0000
,
0100
0000
0000
1100
0000
0000
0010
0000
,
0001
0000
0000
0101
0000
0000
0010
0000
,
2000
0000
0000
0000
,
0000
0000
0000
0000
,
3001
0000
0000
0010
0000
0000
1000
0000
,
0000
0010
0000
0000
0000
0000
0001
0000
,
1000
0010
1000
0001
,
0100
0001
1000
0000
,
0001
0000
0000
0100
0000
0000
1000
0000
,
0000
0100
0000
0000
0000
0000
0001
0000
,
0100
0001
0000
1000
0000
0001
0000
1000
,
0000
0010
0000
0100
0010
0000
1000
0000
,
0001
0000
0000
0010
0000
0000
1000
0000
,
0000
0010
0000
0000
0000
0000
0001
0000
,
0010
0100
0010
0001
,
0010
0100
1000
0000
,
1000
0000
0000
0100
0000
0000
0001
0000
,
0000
0100
0000
0000
0000
0000
2000
0000
,
0000
3001
1000
0100
,
1000
0001
0000
0000
,
0200
0301
0000
0000
0000
0000
0200
0301
,
0000
0000
0000
0000
0200
0310
0000
0000
,
0020
1030
0000
0000
0000
0000
0020
1030
,
0000
0000
0000
0000
2000
3001
0000
0000
,
0020
0031
0000
0000
0000
0000
2000
3001
,
0000
0000
0000
0000
0020
1030
0000
0000
,
0000
0000
0200
0310
0000
0000
0000
0000
,
2000
3001
0000
0000
0000
0000
0000
0000
,
2002
0000
0000
0000
0000
3003
2002
0000
,
0000
0000
0000
3003
0001
1000
0001
1000
,
0001
1000
0001
1000
0001
1000
0001
1000
,
0001
1000
0001
1000
0001
0000
0000
0000
,
0220
0000
0000
0000
0000
0330
0220
0000
,
0000
0000
0000
0330
0010
0100
0010
0100
,
0010
0100
0010
0100
0010
0100
0010
0100
,
0010
0100
0010
0100
0010
0000
0000
0000
,
2000
0000
0000
3200
0000
0000
0320
0000
,
0000
0000
0030
0001
0000
0000
0202
0000
,
0000
0000
0303
0010
0000
0000
2200
0000
,
0000
0000
3300
0010
0000
0000
0000
0200
,
0000
0000
0000
0000
0000
0000
0000
0000
0000
0000
0000
0000
0000
0000
0000
0000
0000
0000
0000
0000
0000
0000
0000
0000
0020
0330
0000
0000
0000
0000
0000
0000
0000
0000
0000
0000
0000
0000
0000
0000
0000
0000
0000
0000
0000
0000
0000
0000
0000
0000
0000
0000
0000
0000
0000
0000
0000
0000
0000
0000
0000
0000
0000
0000
0000
0000
0000
0000
0000
0000
0000
0000
0000
0000
0000
0000
0000
0000
0000
0000
0000
0000
0000
0000
0000
0000
0000
0000
0000
0000
0000
0000
0000
0000
0000
0000
0000
0000
0000
0000
0000
0000
0000
0000
0000
0000
0000
0000
0000
0000
0000
0000
0000
0000
0000
0000
0000
0000
0000
0000
0000
0000
0000
0000
0000
0000
0000
0000
0000
0000
0000
0000
0000
0000
0000
0000
0000
0000
0000
0000
0000
0000
0000
0000
0000
0000
0000
0000
0000
0000
0000
0000
0000
0000
0000
0000
0000
0000
0000
0000
0000
0000
0000
0000
0000
0000
0000
0000
0000
0000
0000
0000
0000
0000
0000
0000
0000
0000
0000
0000
0000
0000
0000
0000
0000
0000
0000
0000
0000
0000
0000
0000
,
2002
0000
0000
0000
,
0000
0000
0000
0000
,
0000
0000
0000
0000
,
0000
0000
0000
0000
,
0000
3003
1001
0000
0000
0000
0000
0000
;
