#TITLE:TRNDSTTR;
#SUBTITLE:(Lucian Remix);
#ARTIST:Black Coast;
#TITLETRANSLIT:;
#SUBTITLETRANSLIT:;
#ARTISTTRANSLIT:;
#GENRE:;
#CREDIT:;
#BANNER:trndsttr-bn.png;
#BACKGROUND:trndsttr-bg.png;
#LYRICSPATH:;
#CDTITLE:;
#MUSIC:trndsttr.ogg;
#OFFSET:0.015000;
#SAMPLESTART:44.292999;
#SAMPLELENGTH:12.000000;
#SELECTABLE:YES;
#BPMS:0.000000=65.000000
,44.000000=130.000000
,52.000000=520.000000
,52.500000=390.000000
,53.000000=260.000000
,53.250000=130.000000
,53.500000=65.000000
,53.750000=195.000000
,54.000000=260.000000
,54.250000=325.000000
,54.500000=390.000000
,55.750000=520.000000
,56.000000=260.000000
,68.000000=325.000000
,69.000000=195.000000
,70.000000=260.000000
,72.000000=325.000000
,73.000000=195.000000
,73.500000=130.000000
,74.000000=260.000000
,76.250000=130.000000
,76.500000=65.000000
,76.750000=130.000000
,77.000000=195.000000
,77.250000=260.000000
,77.500000=325.000000
,77.750000=390.000000
,78.000000=545.000000
,80.000000=130.000000
,81.000000=260.000000
,89.000000=390.000000
,90.000000=195.000000
,91.000000=260.000000
,93.000000=390.000000
,93.250000=260.000000
,93.500000=130.000000
,93.750000=97.500000
,94.500000=130.000000
,96.000000=260.000000
,96.250000=65.000000
,96.500000=130.000000
,97.000000=65.000000
,97.250000=260.000000
,97.500000=130.000000
,98.000000=260.000000
,107.000000=390.000000
,107.500000=260.000000
,108.000000=130.000000
,108.500000=65.000000
,119.000000=130.000000
,119.500000=65.000000
,120.000000=130.000000
,120.750000=260.000000
,126.000000=390.000000
,126.833336=325.000000
,127.000000=195.000000
,127.333336=130.000000
,127.666664=65.000000
,128.250000=260.000000
,137.000000=37.500000
,137.166672=65.000000
,137.333328=130.000000
,137.666672=260.000000
,139.000000=130.000000
,140.000000=195.000000
,142.000000=130.000000
,193.500000=135.000000
,195.500000=130.000000
,219.000000=260.000000
,227.000000=390.000000
,227.666672=260.000000
,228.000000=195.000000
,229.000000=130.000000
,231.000000=195.000000
,233.000000=130.000000
,235.000000=260.000000
,235.500000=65.000000
,235.666672=97.500000
,235.833328=130.000000
,239.000000=260.000000
,248.000000=195.000000
,260.000000=130.000000
,262.000000=260.000000
,262.166656=65.000000
,262.500000=97.500000
,262.666656=130.000000
,263.000000=195.000000
,264.000000=130.000000
,266.000000=65.000000
,266.166656=97.500000
,266.333344=130.000000
,266.666656=195.000000
,268.000000=65.000000
,268.166656=130.000000
,268.333344=195.000000
,268.500000=260.000000
,268.666656=325.000000
,268.833344=390.000000
,269.000000=260.000000
,277.000000=195.000000
,279.000000=130.000000
,280.000000=195.000000
,280.666656=97.500000
,281.166656=130.000000
,282.000000=260.000000
,286.000000=65.000000
,286.250000=130.000000
,286.666656=195.000000
,287.000000=260.000000
,288.000000=130.000000
,290.000000=260.000000
,298.000000=195.000000
,298.333344=65.000000
,298.666656=97.500000
,299.000000=130.000000
,299.166656=195.000000
,299.333344=260.000000
,300.000000=130.000000
;
#STOPS:68.000000=0.025000,
68.166664=0.025000,
68.333336=0.025000,
68.500000=0.050000,
68.666664=0.050000,
68.833336=0.050000,
69.333336=0.050000,
69.666664=0.075000,
70.000000=0.545000,
72.000000=0.025000,
72.166664=0.025000,
72.333336=0.025000,
72.500000=0.050000,
72.666664=0.050000,
72.833336=0.050000,
73.166664=0.025000,
73.333336=0.050000,
75.500000=0.500000,
79.979164=0.400000,
89.000000=0.025000,
89.333336=0.025000,
89.666664=0.050000,
90.000000=0.075000,
90.333336=0.125000,
90.666664=0.175000,
91.000000=0.500000,
95.000000=0.450000,
98.000000=0.550000,
109.000000=-9.230768,
119.000000=0.300000,
120.000000=0.050000,
120.333336=0.050000,
120.750000=0.050000,
121.000000=0.050000,
121.250000=0.050000,
126.166664=0.025000,
126.333336=0.025000,
126.500000=0.025000,
127.000000=0.025000,
127.166664=0.025000,
127.333336=0.025000,
127.500000=0.025000,
127.666664=0.025000,
127.833336=0.025000,
128.250000=0.500000,
139.000000=0.500000,
140.000000=0.050000,
140.333328=0.050000,
140.666672=0.050000,
141.000000=0.075000,
141.500000=0.075000,
142.000000=-4.615384,
152.000000=0.700000,
216.500000=0.750000,
227.000000=0.025000,
227.166672=0.025000,
227.333328=0.025000,
227.500000=0.025000,
227.666672=0.050000,
227.833328=0.050000,
228.000000=0.075000,
228.333328=0.075000,
228.666672=0.075000,
231.000000=0.100000,
231.500000=0.025000,
231.666672=0.025000,
231.833328=0.025000,
232.000000=0.025000,
232.333328=0.050000,
232.666672=0.050000,
247.000000=0.025000,
247.166672=0.025000,
247.333328=0.025000,
247.500000=0.025000,
247.666672=0.050000,
247.833328=0.050000,
248.000000=0.050000,
248.333328=0.075000,
248.666672=0.075000,
249.000000=-3.384615,
266.000000=0.100000,
268.000000=0.500000,
277.000000=0.025000,
277.166656=0.025000,
277.333344=0.025000,
277.500000=0.050000,
277.666656=0.050000,
277.833344=0.050000,
278.000000=0.075000,
278.500000=0.050000,
279.000000=0.475000,
286.000000=0.025000,
286.250000=0.025000,
286.500000=0.025000,
286.666656=0.025000,
286.833344=0.025000,
287.333344=0.025000,
287.666656=0.025000
;
#BGCHANGES:;
#KEYSOUNDS:;
#ATTACKS:;

//---------------dance-single - ----------------
#NOTES:
     dance-single:
     :
     Challenge:
     15:
     0.413565,0.649703,0.435720,0.347099,0.221553,392.000000,333.000000,59.000000,47.000000,0.000000,0.000000,0.413565,0.649703,0.435720,0.347099,0.221553,392.000000,333.000000,59.000000,47.000000,0.000000,0.000000:
0020
0000
0031
0000
1000
0000
0100
0100
0001
0000
0100
1000
0000
0001
1000
0000
,
0010
0000
1000
0000
0000
0000
0000
0000
0100
0010
0100
0010
0100
0000
1000
0000
,
0001
0000
0000
0100
0000
0000
1000
0000
0000
0100
0000
0000
0001
0000
0000
0000
2000
0000
0000
0000
0000
0000
0000
0000
0000
0000
0000
0000
0000
0000
0000
0000
,
3001
0000
0010
0000
0001
0000
0010
0000
0001
0000
0010
0000
0100
0000
2000
0000
0000
0000
0000
0000
0000
0000
0000
0000
3000
0000
0000
0000
0010
0100
0001
1000
,
0010
0000
0000
0000
0100
0010
0000
0000
1000
1000
0100
1000
0001
0000
0001
0000
,
0100
0000
0000
0000
0000
0000
0000
0100
0010
0000
0000
0000
0000
0000
0100
0000
,
0001
0000
0000
0000
0000
0000
0000
0000
1000
0100
0010
0001
0010
0100
1000
0001
,
0000
0100
0000
0000
0010
0000
0000
1000
0000
0000
1000
0000
0000
0000
0001
0000
0200
0000
0000
0000
0000
0000
0000
0000
0000
0000
0000
0000
1000
0000
0000
0000
,
0310
0000
0000
0000
1000
0000
0000
0000
0010
0000
0000
0000
0100
0000
0000
0000
0000
0000
0001
0000
0000
1000
0000
0000
0001
0000
0000
0001
0000
0000
0010
0000
0000
0100
0000
0000
1000
0000
0000
0000
0000
0000
0010
0000
0000
2000
0000
0000
,
0000
3000
2000
3000
0001
0001
0100
0001
,
1000
1000
0100
0010
0100
0000
1000
0100
0010
0001
0100
0001
1000
0010
1000
0000
,
0102
0100
0100
0000
1000
0000
1003
0000
,
2100
0100
3020
0000
0100
0100
1030
0000
,
0202
0000
0000
0000
,
0303
0000
0010
0000
,
0011
0001
1001
1000
,
1010
0010
0110
0100
,
0002
0000
0013
0000
,
2000
0000
3100
0000
,
0220
0000
0000
0000
0000
0000
0000
0330
,
1000
1001
0100
1001
,
0010
1010
0100
0101
,
0001
0012
0000
1003
,
0000
2100
0000
3010
,
0110
0000
0000
2000
0000
0000
0000
0000
0002
0000
0000
0000
3003
0000
0000
0000
0000
0000
0101
0000
0000
0000
0000
0000
,
1000
1100
0001
1001
,
0100
0110
0010
2020
,
0000
3030
2100
0000
,
3100
0100
0001
0100
0000
0100
1000
0001
,
0011
0000
0010
0100
0000
0000
0000
0000
,
2100
0000
0000
0000
3100
0001
0100
1000
,
0001
0100
1000
0100
0002
0000
0000
0000
,
1000
0003
0000
0000
0011
0000
0000
0000
0010
0000
0000
0000
0110
0000
0000
0000
,
0100
1100
1000
1010
,
0100
0022
0000
0033
,
2002
0000
3003
1100
,
0010
0101
1000
0011
,
0100
1001
0000
0000
,
0000
1001
0000
0010
0000
0010
0000
0100
,
0001
0000
0010
0000
0000
0001
1000
0000
0010
0000
1000
0001
0000
0001
0100
0000
,
0010
0000
1000
0000
0000
1000
0010
0000
0100
0000
0010
1000
0000
0010
0100
0000
,
0001
0000
1000
0000
0000
0100
1000
0000
0001
0000
1000
0100
0000
1000
0001
0000
,
0100
0000
0001
0000
0010
0000
0100
0000
1000
0000
0000
0010
0200
0000
0301
0000
,
1000
0100
1000
0001
0100
0000
0010
0010
,
0100
0000
0001
0000
0010
0000
0100
0000
1000
0000
0000
0001
1000
0000
0100
0000
,
0010
0001
0010
0001
1000
0100
0000
0100
,
0000
0011
0000
0100
0000
0010
0100
0010
,
0001
0010
0010
1000
0010
0001
0000
0010
,
0000
1000
0000
0000
0000
0000
0000
0000
,
0000
0000
0000
0020
,
0000
0130
0010
0100
0010
0100
0000
1000
,
0001
0100
1000
0100
0001
1000
0010
0100
,
0000
0102
0100
0100
0000
1000
0000
1003
,
0000
1020
1000
0130
0000
1200
1000
0310
,
0000
1001
0000
0000
0100
0000
1100
0000
,
1000
1010
0010
0110
,
0100
0101
0001
0012
,
0000
1003
0000
2100
,
0000
3001
0000
0220
,
0000
0330
0100
0011
,
0100
1010
0100
1001
,
0010
1001
1000
0200
,
0000
0310
1000
0002
,
0000
0000
0000
0000
0103
0000
0000
0000
0010
1000
0001
0010
0100
1000
0000
0010
,
0100
0010
0100
0010
1000
0100
0010
0001
1000
0100
0000
0000
0000
0000
0000
0000
,
0010
1000
0002
0000
,
0103
2100
3002
0000
,
0103
1010
0001
0101
,
1000
1010
0100
0110
,
0010
0202
0000
0303
,
1200
0000
0000
0000
0310
0100
0001
0010
,
0100
1000
0010
0100
2002
0000
0000
0000
,
0003
3000
0000
0000
0000
0000
0000
0000
0011
0000
0000
0000
0110
0000
0000
0000
,
1100
0010
1010
0110
,
0101
0001
2000
0000
,
3001
0000
0210
0000
,
0310
0000
0010
0000
;

//---------------dance-single - ----------------
#NOTES:
     dance-single:
     :
     Beginner:
     4:
     0.104446,0.141240,0.022155,0.251093,0.169857,99.000000,96.000000,3.000000,34.000000,0.000000,0.000000,0.104446,0.141240,0.022155,0.251093,0.169857,99.000000,96.000000,3.000000,34.000000,0.000000,0.000000:
0020
0000
0030
0000
,
0200
0000
0300
0000
,
2000
0000
3000
0000
,
0002
0000
0003
0000
,
0001
0000
0001
0000
,
1000
0000
1000
0000
,
0001
0000
0001
0000
,
1000
0000
1000
0000
,
0010
0000
0010
0000
,
0100
0000
0100
0000
,
0010
0000
0010
0000
,
0020
0000
0000
0000
,
0000
0000
0030
0000
,
1001
0000
0000
0000
,
0000
0000
0000
0000
,
0001
0000
0001
0000
,
0001
0000
0001
0000
,
0002
0000
0003
0000
,
2000
0000
3000
0000
,
0002
0000
0003
0000
,
0000
0010
0000
0010
,
0000
0010
0000
0010
,
0000
0020
0000
0030
,
0000
0200
0000
0300
,
0110
0000
0000
0001
,
0000
0001
0000
0001
,
0000
0001
0000
0002
,
0000
0003
2000
0000
,
3000
0000
0000
0000
0000
0000
0000
0000
0000
0000
0000
0000
0000
0000
0000
0000
0000
0000
0000
0000
0000
0000
0000
0000
0000
0000
0000
0000
0000
0000
0000
0000
0000
0000
0000
0000
0000
0000
1000
0010
0010
0100
0001
0000
0001
0011
0010
0100
1000
0000
0000
0012
0003
0210
2300
3001
0001
0010
0000
0000
0210
0300
0100
0100
0100
0000
0000
0000
0000
0100
0100
0001
0001
0010
0100
1000
0100
0100
0100
0000
0000
0021
0030
0000
0000
0000
0000
0000
0000
0000
0000
0000
0000
0000
0000
0000
0000
0000
0000
0000
0000
0000
0000
0000
0000
0000
0000
0000
0000
0000
0000
0000
0000
0000
0000
0000
0000
0000
0000
0000
0000
0000
0000
0000
0000
0000
0000
0000
0000
0000
0000
0000
0000
0000
0000
0000
0000
0000
0000
0000
0000
0000
0000
0000
0000
0000
0000
0000
0000
0000
0000
0000
0000
0000
0000
0000
0000
0000
0000
0000
0000
0000
0000
0000
0000
0000
0000
0000
0000
0000
0000
0000
0000
0000
0000
0000
0000
0000
0000
0000
0000
0000
0000
0000
0000
0000
0000
0000
0000
0000
0000
0000
,
0000
0000
0000
0000
,
2000
0000
3000
0000
,
0000
0000
0002
0000
,
0003
0100
0000
0100
,
0000
0100
0000
0100
,
0000
0200
0000
0300
,
0020
0000
0030
0000
,
0000
0000
0000
0000
,
0000
0000
0000
0000
,
0000
0010
0000
0000
0000
0000
0000
0000
,
0000
1000
0000
0000
0000
0000
0000
0000
,
0000
0100
0000
0000
0000
0000
0000
0000
,
0000
0001
0000
0000
0000
0000
0000
0000
,
0000
0010
0000
0000
0000
0000
0000
0000
,
0000
0001
0000
0000
0000
0000
0000
0000
,
0000
0100
0000
0000
0000
0000
0000
0000
,
0000
1000
0000
0000
0000
0000
0000
0000
,
0000
2000
0000
3000
0000
1000
0000
0000
,
0000
0020
0000
0030
0000
0010
0000
0000
,
0000
0200
0000
0300
0000
0100
0000
0000
,
0000
0002
0000
0003
0000
0001
0000
0000
,
0000
2000
0000
3000
0000
1000
0000
0000
,
0000
0020
0000
0030
0000
0010
0000
0000
,
0000
0020
0000
0000
0000
0000
0000
0000
,
0000
0000
0000
0000
,
0000
0030
0000
0000
0000
0000
1000
0000
,
0000
1000
0000
1000
,
0000
1000
0000
2000
,
0000
3000
0000
0002
,
0000
0003
0000
2002
,
0000
3003
0000
0001
,
0000
0001
0000
0001
,
0000
0001
0000
0002
,
0000
0003
0000
2000
,
0000
0000
0000
0000
0000
0000
0000
0000
3001
0010
0100
1000
0001
0010
0100
1000
0001
0010
0100
1000
0001
0010
0100
1000
0001
0010
0100
1000
0001
0010
0100
0000
,
0000
0000
0000
0000
,
0000
0000
2000
0000
,
3000
0000
0200
0000
,
0300
0100
0000
0100
,
0000
0100
0000
0100
,
0000
0200
0000
0300
,
0020
0000
0030
0000
,
0000
0000
0020
0000
,
0030
0000
0010
0000
,
0010
0000
0010
0000
,
0010
0000
0020
0000
,
0030
0000
0200
0000
,
0300
0000
0100
0000
;

//---------------dance-single - ----------------
#NOTES:
     dance-single:
     :
     Easy:
     6:
     0.149812,0.282480,0.103391,0.317559,0.011078,142.000000,128.000000,14.000000,43.000000,0.000000,0.000000,0.149812,0.282480,0.103391,0.317559,0.011078,142.000000,128.000000,14.000000,43.000000,0.000000,0.000000:
0020
0000
2030
0000
,
3002
0000
2003
0000
,
3200
0000
0320
0000
,
0032
0000
0023
0000
,
0130
0000
1000
0000
,
0001
0000
0010
0000
,
0001
0000
1000
0000
,
0010
0000
0100
0000
,
0001
0001
1000
1000
,
0010
0010
0100
0100
,
0010
0100
0010
0100
,
2002
0000
0000
0000
,
0000
0000
3003
0000
,
2002
0000
0000
0000
,
3003
0000
0000
0000
,
0010
0000
0100
0000
,
0010
0000
0100
0000
,
0220
0000
0330
0000
,
0002
0000
0003
0000
,
2000
0000
3000
0000
,
0000
1000
0000
0001
,
0000
1000
0000
0001
,
0000
2000
0000
3000
,
0000
0020
0000
0030
,
0220
0000
0330
0010
,
0000
0100
0000
0010
,
0000
0100
0000
0020
,
0000
0030
0200
0000
,
0311
0110
1010
0101
,
0000
0000
0000
0000
,
0200
0000
0300
0000
,
0000
0000
2002
0000
,
0003
3000
0000
0000
0001
0000
0000
0000
0000
0000
0000
0000
1000
0000
0000
0000
,
0000
0001
0000
1000
,
0000
0002
0000
0003
,
0220
0000
0330
0100
,
0100
0100
0001
1000
,
1000
1000
0000
0000
,
0000
0100
0000
0100
0000
0100
0000
0001
,
0000
1000
0000
1000
0000
1000
0000
0001
,
0000
0100
0000
0100
0000
0100
0000
0010
,
0000
1000
0000
1000
0000
1000
0000
0000
,
0000
0001
0000
0001
0000
0001
0000
1000
,
0000
0100
0000
0100
0000
0100
0000
1000
,
0000
0001
0000
0001
0000
0001
0000
0010
,
0000
0100
0000
0100
0000
0100
0000
0100
,
0000
0110
0000
0000
0000
1000
0000
0000
,
0000
0010
0000
0000
0000
0100
0000
0000
,
0000
0020
0000
0000
0000
0030
0000
0000
,
0000
0000
0000
0000
,
0000
0001
0000
0001
0000
0010
0000
0000
,
0000
0100
0000
0100
0000
1000
0000
0000
,
0000
2002
0000
0000
0000
0000
0000
0000
,
0000
0000
0000
0000
,
0000
3003
0000
0000
0000
0000
1000
0000
,
0000
0100
0000
0010
,
0000
0001
0000
0002
,
0000
0003
0000
2000
,
0000
3000
0000
0020
,
0000
0030
0000
1000
,
0000
0010
0000
0100
,
0000
0001
0000
0002
,
0000
0003
0000
2000
,
0000
0000
0000
0000
3000
0010
0100
0000
0000
0001
1000
0100
0010
0000
0000
0000
,
0000
0000
0000
0000
,
0000
0000
2000
0000
,
3000
0000
0200
0000
,
0300
0100
0000
0100
,
0000
0010
0000
0100
,
0000
2000
0000
3000
,
0002
0000
0003
0000
,
0000
0000
2002
0000
,
3003
0000
1001
0000
,
0110
0000
1001
0000
,
0110
0000
2002
0000
,
3003
0000
0200
0000
,
0300
0000
0010
0000
;

//---------------dance-single - ----------------
#NOTES:
     dance-single:
     :
     Hard:
     10:
     0.270083,0.480215,0.369254,0.398795,0.036925,256.000000,206.000000,50.000000,54.000000,0.000000,0.000000,0.270083,0.480215,0.369254,0.398795,0.036925,256.000000,206.000000,50.000000,54.000000,0.000000,0.000000:
// measure 0
0200
0000
0000
0000
0301
0000
1000
1000
0001
0000
0100
0001
0000
0010
0001
0000
,  // measure 1
2000
0000
0000
0000
3000
0000
0000
0000
0100
0010
0100
0010
0100
0000
1000
0000
,  // measure 2
0002
0000
0023
0000
,  // measure 3
0130
1000
0100
1000
0100
0010
0002
2000
0000
0000
0000
0000
0000
0000
0000
0000
,  // measure 4
3003
0000
0010
0000
,  // measure 5
0100
0000
0000
0000
0000
0000
0000
0001
0100
0000
0000
0000
0000
0000
0010
0000
,  // measure 6
1000
0000
0100
0000
,  // measure 7
0010
0000
0001
0000
,  // measure 8
2000
3020
2030
3002
,  // measure 9
0023
2030
3020
0032
,  // measure 10
0103
0100
0010
1000
0010
0010
0100
0001
,  // measure 11
1002
1003
0100
0100
,  // measure 12
0010
0100
0010
0000
1000
0001
1000
0000
,  // measure 13
0202
0000
0000
0000
,  // measure 14
0303
0000
0000
0000
,  // measure 15
0101
0000
1100
0000
,  // measure 16
1010
0000
0011
0000
,  // measure 17
2002
0000
3003
0000
,  // measure 18
0200
0000
0300
0000
,  // measure 19
0020
0000
0030
0000
,  // measure 20
0000
1010
0000
1100
,  // measure 21
0000
0101
0000
0011
,  // measure 22
0000
0220
0000
0330
,  // measure 23
0000
2000
0000
3000
,  // measure 24
0002
0000
0003
0011
,  // measure 25
0000
1001
0000
1100
,  // measure 26
0000
0110
0000
0202
,  // measure 27
0000
0303
1100
0110
,  // measure 28
0101
1001
1010
1100
,  // measure 29
0000
0000
0000
0000
,  // measure 30
2200
0000
3300
0000
,  // measure 31
0000
0000
0020
0000
,  // measure 32
0030
1001
0000
1001
,  // measure 33
0000
0110
0000
0110
,  // measure 34
0000
0002
0000
0103
,  // measure 35
2000
0000
0000
0000
3100
0000
0010
0100
,  // measure 36
0001
0000
0100
0001
0010
0000
0100
1000
,  // measure 37
0010
0000
1000
0001
0100
0000
0000
0000
,  // measure 38
0000
0010
0100
0001
0000
0100
0001
0010
,  // measure 39
0000
0100
1000
0010
0000
0100
0010
1000
,  // measure 40
0000
0010
1000
0001
0000
0010
0001
1000
,  // measure 41
0000
0100
1000
0001
0000
0100
0001
1000
,  // measure 42
0000
0001
0010
0100
1000
0000
0010
1000
,  // measure 43
0010
1000
0100
0010
0001
0000
0100
0001
,  // measure 44
0100
0010
1000
0001
0010
0000
0100
1000
,  // measure 45
0010
0001
0010
1000
0001
0001
0000
1000
,  // measure 46
0000
0011
0000
1000
0000
0100
1000
0010
,  // measure 47
0010
1000
0100
0010
0010
0100
0000
1000
,  // measure 48
0000
0010
0000
0000
0000
0000
0000
0000
,  // measure 49
0000
0010
0000
0000
0000
0000
0000
0000
,  // measure 50
0000
1000
0001
1000
1000
0001
0000
0010
,  // measure 51
0001
0100
0001
0010
0100
1000
0100
0010
,  // measure 52
0000
1002
0000
1003
0000
0210
0000
0310
,  // measure 53
0000
2001
0000
3001
0000
1200
0000
1300
,  // measure 54
0000
0001
0000
0000
0000
0000
1010
0000
,  // measure 55
0000
0110
0000
0011
,  // measure 56
0000
0101
0000
2200
,  // measure 57
0000
3300
0000
0202
,  // measure 58
0000
0303
0000
0020
,  // measure 59
0000
0030
0000
1100
,  // measure 60
0000
1001
0000
1010
,  // measure 61
0000
0011
0000
0202
,  // measure 62
0000
0303
0000
2020
,  // measure 63
0000
3130
0001
0010
,  // measure 64
0000
0000
0000
0000
,  // measure 65
0000
0000
2020
0000
,  // measure 66
3030
0000
0002
0000
,  // measure 67
0003
0110
0000
1100
,  // measure 68
0000
0110
0000
0011
,  // measure 69
0000
2002
0000
3003
,  // measure 70
0220
0000
0330
0000
,  // measure 71
0000
0000
2000
0000
,  // measure 72
3000
0000
1100
0000
,  // measure 73
0110
0000
0101
0000
,  // measure 74
1010
0000
0202
0000
,  // measure 75
0303
0000
2000
0000
,  // measure 76
3000
0000
0010
0000
;

//---------------dance-single - ----------------
#NOTES:
     dance-single:
     :
     Medium:
     8:
     0.205727,0.367224,0.066466,0.302789,0.029540,195.000000,186.000000,9.000000,41.000000,0.000000,0.000000,0.205727,0.367224,0.066466,0.302789,0.029540,195.000000,186.000000,9.000000,41.000000,0.000000,0.000000:
2000
3001
0100
0100
,
0002
1003
0100
0100
,
0020
0000
0230
0000
,
2300
0000
3002
0000
,
0003
0000
0000
0000
0010
0010
1000
0010
,
1000
0000
0000
0000
0001
0000
0000
1000
,
0001
0000
0000
0000
0100
0001
0010
0100
,
1000
0000
0000
0000
0001
0000
0000
0001
,
1000
0010
1000
0010
,
0100
0001
0010
0010
,
0001
0010
0001
0000
1000
0100
1000
0000
,
1002
0000
1003
0000
,
0210
0000
0320
0000
,
2030
0000
0000
0000
,
3000
0000
0000
0000
,
0001
1000
0001
1000
,
0001
0000
0001
0000
,
0200
0000
0300
0000
,
0020
0000
0030
0000
,
2000
0000
3000
0000
,
0000
1000
0100
1000
,
0100
0010
0001
0010
,
0200
0000
0000
0300
,
0000
2000
0000
3000
,
0002
0000
0003
1000
,
0001
1000
0010
1000
,
0000
0001
0020
0000
,
0000
0030
0220
0000
,
0330
0000
0000
0000
0000
0000
0000
0000
0000
0000
0000
0000
0001
0000
0000
0000
1000
0000
0000
0000
0000
0000
0000
0000
0100
0000
0000
0000
0000
0000
0010
0000
0000
0000
0000
0000
0001
0000
0000
0000
0000
0000
0100
0000
0000
0000
0000
0000
0010
0000
0000
0000
0000
0000
0100
0000
0000
0000
0000
0000
0200
0000
0000
0000
0000
0000
1300
0000
0000
0000
0000
0000
0000
0000
0000
0000
0000
0000
0000
0000
0000
0000
0000
0000
0000
0000
0000
0000
0000
0000
0000
0000
0000
0000
0000
0000
0000
0000
0000
0000
0000
0000
0000
0000
0000
0000
0000
0000
0000
0000
0000
0000
0000
0000
0000
0000
0000
0000
0000
0000
0000
0000
0000
0000
0000
0000
0000
0000
0000
0000
0000
0000
0000
0000
0000
0000
0000
0000
0000
0000
0000
0000
0000
0000
0000
0000
0000
0000
0000
0000
0000
0000
0000
0000
0000
0000
0000
0000
0000
0000
0000
0000
0000
0000
0000
0000
0000
0000
0000
0000
0000
0000
0000
0000
0000
0000
0000
0000
0000
0000
0000
0000
0000
0000
0000
0000
0000
0000
0000
0000
0000
0000
,
0000
0000
0000
0000
,
0220
0000
0330
0000
,
0000
0000
2002
0000
,
0003
3000
0000
0000
0001
0000
0000
0000
0100
0000
0000
0000
0001
0000
0000
0000
,
0010
0001
0100
0001
,
0000
2000
0000
3000
,
0002
0000
0003
0001
,
0010
0100
1000
0110
,
0001
0010
0100
0000
,
0000
0001
0000
0001
0000
0001
0000
1000
,
0100
0010
0000
0010
0000
0010
0000
0001
,
1000
0100
0000
0100
0000
0100
0000
1000
,
0010
0100
0000
0100
0000
0100
0000
0100
,
0000
0001
0010
0001
0010
0000
0001
1000
,
0000
0010
1000
0010
1000
0000
1000
0001
,
0000
0100
0001
0100
0001
0000
1000
0100
,
0000
1000
0000
1000
0000
0001
0000
0100
,
0000
1010
0000
0100
0000
0001
0000
1000
,
0000
0001
0000
0001
0000
1000
0000
1000
,
0000
1001
0000
0000
0000
0000
0000
0000
,
0000
0000
0000
0000
,
0000
0010
0000
0100
0000
0001
0000
0010
,
0000
0100
0000
1000
0000
0010
0000
0010
,
0000
0220
0000
0330
0000
2002
0000
3003
,
0000
2000
0000
3000
0000
0200
0000
0300
,
0000
1000
0000
0000
0000
0000
0010
0000
,
1000
0010
1000
0001
,
0100
0001
0100
0002
,
0000
0003
0000
2000
,
0000
3000
0000
0020
,
0000
0030
0000
1000
,
0100
0010
0001
0010
,
0100
1000
0000
0002
,
0000
0003
0000
0200
,
0000
0310
1000
0001
,
0100
0000
0000
0000
,
0000
0000
0200
0000
,
0300
0000
2002
0000
,
3003
0100
1000
0100
,
1000
0010
0000
0010
,
2000
0000
0000
3000
,
0002
0000
0003
0000
,
0000
0000
0200
0000
,
0300
0000
0100
0100
,
0010
0010
1000
1000
,
0001
0000
0002
0000
,
0003
0000
0020
0000
,
0030
0000
0100
0000
;
