#VERSION:0.83;
#TITLE:Supermoves;
#SUBTITLE:;
#ARTIST:Overseer;
#TITLETRANSLIT:;
#SUBTITLETRANSLIT:;
#ARTISTTRANSLIT:;
#GENRE:;
#ORIGIN:;
#CREDIT:;
#BANNER:super-bn.png;
#BACKGROUND:super-bg.png;
#PREVIEWVID:;
#JACKET:;
#CDIMAGE:;
#DISCIMAGE:;
#LYRICSPATH:;
#CDTITLE:;
#MUSIC:supermoves.ogg;
#OFFSET:0.000000;
#SAMPLESTART:0.000000;
#SAMPLELENGTH:12.000000;
#SELECTABLE:YES;
#DISPLAYBPM:*;
#BPMS:0.000=33.750,
2.250=67.500,
2.750=101.250,
4.250=135.000,
5.250=168.750,
6.750=236.250,
9.000=720.000,
12.000=270.000,
68.000=135.000,
72.000=270.000,
128.000=135.000,
130.750=270.000,
196.000=135.000,
197.000=270.000,
203.000=135.000,
204.000=270.000,
210.000=135.000,
211.000=270.000,
217.000=135.000,
218.000=270.000;
#STOPS:128.000=0.250;
#DELAYS:;
#WARPS:;
#TIMESIGNATURES:0.000=4=4;
#TICKCOUNTS:0.000=0;
#COMBOS:0.000=1;
#SPEEDS:0.000=1.000=0.000=0;
#SCROLLS:0.000=1.000;
#FAKES:;
#LABELS:0.000=Song Start;
#BGCHANGES:;
#KEYSOUNDS:;
#ATTACKS:
;

//---------------dance-single - ----------------
#NOTEDATA:;
#CHARTNAME:;
#STEPSTYPE:dance-single;
#DESCRIPTION:;
#CHARTSTYLE:Pad;
#DIFFICULTY:Hard;
#METER:17;
#RADARVALUES:0.840258,1.125494,0.526205,0.140321,0.344957,503.000000,458.000000,45.000000,12.000000,0.000000,0.000000,0.000000,0.000000,0.000000,0.840258,1.125494,0.526205,0.140321,0.344957,503.000000,458.000000,45.000000,12.000000,0.000000,0.000000,0.000000,0.000000,0.000000;
#CREDIT:Mozata;
#OFFSET:0.000000;
#BPMS:0.000000=33.750000
,2.250000=67.500000
,2.750000=101.250000
,4.250000=135.000000
,5.250000=168.750000
,6.750000=236.250000
,9.000000=720.000000
,12.000000=270.000000
,68.000000=135.000000
,72.000000=270.000000
,128.000000=135.000000
,130.750000=270.000000
,196.000000=135.000000
,197.000000=270.000000
,203.000000=135.000000
,204.000000=270.000000
,210.000000=135.000000
,211.000000=270.000000
,217.000000=135.000000
,218.000000=270.000000
,224.000000=135.000000
,225.000000=270.000000
,231.000000=135.000000
,232.000000=270.000000
,238.000000=135.000000
,239.000000=270.000000
,245.000000=202.500000
,245.500000=135.000000
,246.500000=102.500000
,247.000000=67.500000
,248.000000=270.000000
,249.000000=135.000000
,250.000000=540.000000
,252.000000=270.000000
,253.000000=135.000000
,254.000000=540.000000
,256.000000=270.000000
,257.000000=135.000000
,258.000000=540.000000
,260.000000=270.000000
,265.000000=135.000000
,266.000000=540.000000
,268.000000=270.000000
,269.000000=135.000000
,270.000000=540.000000
,272.000000=270.000000
,273.000000=135.000000
,274.000000=540.000000
,276.000000=270.000000
,304.000000=135.000000
;
#STOPS:128.000000=0.250000
;
#DELAYS:;
#WARPS:;
#TIMESIGNATURES:0.000000=4=4
;
#TICKCOUNTS:0.000000=0
;
#COMBOS:0.000000=1
;
#SPEEDS:0.000000=1.000000=0.000000=0
;
#SCROLLS:0.000000=1.000000
;
#FAKES:;
#LABELS:0.000000=Song Start
;
#DISPLAYBPM:*;
#NOTES:
// measure 0
0000
0000
0000
0000
0000
0000
0000
0000
0000
0000
0000
0000
0000
0000
0000
0000
0000
0000
0010
0000
0000
0000
1000
0000
0000
0000
0000
0000
0001
0000
0000
0010
,  // measure 1
0000
0000
0000
0001
0000
0000
0000
0000
0000
0000
0000
0000
0100
0000
0000
0000
0000
0000
0000
0000
0000
0000
0000
0000
0000
0000
0000
0000
0000
0000
0000
0000
0000
0000
0000
0000
0010
0000
0000
0000
0000
0000
0000
0000
0000
0000
0000
0000
1000
0000
0000
0000
0000
0000
0000
0000
0000
0000
0000
0000
0100
0000
0000
0000
0000
0000
0000
0000
0000
0000
0000
0000
0000
0000
0000
0000
1000
0000
0000
0000
0000
0000
0000
0000
0000
0000
0000
0000
0001
0000
0000
0000
0000
0000
0000
0000
0000
0000
0000
0000
0000
0000
0100
0000
0000
0000
0000
0000
0000
0000
0000
0000
0000
0000
0000
0000
0000
1000
0000
0000
0000
0000
0000
0000
0000
0000
0000
0000
0000
0000
0000
0000
0100
0000
0000
0000
0000
0000
0000
0000
0000
0000
0000
0000
0000
0000
0000
0000
0000
0000
0000
0010
0000
0000
0000
0000
0000
0000
0000
0000
0000
0000
0000
0000
0000
0000
0000
0000
0000
0000
0000
0000
0000
0000
0000
1000
0000
0000
0000
0000
0000
0000
0000
0000
0000
0000
0000
0000
0000
0000
0000
0000
,  // measure 2
0000
0001
0000
0000
0000
0000
0000
0000
0000
1000
0000
0000
0000
0000
0000
0000
0020
0000
0000
0000
0000
0000
0000
0000
0000
0000
0000
0000
0000
0000
0000
0000
0000
0000
0000
0000
0000
0000
0000
0000
0000
0000
0000
0000
0000
0000
0000
0000
0000
0000
0000
0000
0000
0000
0000
0000
0000
0000
0000
0000
0000
0000
0000
0000
,  // measure 3
0130
0000
0100
0000
0100
0000
0001
0010
,  // measure 4
0000
0010
1000
0000
1100
0000
0101
0000
,  // measure 5
0110
0000
0010
0000
0001
0000
1000
0001
,  // measure 6
0000
0100
0010
0000
1001
0000
0110
0000
,  // measure 7
0010
0000
1000
0000
0100
0000
1000
0010
,  // measure 8
0000
0100
0001
0000
0011
0000
1100
0000
,  // measure 9
0100
1000
0001
0000
0010
0001
1000
0001
,  // measure 10
0100
0010
1000
0010
0100
0001
0100
0000
,  // measure 11
0010
0101
2100
0001
,  // measure 12
0010
0001
3100
1100
,  // measure 13
0102
0013
0100
0001
,  // measure 14
0100
0000
0010
0000
0001
0000
1000
0010
,  // measure 15
1000
0000
1010
0000
1010
0000
1000
0001
,  // measure 16
0000
0010
0001
0000
0020
0000
0130
0000
,  // measure 17
0110
0000
0000
0000
0001
0000
1000
0001
0000
0001
0010
0100
1000
0100
0010
0001
,  // measure 18
1000
0000
0000
0000
0100
0010
0100
0010
,  // measure 19
1001
0000
0000
0000
0000
0000
0100
0010
0100
0010
0000
0000
,  // measure 20
1001
0000
0000
0000
0100
0010
0100
0010
,  // measure 21
1001
0000
0000
0000
0000
0000
0100
0010
0100
0010
0000
0000
,  // measure 22
1001
0000
0000
0000
0100
0010
0100
0010
,  // measure 23
1010
0000
0000
0000
0000
0000
0100
0010
0100
0010
0000
0000
,  // measure 24
0011
0000
0000
0000
0100
0010
0100
0010
,  // measure 25
1000
1010
1001
0101
,  // measure 26
0011
0000
0000
0000
0001
0010
0001
0010
,  // measure 27
1001
0000
0000
0000
0000
0000
1000
0100
1000
0100
0000
0000
,  // measure 28
1001
0000
0000
0000
0001
0100
0001
0100
,  // measure 29
1001
0000
0000
0000
0000
0000
1000
0010
1000
0010
0000
0000
,  // measure 30
1001
0000
0000
0000
0100
0010
0100
1000
,  // measure 31
0100
0010
0100
0001
0100
0010
0100
0000
,  // measure 32
0000
0010
0100
0000
0001
0000
0002
0000
0000
1003
0000
0001
0000
0000
0000
0000
,  // measure 33
0100
0000
0100
0000
0001
0010
0000
0001
,  // measure 34
1000
0010
1000
0001
0010
0100
1000
0100
,  // measure 35
0010
0000
0010
0000
0010
1000
0000
1000
,  // measure 36
0010
0001
0100
0001
0010
0100
0010
0001
,  // measure 37
1000
0000
1000
0000
1000
0010
0000
1000
,  // measure 38
0010
1000
0001
0100
0001
1000
0010
0100
,  // measure 39
0001
0000
0001
0000
0100
0010
0000
0100
,  // measure 40
0010
1000
0001
1000
0010
0100
0001
0000
,  // measure 41
0101
0000
0100
0000
1000
0001
0000
1000
,  // measure 42
0001
0010
0001
0010
0100
1000
0001
0000
,  // measure 43
1001
0000
0011
0000
0001
1000
0000
0010
,  // measure 44
1000
0001
1000
0100
1000
0010
0100
0000
,  // measure 45
0101
0000
0011
0000
0001
0010
0000
0001
,  // measure 46
0010
0100
1000
0010
1000
0100
0010
0000
,  // measure 47
0110
0000
1100
0000
0100
0010
0000
0010
,  // measure 48
0100
1000
0001
1000
0001
0100
0010
0000
,  // measure 49
1010
0000
0100
0001
0000
0000
0100
0000
0001
0000
0100
0000
0010
0000
1000
0000
,  // measure 50
0010
0000
0100
0000
0010
0000
0100
0000
0001
0000
0000
0000
0011
0000
0100
1000
,  // measure 51
0000
0010
0100
0001
0010
0100
1000
0010
,  // measure 52
0100
0000
0001
0000
0010
0000
0000
0000
1001
0000
0100
0010
0000
0000
0100
0000
,  // measure 53
0010
0100
0001
1000
0001
0010
0100
0010
,  // measure 54
0100
0000
0000
0000
1001
0000
0010
1000
0000
0000
0001
0000
0100
0000
0010
0000
,  // measure 55
1000
0010
0100
0010
1000
0100
0010
0000
,  // measure 56
0011
0000
0010
0001
0000
0000
1000
0000
0001
0000
0010
0000
0001
0000
1000
0000
,  // measure 57
0100
0000
1000
0000
0010
0000
1000
0000
0100
0000
0000
0000
1100
0000
1000
0001
,  // measure 58
0000
0100
0001
0010
0100
0010
0001
0100
,  // measure 59
0010
0000
1000
0000
0100
0000
0000
0000
1001
0000
0100
0010
0000
0000
0100
0000
,  // measure 60
0010
0100
0010
0100
0001
0010
0100
1000
,  // measure 61
0100
0000
0002
0000
0000
0000
0000
0003
,  // measure 62
0010
0000
0000
0000
0100
0000
0001
0020
0000
0000
0000
0000
0000
0000
0000
0000
,  // measure 63
0031
0000
0000
0000
1000
0000
0010
0200
0000
0000
0000
0000
0000
0000
0000
0000
,  // measure 64
0301
0000
0000
0000
0010
0000
0100
2000
0000
0000
0000
0000
0000
0000
0000
0000
,  // measure 65
3001
0000
0010
0001
0010
0000
0011
0000
,  // measure 66
0100
0000
0000
0000
0001
0000
1000
0020
0000
0000
0000
0000
0000
0000
0000
0000
,  // measure 67
0130
0000
0000
0000
0001
0000
0100
0002
0000
0000
0000
0000
0000
0000
0000
0000
,  // measure 68
1003
0000
0000
0000
0100
0000
1000
0020
0000
0000
0000
0000
0000
0000
0000
0000
,  // measure 69
0030
0000
0010
1000
0010
0000
1010
0000
,  // measure 70
0101
0000
0000
0000
0100
0010
1000
0010
,  // measure 71
0100
0001
0100
0010
0100
0001
0010
0100
,  // measure 72
1000
0001
0100
1000
0100
0001
1000
0010
,  // measure 73
0001
0000
0000
1000
0000
0000
0100
0000
0000
0000
0000
0000
1000
0000
0010
0000
1000
0000
0001
0000
0100
0000
0001
0000
,  // measure 74
0100
0000
0000
0000
0001
0010
0100
0001
,  // measure 75
0100
1000
0010
1000
0100
0010
0001
0100
,  // measure 76
0010
0000
0000
0000
1000
0000
0000
0000
0100
0000
1000
0000
0001
0000
0010
0000
0001
0000
0100
0000
0010
0000
1000
0000
0100
0000
0010
0000
0001
0010
0001
0010
,  // measure 77
0001
0000
0000
0000
;

//---------------dance-single - ----------------
#NOTEDATA:;
#CHARTNAME:;
#STEPSTYPE:dance-single;
#DESCRIPTION:;
#CHARTSTYLE:Pad;
#DIFFICULTY:Beginner;
#METER:6;
#RADARVALUES:0.183754,0.315138,0.081854,0.070161,0.005847,110.000000,103.000000,7.000000,6.000000,0.000000,0.000000,0.000000,0.000000,0.000000,0.183754,0.315138,0.081854,0.070161,0.005847,110.000000,103.000000,7.000000,6.000000,0.000000,0.000000,0.000000,0.000000,0.000000;
#CREDIT:Mozata;
#OFFSET:0.000000;
#BPMS:0.000000=33.750000
,2.250000=67.500000
,2.750000=101.250000
,4.250000=135.000000
,5.250000=168.750000
,6.750000=236.250000
,9.000000=720.000000
,12.000000=270.000000
,68.000000=135.000000
,72.000000=270.000000
,128.000000=135.000000
,130.750000=270.000000
,196.000000=135.000000
,197.000000=270.000000
,203.000000=135.000000
,204.000000=270.000000
,210.000000=135.000000
,211.000000=270.000000
,217.000000=135.000000
,218.000000=270.000000
,224.000000=135.000000
,225.000000=270.000000
,231.000000=135.000000
,232.000000=270.000000
,238.000000=135.000000
,239.000000=270.000000
,245.000000=202.500000
,245.500000=135.000000
,246.500000=102.500000
,247.000000=67.500000
,248.000000=270.000000
,249.000000=135.000000
,250.000000=540.000000
,252.000000=270.000000
,253.000000=135.000000
,254.000000=540.000000
,256.000000=270.000000
,257.000000=135.000000
,258.000000=540.000000
,260.000000=270.000000
,265.000000=135.000000
,266.000000=540.000000
,268.000000=270.000000
,269.000000=135.000000
,270.000000=540.000000
,272.000000=270.000000
,273.000000=135.000000
,274.000000=540.000000
,276.000000=270.000000
,304.000000=135.000000
;
#STOPS:128.000000=0.250000
;
#DELAYS:;
#WARPS:;
#TIMESIGNATURES:0.000000=4=4
;
#TICKCOUNTS:0.000000=0
;
#COMBOS:0.000000=1
;
#SPEEDS:0.000000=1.000000=0.000000=0
;
#SCROLLS:0.000000=1.000000
;
#FAKES:;
#LABELS:0.000000=Song Start
;
#DISPLAYBPM:*;
#NOTES:
0000
0000
0000
0000
0000
0000
0000
0000
0000
0020
0000
0000
0000
0000
0000
0000
,
0000
0000
0000
0000
,
0000
0000
0000
0000
,
0030
0000
0010
0000
,
0010
0000
0000
0000
,
1000
0000
0100
0000
,
0100
0000
0000
0000
,
0001
0000
0010
0000
,
0100
0000
0000
0000
,
0100
0000
0010
0000
,
1000
0000
0000
0000
,
1001
0000
0002
0000
,
0000
0000
0003
0000
,
1001
0000
2000
0000
,
0000
0000
3000
0000
,
1000
0000
0100
0000
,
0010
0000
0001
0000
,
0002
0000
0000
0000
,
1003
0000
0000
0000
,
1001
0000
0000
0000
,
0110
0000
0000
0000
,
1001
0000
0000
0000
,
0010
0000
1000
0000
,
0010
0000
0000
0000
,
0100
0000
0001
0000
,
0100
0100
0100
0000
,
0001
0000
0010
0000
,
0001
0000
0000
0000
,
1000
0000
0100
0000
,
1000
0000
0100
0000
,
0010
0000
0001
0000
,
0010
0000
0000
0000
,
0200
0000
0000
0000
,
0300
0000
0010
0000
,
0000
0000
0001
0000
,
0000
0000
0100
0000
,
0000
0000
1000
0000
,
0000
0000
0010
0000
,
0000
0000
1000
0000
,
0000
0000
0100
0000
,
0000
0000
0001
0000
,
0010
0000
0100
0000
,
1000
0000
0000
0000
,
0010
0000
0100
0000
,
0001
0000
0000
0000
,
0100
0000
0001
0000
,
1000
0000
0010
0000
,
1000
0000
0001
0000
,
0100
0000
0000
0000
,
0110
0000
0000
0100
,
0000
0000
0000
0001
,
0000
0000
1000
0000
,
0000
0000
0010
0000
,
0000
0001
0000
0000
,
0000
0010
0000
0000
,
1000
0000
0000
0000
,
0100
0000
0000
1000
,
0000
0000
0000
0010
,
0000
0000
1000
0000
,
0000
0000
0001
0000
,
0000
0100
0000
0000
,
0000
0020
0000
0000
,
0030
0000
0000
0100
0000
0000
0000
0000
,
0000
0000
0000
0010
0000
0000
0000
0000
,
0000
0000
0000
1000
0000
0000
0000
0000
,
0000
0000
0001
0000
,
0000
0000
0000
0100
0000
0000
0000
0000
,
0000
0000
0000
0001
0000
0000
0000
0000
,
0000
0000
0000
1000
0000
0000
0000
0000
,
0000
0000
0010
0000
,
1000
0000
0100
0000
,
0010
0000
0000
0000
,
0001
0001
0001
0000
,
0001
0000
0000
0000
,
0010
0000
0100
0000
,
1000
0000
0010
0000
,
0100
0100
0001
0000
,
1001
0000
0000
0000
;

//---------------dance-single - ----------------
#NOTEDATA:;
#CHARTNAME:;
#STEPSTYPE:dance-single;
#DESCRIPTION:;
#CHARTSTYLE:Pad;
#DIFFICULTY:Easy;
#METER:11;
#RADARVALUES:0.364167,0.585257,0.245562,0.152015,0.011693,218.000000,197.000000,21.000000,13.000000,0.000000,0.000000,0.000000,0.000000,0.000000,0.364167,0.585257,0.245562,0.152015,0.011693,218.000000,197.000000,21.000000,13.000000,0.000000,0.000000,0.000000,0.000000,0.000000;
#CREDIT:Mozata;
#OFFSET:0.000000;
#BPMS:0.000000=33.750000
,2.250000=67.500000
,2.750000=101.250000
,4.250000=135.000000
,5.250000=168.750000
,6.750000=236.250000
,9.000000=720.000000
,12.000000=270.000000
,68.000000=135.000000
,72.000000=270.000000
,128.000000=135.000000
,130.750000=270.000000
,196.000000=135.000000
,197.000000=270.000000
,203.000000=135.000000
,204.000000=270.000000
,210.000000=135.000000
,211.000000=270.000000
,217.000000=135.000000
,218.000000=270.000000
,224.000000=135.000000
,225.000000=270.000000
,231.000000=135.000000
,232.000000=270.000000
,238.000000=135.000000
,239.000000=270.000000
,245.000000=202.500000
,245.500000=135.000000
,246.500000=102.500000
,247.000000=67.500000
,248.000000=270.000000
,249.000000=135.000000
,250.000000=540.000000
,252.000000=270.000000
,253.000000=135.000000
,254.000000=540.000000
,256.000000=270.000000
,257.000000=135.000000
,258.000000=540.000000
,260.000000=270.000000
,265.000000=135.000000
,266.000000=540.000000
,268.000000=270.000000
,269.000000=135.000000
,270.000000=540.000000
,272.000000=270.000000
,273.000000=135.000000
,274.000000=540.000000
,276.000000=270.000000
,304.000000=135.000000
;
#STOPS:128.000000=0.250000
;
#DELAYS:;
#WARPS:;
#TIMESIGNATURES:0.000000=4=4
;
#TICKCOUNTS:0.000000=0
;
#COMBOS:0.000000=1
;
#SPEEDS:0.000000=1.000000=0.000000=0
;
#SCROLLS:0.000000=1.000000
;
#FAKES:;
#LABELS:0.000000=Song Start
;
#DISPLAYBPM:*;
#NOTES:
0000
0000
0000
0000
0000
0000
0000
0000
0000
0020
0000
0000
0000
0000
0000
0000
,
0000
0000
0000
0000
,
0000
0000
0000
0000
,
0030
0000
0000
0000
0100
0000
0000
0001
,
0000
1000
0010
0000
,
0010
0000
0100
0000
0010
0000
0000
1000
,
0000
0001
1000
0000
,
0001
0000
0010
0000
1000
0000
0000
1000
,
0000
0100
0001
0000
,
0001
0000
0010
0000
0100
0000
0000
1000
,
0000
0100
0010
0001
,
1001
0000
0020
0000
,
0000
0000
0030
0010
,
1001
0000
0200
0000
,
0000
0000
0300
0100
,
0010
1000
0010
0000
,
0100
0001
0100
0000
,
0220
0000
0000
0330
,
1000
0000
0002
0000
,
1003
0000
2000
0000
,
3001
0000
0002
0000
,
0013
0100
1000
0010
,
0100
0000
0002
0000
,
0103
0000
0020
0000
,
1030
0000
2000
0000
,
3100
0001
0100
1000
,
0100
0000
0011
0000
,
0100
0000
1010
0000
,
0000
0000
1010
0000
,
0100
0010
1000
0010
,
0100
0000
0101
0000
,
0010
0000
1100
0000
,
0020
0000
0000
0000
,
0031
0000
0010
0000
0001
0000
0000
0001
,
0000
1000
0010
0000
,
1000
0000
0100
0000
1000
0000
0000
0010
,
0000
0100
0001
0000
,
0001
0000
0010
0000
0100
0000
0000
0001
,
0000
0100
1000
0000
,
0010
0010
0100
0001
,
0100
0010
1000
0100
,
0010
0000
0001
0000
0010
0000
0000
0001
,
0000
0010
0001
0000
,
1000
0000
0010
0000
0100
0000
0000
0001
,
0000
0100
0010
0000
,
0001
0000
1000
0000
0001
0000
0000
1000
,
0000
0010
0100
0000
,
0100
0100
0001
1000
,
0010
0010
1000
0001
,
0100
0110
0000
0000
,
0000
0001
0000
1000
,
0110
0000
0000
0000
,
0010
0000
0100
0011
,
0000
0000
0000
0001
,
0000
0100
1100
0000
,
0000
0000
1000
0000
,
0010
0101
0000
0000
,
0000
0010
0000
0100
,
1001
0000
0000
0000
,
0100
0000
1000
0010
,
0000
0000
0000
0010
,
0000
0000
2000
0000
0000
0000
0000
3000
,
1000
0000
0000
1001
0000
0000
0000
0000
,
0001
0000
0000
1001
0000
0000
0000
0000
,
0100
0000
0000
0110
0000
0000
0000
0000
,
0010
0001
0010
0000
,
1000
0000
0000
1100
0000
0000
0000
0000
,
0001
0000
0010
0011
0000
0000
0000
0000
,
0010
0000
0000
1000
0000
0000
0000
0000
,
0100
1000
0010
0000
,
0010
0000
0000
0100
0010
0000
1000
0000
,
0001
0010
0001
1000
,
0100
0000
1000
0100
1000
0000
0100
1000
,
0000
0100
1000
0000
0001
0000
0100
0000
,
0110
0000
0001
0100
,
1000
0100
0001
0010
,
1000
0000
0000
0000
0011
0000
0000
0000
0001
0000
0010
0000
0100
0000
1000
0001
,
1000
0000
0000
0000
;

//---------------dance-single - ----------------
#NOTEDATA:;
#CHARTNAME:;
#STEPSTYPE:dance-single;
#DESCRIPTION:;
#CHARTSTYLE:Pad;
#DIFFICULTY:Medium;
#METER:13;
#RADARVALUES:0.526205,0.765336,0.327416,0.152015,0.029234,315.000000,287.000000,28.000000,13.000000,0.000000,0.000000,0.000000,0.000000,0.000000,0.526205,0.765336,0.327416,0.152015,0.029234,315.000000,287.000000,28.000000,13.000000,0.000000,0.000000,0.000000,0.000000,0.000000;
#CREDIT:Mozata;
#OFFSET:0.000000;
#BPMS:0.000000=33.750000
,2.250000=67.500000
,2.750000=101.250000
,4.250000=135.000000
,5.250000=168.750000
,6.750000=236.250000
,9.000000=720.000000
,12.000000=270.000000
,68.000000=135.000000
,72.000000=270.000000
,128.000000=135.000000
,130.750000=270.000000
,196.000000=135.000000
,197.000000=270.000000
,203.000000=135.000000
,204.000000=270.000000
,210.000000=135.000000
,211.000000=270.000000
,217.000000=135.000000
,218.000000=270.000000
,224.000000=135.000000
,225.000000=270.000000
,231.000000=135.000000
,232.000000=270.000000
,238.000000=135.000000
,239.000000=270.000000
,245.000000=202.500000
,245.500000=135.000000
,246.500000=102.500000
,247.000000=67.500000
,248.000000=270.000000
,249.000000=135.000000
,250.000000=540.000000
,252.000000=270.000000
,253.000000=135.000000
,254.000000=540.000000
,256.000000=270.000000
,257.000000=135.000000
,258.000000=540.000000
,260.000000=270.000000
,265.000000=135.000000
,266.000000=540.000000
,268.000000=270.000000
,269.000000=135.000000
,270.000000=540.000000
,272.000000=270.000000
,273.000000=135.000000
,274.000000=540.000000
,276.000000=270.000000
,304.000000=135.000000
;
#STOPS:128.000000=0.250000
;
#DELAYS:;
#WARPS:;
#TIMESIGNATURES:0.000000=4=4
;
#TICKCOUNTS:0.000000=0
;
#COMBOS:0.000000=1
;
#SPEEDS:0.000000=1.000000=0.000000=0
;
#SCROLLS:0.000000=1.000000
;
#FAKES:;
#LABELS:0.000000=Song Start
;
#DISPLAYBPM:*;
#NOTES:
0000
0000
0000
0000
0000
0000
0000
0000
0000
1000
0000
0100
0000
0000
0010
0000
,
0000
0001
0000
0000
0000
0010
0000
0000
0000
0000
0100
0000
0000
0000
0000
0000
,
0000
1000
0000
0000
0000
0000
0000
0000
0000
0000
0000
0000
0000
0000
0000
0000
,
1001
0000
0001
0000
0100
0000
0010
0100
,
0000
0010
0100
0000
0001
0000
0100
0000
,
1010
0000
1000
0000
0100
0000
0010
0100
,
0000
0010
0100
0000
0010
0000
0001
0000
,
0101
0000
0001
0000
0100
0000
0010
0100
,
0000
0010
0100
0000
0010
0000
1000
0000
,
0100
0001
0100
1000
,
0010
1000
0001
1000
,
0100
0000
0022
0000
,
0000
0000
0030
1003
,
0020
0000
2000
0000
,
0000
0000
3030
0000
,
1001
0000
0101
0000
,
1100
0000
1010
0000
,
2002
0000
0000
0000
,
3003
0000
0010
0100
,
0110
0000
0010
0001
,
0011
0000
1000
0010
,
1010
0000
0100
0000
,
1100
0000
0010
0100
,
1001
0000
0100
0010
,
1001
0000
0010
0100
,
0010
1000
0001
1000
,
0010
0000
0000
0000
0100
0001
0100
0001
,
0100
0000
0010
1000
,
0010
0000
0000
0000
0001
0010
0001
0010
,
0001
0000
1000
0100
,
1000
0000
0000
0000
1000
0100
0010
0100
,
1000
0000
0001
0010
,
0200
0000
0000
0000
,
0310
0000
0010
0000
0001
0000
1000
0001
,
0000
1000
0001
0000
0010
0000
0100
0000
,
1000
0000
1000
0000
0010
0000
0100
0010
,
0000
0100
0010
0000
0100
0000
0010
0000
,
1000
0000
0100
0000
0010
0000
0001
0010
,
0000
0001
0010
0000
0001
0000
0100
0000
,
0010
0000
1000
0000
0010
0000
1000
0010
,
0000
1000
0010
0000
0100
0000
0010
0000
,
1000
0000
0000
0000
0001
0010
0000
0001
,
0010
0100
1000
0000
0100
1000
0010
0000
,
0100
0000
0000
0000
0010
0100
0000
0010
,
1000
0001
0100
0001
1000
0010
0100
0000
,
0001
0000
0000
0000
1000
0100
0000
1000
,
0010
1000
0100
0010
0001
0010
0100
1000
,
0200
0000
0320
0000
,
0032
0000
0203
0000
,
0301
0001
0001
0000
0100
0000
0010
0000
,
0100
0000
0001
0000
0010
0000
0100
0010
,
0100
0001
0100
1000
,
0100
0000
1000
0000
0010
0100
0001
0000
,
0100
0010
0001
0010
,
0100
0000
0001
1000
0001
0000
0010
0000
,
0100
0001
1000
0100
,
1000
0001
1000
0000
0001
0000
0010
0000
,
0001
0000
0100
0000
0001
0000
0010
0100
,
1000
0001
0100
0010
,
0100
0000
0001
0000
1000
0010
0001
0000
,
0010
1000
0000
0101
,
0000
2200
0000
0000
,
3300
0000
0000
1001
0000
0000
0000
0000
,
0010
0000
0100
1001
0000
0000
0000
0000
,
0010
0000
0000
1001
0000
0000
0000
0000
,
1000
0010
0100
0001
,
0100
0000
0000
1010
0000
0000
0000
0000
,
1000
0000
0100
0011
0000
0000
0000
0000
,
0001
0000
0100
1001
0000
0000
0000
0000
,
0010
1000
0001
0010
,
0110
0000
0000
0000
1000
0100
1000
0000
,
0010
0001
0100
0000
0010
1000
0100
0000
,
1000
0000
0000
0000
0001
0100
0001
0000
,
0001
0100
1000
0000
1000
0100
0001
0000
,
0100
0000
0000
0000
0010
0100
0010
0000
,
0100
0010
0100
0001
0010
0100
1000
0100
,
0010
0011
1010
1100
,
0101
0000
0000
0000
;
