#TITLE:Sublime Cat;
#SUBTITLE:;
#ARTIST:P*Light feat. mow*2;
#TITLETRANSLIT:;
#SUBTITLETRANSLIT:;
#ARTISTTRANSLIT:;
#GENRE:;
#CREDIT:;
#BANNER:sublimecat-bn.png;
#BACKGROUND:sublimecat-bg.png;
#LYRICSPATH:;
#CDTITLE:;
#MUSIC:sublimecat.ogg;
#OFFSET:0.000000;
#SAMPLESTART:11.500000;
#SAMPLELENGTH:12.000000;
#SELECTABLE:YES;
#BPMS:0.000000=200.199997
,23.333334=166.667007
,25.000000=200.000000
,42.000000=400.000000
,72.000000=200.000000
,73.000000=400.000000
,97.000000=200.000000
,100.000000=400.000000
,101.000000=200.000000
,164.000000=100.000000
,170.500000=200.000000
,202.000000=400.000000
,321.000000=200.000000
,333.500000=400.000000
,390.187500=100.000000
,400.000000=200.000000
,454.000000=400.000000
,484.000000=200.000000
,485.000000=400.000000
,517.000000=100.000000
;
#STOPS:100.000000=0.150000,
129.000000=0.150000,
129.500000=0.150000,
170.000000=0.150000,
170.250000=0.150000,
170.500000=0.150000,
200.000000=0.600000,
412.000000=0.600000
;
#BGCHANGES:0.000=sublimecat-vid.avi=1.000=0=0=0=StretchNoLoop====,
99999=-nosongbg-=1.000=0=0=0 // don't automatically add -songbackground-
;
#KEYSOUNDS:;
#ATTACKS:;

//---------------dance-single - ----------------
#NOTES:
     dance-single:
     :
     Hard:
     14:
     0.668938,1.066046,0.774932,0.684248,0.094805,568.000000,474.000000,94.000000,83.000000,0.000000,0.000000,0.668938,1.066046,0.774932,0.684248,0.094805,568.000000,474.000000,94.000000,83.000000,0.000000,0.000000:
// measure 0
0000
0000
0000
0000
,  // measure 1
0000
0000
0000
0000
,  // measure 2
0000
0000
0000
0000
0000
0000
0000
0000
0000
0000
0000
0000
0000
0000
0002
0000
0000
0000
0000
0000
0000
0000
0000
0023
,  // measure 3
0000
0000
0000
0000
0000
0000
0000
0000
0000
0000
0000
0130
0000
0000
1000
0000
0000
0100
0000
0000
0010
0000
0000
0001
,  // measure 4
0000
0000
0100
0000
0000
0010
0000
0000
1000
0000
0000
0010
0000
0000
0200
0000
0000
0000
0000
0000
0000
0000
0000
0302
,  // measure 5
0000
0200
0000
0000
0000
0000
0000
0000
0000
0000
0303
0000
,  // measure 6
0000
0000
0001
0010
0001
0000
0100
0010
,  // measure 7
0000
0100
0000
0101
0000
0010
1000
0100
,  // measure 8
0000
0010
0100
0000
1100
0000
0000
0110
,  // measure 9
0000
0011
0110
0000
,  // measure 10
0000
0000
0100
1000
,  // measure 11
1001
0000
1000
0100
,  // measure 12
0110
0000
0010
0001
,  // measure 13
0011
0000
1000
0100
,  // measure 14
1100
0000
1000
0010
,  // measure 15
1010
0000
0010
0100
,  // measure 16
0001
0100
0101
0000
,  // measure 17
1001
0000
2020
0000
,  // measure 18
3030
1000
0001
1001
,  // measure 19
0000
1000
0100
0110
,  // measure 20
0000
0001
0010
0011
,  // measure 21
0000
0001
0100
0101
,  // measure 22
0000
1000
0100
1100
,  // measure 23
0000
1000
0001
0010
,  // measure 24
0100
0000
0010
0001
1000
0100
0010
0001
,  // measure 25
2002
3003
0000
0000
0000
0000
0000
0000
0000
0000
0000
0000
0000
0000
0000
0000
0000
0000
0000
0000
0000
0000
0000
0000
0000
0000
0000
0000
0000
0000
0000
0000
0000
0000
0000
0000
0000
0000
0000
0000
0000
0000
0000
0000
0000
0000
0000
0000
0000
0000
0000
0000
0000
0000
0000
0000
0000
0000
0000
0000
0000
0000
0000
0000
0000
0000
0000
0000
0000
0000
0000
0000
0000
0000
0000
0000
0000
0000
0000
0000
0000
0000
0000
0000
0000
0000
0000
0000
0000
0000
0000
0000
0000
0000
0000
0000
0100
0000
0000
0000
0000
0000
0000
0000
0000
0000
0000
0000
0000
0000
0000
0000
0000
0000
0000
0000
0000
0000
0000
0000
0100
0000
0000
0000
0000
0000
0000
0000
0000
0000
0000
0000
0000
0000
0000
0000
0000
0000
0000
0000
0000
0000
0000
0000
0001
0000
0000
0000
0000
0000
0000
0000
0000
0000
0000
0000
0000
0000
0000
0000
0000
0000
0000
0000
0000
0000
0000
0000
0020
0000
0000
0000
0000
0000
0000
0000
0000
0000
0000
0000
0000
0000
0000
0000
0000
0000
0000
0000
0000
0000
0000
0000
,  // measure 26
0000
0031
0000
0100
1000
0100
0000
0001
,  // measure 27
1000
0000
0011
0000
0011
0000
0010
0200
,  // measure 28
0000
2300
0100
0000
0100
0000
0010
0000
,  // measure 29
3010
0000
0100
0000
0001
0010
0001
0010
,  // measure 30
0001
1000
0100
0000
0010
0000
0100
1000
,  // measure 31
0000
0020
1000
0000
0100
0000
1000
0000
,  // measure 32
0031
0000
0011
1010
1100
0000
0000
0000
,  // measure 33
1000
0100
0010
0000
1000
0010
0100
0000
,  // measure 34
1000
0010
0100
0000
1000
0100
0010
0000
,  // measure 35
1000
0100
0010
0000
0001
0100
0010
0000
,  // measure 36
1000
0001
1000
0100
0010
0001
1000
0000
,  // measure 37
0110
0000
0001
0000
1000
0100
0001
0000
,  // measure 38
0011
0000
0010
0000
0001
0100
1000
0000
,  // measure 39
1010
0100
0011
0100
,  // measure 40
2002
0000
3003
0000
,  // measure 41
0020
0000
0000
1030
0101
0000
0000
0000
0020
0000
0031
0000
1100
0000
0000
0000
,  // measure 42
0020
0000
0000
0031
1001
0000
1000
0000
1010
0110
0101
0000
0000
0000
0000
0000
,  // measure 43
1000
0100
1000
0100
1000
0100
1000
0100
,  // measure 44
0010
0100
0010
0100
0010
0100
0010
0002
,  // measure 45
0010
1000
0010
1000
,  // measure 46
2003
0100
3010
1001
,  // measure 47
0201
2300
3020
0032
,  // measure 48
2003
3200
0320
0031
,  // measure 49
1010
0000
1001
0000
0101
0101
0000
0110
,  // measure 50
0000
0000
0001
2000
,  // measure 51
0200
3300
1000
0002
,  // measure 52
0200
0303
0010
2000
,  // measure 53
0002
3003
1000
0002
,  // measure 54
0020
0033
0100
0020
,  // measure 55
0002
0033
0100
0020
,  // measure 56
2000
3030
0010
1000
,  // measure 57
0010
1000
0001
1000
,  // measure 58
0001
1000
1100
0000
,  // measure 59
0200
0301
0000
1000
,  // measure 60
0000
1010
0000
1000
,  // measure 61
0002
0013
0000
0001
,  // measure 62
2000
3010
1010
0000
,  // measure 63
0110
0110
0000
0011
,  // measure 64
0000
0110
0000
0101
,  // measure 65
0002
0000
1003
0100
,  // measure 66
0200
0300
0010
0002
,  // measure 67
0200
0303
0010
2000
,  // measure 68
0200
3300
1000
0200
,  // measure 69
0020
0330
0100
2000
,  // measure 70
0002
3003
0100
0002
,  // measure 71
2000
3003
0010
0200
,  // measure 72
0002
0303
1000
0200
,  // measure 73
0020
0330
0001
1000
,  // measure 74
0001
0000
1200
0000
,  // measure 75
0001
0000
1300
0000
,  // measure 76
0011
0000
0201
0000
,  // measure 77
1000
0000
0301
0000
,  // measure 78
1010
0000
2000
0000
,  // measure 79
3200
0302
0000
0023
,  // measure 80
0000
0000
1030
0000
0000
0000
0000
0010
,  // measure 81
1000
0001
0020
0130
0000
2000
0000
3100
,  // measure 82
0000
0000
0002
0000
0000
0000
0013
0000
0000
0000
0001
0000
0000
0000
1000
0001
,  // measure 83
1000
0001
1000
0000
0000
0000
0010
0000
0000
0000
0100
0000
0000
0000
0101
0000
,  // measure 84
0000
0000
0000
1000
0000
0100
0000
1100
,  // measure 85
0000
0000
0000
0010
0000
0001
0000
1001
,  // measure 86
0000
0000
0000
1000
0000
0010
0000
0110
,  // measure 87
0000
0000
0000
1000
0000
0100
0000
0110
,  // measure 88
0000
0000
0000
0010
0000
0100
0000
1100
,  // measure 89
0000
0000
0000
0001
0000
0010
0000
0110
,  // measure 90
0000
0000
0000
0010
0000
0001
0000
0101
,  // measure 91
0000
0000
0000
1000
0000
0100
0000
0010
,  // measure 92
0000
0001
0000
0100
0000
0010
0000
0100
,  // measure 93
0000
0010
0000
1000
0000
0100
0000
0010
,  // measure 94
0000
0001
0000
1000
0000
0010
0000
1000
,  // measure 95
0000
0001
0000
0011
0000
0000
0000
1001
,  // measure 96
0000
1001
0000
0000
0000
0110
0000
0000
,  // measure 97
0000
0101
0000
0000
0000
0000
0000
0000
,  // measure 98
0002
0000
0000
1003
0000
0000
0000
0100
1000
0000
0010
0000
0001
0000
0010
0000
,  // measure 99
1000
0000
0000
0100
2000
0000
0000
0000
0000
0000
3000
0000
0000
0000
0001
0010
,  // measure 100
0100
0000
0010
0002
0000
1003
0000
1010
,  // measure 101
0000
1000
0002
0013
0000
0100
0010
0001
,  // measure 102
1001
0000
0000
1010
0000
1100
0000
1010
,  // measure 103
0000
0000
0000
0000
0001
0100
0010
0000
,  // measure 104
0001
0010
0100
0000
0001
0010
0100
0000
,  // measure 105
0001
0100
0010
0000
0010
0001
0100
0000
,  // measure 106
0001
0010
0100
0000
0001
0100
0010
0000
,  // measure 107
0100
0010
0001
0000
2001
0000
0100
0000
,  // measure 108
0010
3001
0021
0100
,  // measure 109
1000
0000
0130
0000
0011
0000
0200
1300
,  // measure 110
0000
1010
0000
0200
0301
0000
0020
1030
,  // measure 111
0000
1001
0000
0020
0031
0000
0110
0000
,  // measure 112
1010
0000
2000
3001
0000
0000
0000
0000
,  // measure 113
0001
0001
1000
0100
,  // measure 114
0110
0000
0001
1000
,  // measure 115
1001
0000
1000
0010
,  // measure 116
0101
0000
1000
0100
,  // measure 117
0011
0000
0100
1000
,  // measure 118
1010
0000
1000
0100
,  // measure 119
0110
0000
0201
0000
,  // measure 120
1000
0000
0301
0000
,  // measure 121
0001
0010
0100
0000
1000
0000
1001
0000
,  // measure 122
0000
0010
0100
0110
,  // measure 123
0000
0100
0001
0011
,  // measure 124
0000
0010
0001
0110
,  // measure 125
0000
1000
0100
1001
,  // measure 126
0000
0010
0100
2002
,  // measure 127
3003
0000
0011
1000
,  // measure 128
0010
1000
0010
1000
,  // measure 129
2200
0000
0000
0000
0000
3300
0000
0000
0000
0000
0000
0000
0000
0000
0000
0000
;

//---------------dance-single - ----------------
#NOTES:
     dance-single:
     :
     Beginner:
     4:
     0.194322,0.373116,0.148391,0.280294,0.012366,165.000000,147.000000,18.000000,34.000000,0.000000,0.000000,0.194322,0.373116,0.148391,0.280294,0.012366,165.000000,147.000000,18.000000,34.000000,0.000000,0.000000:
0000
0000
0000
0000
,
0000
0000
0000
0000
,
0000
0000
0000
0000
0000
0000
0000
0002
0000
0000
0000
0000
,
0000
0003
0000
0000
0000
0000
0000
0002
0000
0000
0000
0000
,
0000
0003
0000
0000
0000
0000
0000
0020
0000
0000
0000
0000
,
0000
0030
0000
0000
0000
0000
0000
0000
0000
0000
0000
0000
,
0000
0000
2002
0000
,
0000
0000
0000
3003
0000
0000
0000
0000
,
0000
0000
0010
0000
,
0000
0000
0010
0000
,
0000
0000
1000
0000
,
0000
0000
1000
0000
,
0000
0000
0100
0000
,
0000
0000
0100
0000
,
0000
0000
1000
0000
,
0000
0000
1000
0000
,
0000
0000
1001
0000
,
1001
0000
2002
0000
,
3003
0000
0000
0000
,
0000
0010
0000
0000
,
0000
0001
0000
0000
,
0000
0001
0000
0000
,
0000
0010
0000
0000
,
0000
0010
0000
0000
,
0000
0200
0000
0000
,
0300
0000
0000
0100
,
0000
0100
0000
1000
,
0000
0010
0000
0010
,
0000
1000
0000
1000
,
0000
0000
0010
0010
,
0010
0010
0000
0000
,
0000
0002
0000
0000
,
0003
2002
3003
0000
,
0000
0000
1000
0000
,
1000
0000
0010
0000
,
1000
0000
0001
0000
,
0010
0000
0001
0000
,
1000
0000
1000
0000
,
0001
0000
0001
0000
,
2002
0000
0000
0000
,
3003
0000
0000
0000
,
0100
0000
0100
0000
,
1000
0000
2002
3003
,
0000
0000
0100
0000
,
0010
0000
0010
0000
,
1000
0000
1000
0000
,
0001
0000
0001
0000
,
0010
0010
0010
0000
,
0100
0100
0100
0000
,
0010
0000
0010
0000
0020
0000
0000
0030
,
0000
0000
0000
0000
,
0010
0000
0000
0000
,
0010
0000
0000
0000
,
1000
0000
0000
0000
,
1000
0000
0000
0000
,
0001
0000
0000
0000
,
0001
0000
0000
0000
,
0100
0000
0000
0000
,
0100
0000
0100
0000
,
0000
0000
0000
0000
,
0000
1001
0000
0000
,
0000
0000
0000
0000
,
0000
0000
1000
0000
,
0000
0001
0000
0000
,
0000
0001
0000
0000
,
0000
0000
0000
0000
,
0000
0000
0100
0000
,
0100
0000
0100
0000
,
0000
0000
1000
0000
,
1000
0000
1000
0000
,
0000
0000
0100
0000
,
0100
0000
0100
0000
,
0000
0000
0010
0000
,
0010
0000
0010
0000
,
0000
0000
0002
0000
,
0000
0000
0003
0000
,
0000
0000
0002
0000
,
0000
0000
0003
0000
,
0000
0000
0001
0000
,
0000
1000
0000
0000
,
0000
1000
0000
0000
,
0000
0000
0000
0010
0000
0000
0000
0001
,
0000
0000
0000
1000
0000
1000
0000
1000
,
0000
0000
0000
0001
0000
0000
0000
0000
,
0000
0000
0000
0001
0000
0000
0000
0000
,
0000
0000
0000
0010
0000
0000
0000
0000
,
0000
0000
0000
0010
0000
0000
0000
0000
,
0000
0000
0000
0001
0000
0000
0000
0000
,
0000
0000
0000
0001
0000
0000
0000
0000
,
0000
0000
0000
1000
0000
0000
0000
0000
,
0000
0000
0000
1000
0000
0000
0000
0000
,
0000
0000
0000
0100
0000
0000
0000
0000
,
0000
0000
0000
0100
0000
0000
0000
0000
,
0000
0000
0000
1000
0000
0000
0000
0000
,
0000
0000
0000
1000
0000
0000
0000
0000
,
0000
0000
0000
2002
0000
0000
0000
0000
,
0000
0000
0000
0000
,
0000
0000
0000
3003
0000
0000
0000
0000
,
0200
0000
0300
0000
,
1000
0000
1000
0000
,
0200
0000
0000
0000
0000
0000
0000
0300
,
0000
0000
0000
0000
,
2002
0000
0000
0000
0000
0000
0000
3003
,
0000
0000
0000
0001
,
0000
1000
0000
0010
,
0000
1000
0000
0001
,
0000
1000
0000
0010
,
0000
0100
0100
0000
,
0000
0000
0110
0000
,
0000
0000
2002
0000
,
3003
0000
2002
0000
,
3003
0000
2002
0000
,
0000
0000
0000
3003
0000
0000
0000
0000
,
0000
0000
0100
0000
,
0000
0000
0100
0000
,
0000
0000
1000
0000
,
0000
0000
1000
0000
,
0000
0000
0100
0000
,
0000
0000
0100
0000
,
0000
0000
0110
0000
,
0110
0000
0220
0000
,
0330
0000
0000
0000
,
0000
0010
0000
0000
,
0000
0001
0000
0000
,
0000
0001
0000
0000
,
0000
0010
0000
0000
,
0000
0010
0000
0000
,
0000
0000
2002
0000
,
0000
0000
0000
0000
,
0000
0000
0000
0000
0000
3003
0000
0000
0000
0000
0000
0000
0000
0000
0000
0000
;

//---------------dance-single - ----------------
#NOTES:
     dance-single:
     :
     Easy:
     6:
     0.316803,0.533023,0.156635,0.263807,0.012366,269.000000,250.000000,19.000000,32.000000,0.000000,0.000000,0.316803,0.533023,0.156635,0.263807,0.012366,269.000000,250.000000,19.000000,32.000000,0.000000,0.000000:
0000
0000
0000
0000
,
0000
0000
0000
0000
,
0000
0000
0000
0000
0000
0000
0000
0002
0000
0000
0000
0000
,
0000
0000
0000
0000
0000
0000
0000
0203
0000
0000
0000
0000
,
0000
0000
0000
0000
0000
0000
0000
0310
0000
0000
0000
0000
,
0000
0000
0000
0000
,
0000
0000
1100
0000
,
0000
0000
0000
1000
0000
0000
0000
0000
,
0000
0000
0000
0000
0001
0000
0000
1000
,
0000
0001
0001
0000
,
0000
0000
0100
0000
,
0100
0000
0010
0000
,
0010
0000
0100
0000
,
0100
0000
0001
0000
,
0001
0000
1000
0000
,
0001
0000
1000
0000
,
0001
0000
0010
0000
,
0010
0000
0200
0000
,
0300
1000
0000
1000
,
0000
0100
0000
0100
,
0000
0010
0000
0010
,
0000
0001
0000
0001
,
0000
0100
0000
0100
,
0000
0100
0000
0100
,
0000
0010
0000
0000
,
0000
0000
0100
0000
,
0100
0000
0001
0000
,
0001
0010
0000
0100
,
0000
2000
0000
0000
0000
0000
0000
3000
,
0000
0000
1000
1000
,
1000
1000
0100
0010
,
0001
1000
0000
0000
,
0000
0000
0010
0010
0220
0000
0330
0000
,
0110
0000
0100
0100
,
0010
0010
0100
0100
,
0001
0001
1000
0001
,
1000
1000
0001
1000
,
2002
0000
3003
0000
,
0220
0000
0330
0000
,
1000
0000
0001
0000
,
2002
0000
3003
0000
,
0200
0310
0020
1030
,
0002
0103
2002
3003
,
0100
0100
0100
0100
,
0001
0001
0001
0001
,
1000
1000
1000
1000
,
0010
0010
0010
0010
,
0100
0001
0100
0010
,
1000
0010
0100
0010
,
1000
0000
0010
0000
0100
0000
0000
0001
,
0000
0000
0020
0000
,
0030
0000
0200
0000
,
0300
0000
0001
0000
,
1000
0000
0001
0000
,
1000
0000
0200
0000
,
0300
0000
0020
0000
,
0030
0000
0001
0000
,
0001
0000
1000
0000
,
1000
0000
1001
0000
,
0000
0000
0000
0000
,
0000
0110
0000
0000
,
0000
0000
0000
0000
,
0000
0000
0100
0000
,
0001
0100
0000
0001
,
0000
0100
0000
0001
,
0100
0000
0000
0000
,
0000
0000
2000
0000
,
3000
0000
0200
0000
,
0300
0000
0010
0000
,
0001
0000
0010
0000
,
0001
0000
2000
0000
,
3000
0000
0200
0000
,
0300
0000
0010
0000
,
0010
0000
0001
0000
,
0001
0000
1001
0000
,
0000
0000
0000
0000
,
0000
0000
0110
0000
,
0000
0000
0000
0000
,
0000
0000
1000
0000
,
0010
1000
0000
0010
,
0000
1000
0000
0000
,
0000
0000
0000
0002
0000
0000
0000
2000
,
0000
3003
0000
1001
0000
0110
0000
1001
,
0000
0000
0000
0001
0000
0000
0000
0001
,
0000
0000
0000
1000
0000
0000
0000
1000
,
0000
0000
0000
0001
0000
0000
0000
1000
,
0000
0000
0000
0001
0000
0000
0000
1000
,
0000
0000
0000
0001
0000
0000
0000
0001
,
0000
0000
0000
0100
0000
0000
0000
0100
,
0000
0000
0000
0001
0000
0000
0000
0100
,
0000
0000
0000
0001
0000
0000
0000
0100
,
0000
0000
0000
0010
0000
0000
0000
0010
,
0000
0000
0000
1000
0000
0000
0000
1000
,
0000
0000
0000
0010
0000
0000
0000
1000
,
0000
0000
0000
0010
0000
0000
0000
1000
,
0000
0000
0000
0010
0000
0000
0000
0100
,
0000
0010
0000
0000
0000
0100
0000
0000
,
0000
0010
0000
0000
0000
0000
0000
0000
,
2002
0000
3003
0000
,
0200
0000
0000
0300
,
0110
0000
0000
0000
0000
0000
0000
1001
,
0000
0000
0000
0000
,
0001
0000
0000
0010
0000
0100
0000
1000
,
0000
0000
1000
1000
,
0100
0100
1000
0100
,
1000
0100
0010
0010
,
0001
0001
0010
0001
,
0010
0001
1000
0001
,
1000
0000
0001
1000
,
0001
0000
0000
0000
0010
0000
0000
0010
,
0000
0000
0000
0000
0100
0000
0000
0100
,
0000
0000
1000
0000
,
1000
0000
0000
1001
0000
0000
0000
0000
,
0000
0000
0010
0000
,
0010
0000
1000
0000
,
1000
0000
0010
0000
,
1000
0000
0010
0000
,
1000
0000
0001
0000
,
0001
0000
0010
0000
,
0010
0000
0001
0000
,
0010
0000
0001
0000
,
0000
0100
0000
0100
,
0000
0001
0000
0001
,
0000
0100
0000
0001
,
0000
0100
0000
0001
,
0000
1000
0000
1000
,
0000
1000
0000
1000
,
0001
0000
2002
0000
,
0000
0000
0000
0000
,
0000
0000
0000
0000
0000
3003
0000
0000
0000
0000
0000
0000
0000
0000
0000
0000
;

//---------------dance-single - ----------------
#NOTES:
     dance-single:
     :
     Medium:
     9:
     0.496993,0.746233,0.296782,0.321514,0.024732,422.000000,386.000000,36.000000,39.000000,0.000000,0.000000,0.496993,0.746233,0.296782,0.321514,0.024732,422.000000,386.000000,36.000000,39.000000,0.000000,0.000000:
0000
0000
0000
0000
,
0000
0000
0000
0000
,
0000
0000
0000
0000
0000
0000
0000
0002
0000
0000
0000
0000
,
0000
0000
0000
0000
0000
0000
0000
0023
0000
0000
0000
0000
,
0000
0000
0000
0000
0000
0000
0000
0000
0000
0000
0000
0000
0000
0000
0230
0000
0000
0000
0000
0000
0000
0000
0000
1300
,
0000
0002
0000
0000
0000
0000
0000
0000
0000
0000
0003
0000
,
0000
0000
0000
0000
0101
0000
0100
0001
,
0000
0010
0000
0011
0000
0010
0001
0100
,
0000
0001
1000
0000
1010
0000
0000
0001
,
0000
1000
1100
0000
,
0000
0000
0001
0100
,
0010
0000
0010
0100
,
0001
0000
1000
0100
,
0010
0000
0010
0100
,
1000
0000
0010
0100
,
0001
0000
0010
0100
,
1000
0000
1001
0000
,
0110
0000
2002
0000
,
3003
0100
0010
0100
,
0000
0010
0100
0010
,
0000
1000
0010
0100
,
0000
0010
1000
0100
,
0000
0010
0001
0100
,
0000
0001
0010
0100
,
0000
1000
0100
0010
,
2002
3003
0000
0000
0000
0000
0000
0000
0000
0000
0000
0000
0000
0000
0000
0000
0000
0000
0000
0000
0000
0000
0000
0000
0000
0000
0000
0000
0000
0000
0000
0000
0000
0000
0000
0000
0000
0000
0000
0000
0000
0000
0000
0000
0000
0000
0000
0000
0100
0000
0000
0000
0000
0000
0000
0000
0000
0000
0000
0000
0000
0000
0000
0000
0000
0000
0000
0000
0000
0000
0000
0000
0000
0000
0000
0000
0000
0000
0000
0000
0000
0000
0000
0000
0000
0000
0000
0000
0000
0000
0000
0000
0000
0000
0000
0000
0100
0000
0000
0000
0000
0000
0000
0000
0000
0000
0000
0000
0000
0000
0000
0000
0000
0000
0000
0000
0000
0000
0000
0000
0000
0000
0000
0000
0000
0000
0000
0000
0000
0000
0000
0000
0000
0000
0000
0000
0000
0000
0000
0000
0000
0000
0000
0000
0100
0000
0000
0000
0000
0000
0000
0000
0000
0000
0000
0000
0000
0000
0000
0000
0000
0000
0000
0000
0000
0000
0000
0000
0000
0000
0000
0000
0000
0000
0000
0000
0000
0000
0000
0000
0000
0000
0000
0000
0000
0000
0000
0000
0000
0000
0000
0000
,
0010
1000
1000
0010
,
1000
0000
0002
0000
0013
0000
0010
0002
,
0000
2000
0000
0000
0000
0000
0000
3003
,
0000
0000
0000
0000
1000
0100
1000
0100
,
1000
0100
1000
0000
0010
0000
0100
0001
,
0000
0020
0000
0000
0000
0000
0000
0030
,
0000
0000
1001
0110
1001
0000
0000
0000
,
0001
0001
0100
1000
,
0100
0001
0001
0010
,
0100
0100
1000
0100
,
0001
0100
1000
1000
,
1001
0001
0100
0010
,
1001
1000
0100
0010
,
0011
0000
1010
0000
,
0022
0000
0033
0000
,
0200
0000
0000
0300
0110
0000
0000
0000
0002
0000
0000
0003
0101
0000
0000
0000
,
2000
0000
0000
3000
1100
0000
0000
0000
0010
0010
0010
0000
0000
0000
0000
0000
,
1000
0001
1000
0001
,
0010
0001
1000
0100
,
0010
0001
1000
0010
,
0100
0001
0010
0010
,
1001
0100
0100
0100
,
1001
0010
0010
0010
,
1000
0000
0100
0000
0010
0100
0000
1000
,
0000
0000
1000
0010
,
1000
0000
1000
0000
,
1000
0000
0001
1000
,
0001
0000
0001
0000
,
0001
0000
0010
0100
,
0010
0000
0010
0000
,
0010
0000
0100
0010
,
0100
0000
0100
0000
,
0100
0000
0110
0000
,
0100
1000
0000
0001
,
0000
0101
0000
0001
,
1000
0100
0000
1000
,
0100
1000
0020
0000
,
0230
0302
0000
0203
,
0000
0320
0000
1030
,
0001
0000
0000
0000
,
1001
0000
0001
0010
,
0100
0000
0100
0000
,
0100
0000
1000
0010
,
0100
0000
0100
0000
,
0100
0000
0001
0100
,
0010
0000
0010
0000
,
0010
0000
1000
0100
,
0010
0000
0010
0000
,
0010
0000
0011
0000
,
0001
0000
0100
0000
,
1000
0000
1010
0000
,
1000
0000
0100
0000
,
0001
0000
0011
0000
,
0001
1000
0000
1000
,
0000
0001
0000
0000
,
0000
0000
0000
2001
0000
0000
0000
3200
,
0000
0000
0000
0320
0000
0032
0000
1003
,
0001
1000
0000
1000
0000
0100
0000
0010
,
0000
0000
0000
0100
0000
1000
0000
0010
,
0000
0000
0000
0100
0000
0001
0000
0010
,
0000
0000
0000
0001
0000
0100
0000
0010
,
0000
0000
0000
1000
0000
0010
0000
0100
,
0000
0000
0000
0001
0000
1000
0000
0001
,
0000
0000
0000
1000
0000
0100
0000
1000
,
0000
0000
0000
0001
0000
0010
0000
0001
,
0000
0000
0000
1000
0000
0100
0000
0010
,
0000
0000
0000
0001
0000
0100
0000
0010
,
0000
0000
0000
1000
0000
0010
0000
0100
,
0000
0000
0000
0001
0000
0010
0000
0100
,
0000
0000
0000
1001
0000
0000
0000
1000
,
0000
0001
0000
0000
0000
0001
0000
0000
,
0000
1000
0000
0000
0000
0000
0000
0000
,
2000
0000
3200
0000
,
0310
0100
1000
0002
,
0103
0000
0010
1000
0000
0010
0000
0100
,
0000
0001
0010
0100
0000
1000
0100
1000
,
0010
0000
0000
0101
0000
0001
0000
0101
,
0000
0000
0000
0000
0001
0010
0100
0000
,
0100
0000
0100
0000
1000
0010
0100
0000
,
0100
0000
0100
0000
0001
0100
0010
0000
,
0010
0000
0010
0000
1000
0100
0010
0000
,
0010
0001
0101
0010
,
1000
0100
1100
0010
,
0001
0000
1000
0000
0010
0000
0010
1000
,
0000
1000
0000
1000
0001
0000
0001
0100
,
0000
0100
0000
0100
1000
0000
0100
0000
,
0010
0000
0002
1003
0000
0000
0000
0000
,
0000
0000
1000
0100
,
0010
0000
0001
0100
,
0010
0000
0100
0001
,
0010
0000
0100
1000
,
0010
0000
0100
0010
,
1000
0000
0100
0010
,
0001
0000
1001
0000
,
0110
0000
2002
0000
,
3003
0010
1000
0001
,
0000
0010
0001
1000
,
0000
0100
1000
0001
,
0000
0100
0001
1000
,
0000
0010
0100
0001
,
0100
0010
1000
0001
,
0100
0000
0002
0023
,
0032
2003
3200
0320
,
0032
0000
0000
0000
0000
0003
0000
0000
0000
0000
0000
0000
0000
0000
0000
0000
;
