#TITLE:Stronghold;
#SUBTITLE:;
#ARTIST:Lite Show Magic;
#TITLETRANSLIT:;
#SUBTITLETRANSLIT:;
#ARTISTTRANSLIT:;
#GENRE:;
#CREDIT:;
#BANNER:stronghold-bn.png;
#BACKGROUND:stronghold-bg.png;
#LYRICSPATH:;
#CDTITLE:;
#MUSIC:stronghold.ogg;
#OFFSET:0.000000;
#SAMPLESTART:67.185997;
#SAMPLELENGTH:12.000000;
#SELECTABLE:YES;
#BPMS:0.000000=200.000000
,8.000000=220.000000
,14.000000=200.000000
,64.000000=400.000000
,184.000000=200.000000
,188.000000=400.000000
,244.000000=200.000000
,248.000000=100.000000
,280.000000=200.000000
,312.000000=400.000000
,368.000000=350.000000
,369.000000=300.000000
,370.000000=200.000000
,371.250000=100.000000
,372.000000=400.000000
,420.000000=200.000000
;
#STOPS:7.000000=0.150000
;
#BGCHANGES:;
#KEYSOUNDS:;
#ATTACKS:;

//---------------dance-single - ----------------
#NOTES:
     dance-single:
     :
     Challenge:
     18:
     0.940597,1.992872,0.513445,0.583918,0.261756,654.000000,603.000000,51.000000,58.000000,0.000000,0.000000,0.940597,1.992872,0.513445,0.583918,0.261756,654.000000,603.000000,51.000000,58.000000,0.000000,0.000000:
// measure 0
1001
0000
0000
0000
,  // measure 1
0000
0000
0000
0000
0000
0000
0000
1001
,  // measure 2
0000
0000
0000
0000
,  // measure 3
0000
0000
0000
0000
,  // measure 4
1001
0000
0000
0000
,  // measure 5
0000
0000
0000
0000
0000
0000
0010
0100
,  // measure 6
1001
0000
0000
0000
,  // measure 7
0000
0000
0100
0010
,  // measure 8
1001
0000
0000
0000
0100
1000
0100
1000
0100
0000
0010
0000
0100
0000
0010
0000
,  // measure 9
0001
0010
0001
0000
0010
0000
0100
0000
1000
0100
1000
0000
0010
0000
0100
0000
,  // measure 10
1001
0000
0000
0000
0010
1000
0010
1000
0010
0000
0100
0000
0001
0000
0010
0000
,  // measure 11
0100
0010
0100
0000
1000
0000
0010
0000
0100
0001
0100
0000
0010
0000
0100
0000
,  // measure 12
1001
0000
0001
0000
0100
0010
0100
0010
0100
0000
0001
0000
1000
0000
0000
0000
,  // measure 13
1001
0000
1000
0000
0100
1000
0100
0010
0100
0000
1000
0000
0001
0000
0000
0000
,  // measure 14
1001
0000
0100
0000
0001
1000
0001
0000
1000
0000
0010
0000
1000
0001
1000
0000
,  // measure 15
1010
0110
0101
0011
,  // measure 16
1000
0100
1000
0100
2000
0000
3001
0000
,  // measure 17
0100
0010
0100
0001
0200
0000
0310
0000
,  // measure 18
1000
0010
0100
0010
2000
0000
3001
0000
,  // measure 19
0010
0001
0010
0001
0010
0000
0010
0000
,  // measure 20
0001
0010
0100
1000
0200
0000
1300
0000
,  // measure 21
0010
1000
0001
0100
0002
0000
1003
0000
,  // measure 22
0100
0010
0100
1000
0200
0000
0310
0000
,  // measure 23
0001
0000
0010
0001
1000
0000
0100
0000
,  // measure 24
0010
0100
0010
0100
0020
0000
0130
0000
,  // measure 25
1000
0001
1000
0001
2000
0000
3001
0000
,  // measure 26
0010
0100
0010
0100
0020
0000
0130
0000
,  // measure 27
0001
0000
1000
0100
0010
0000
0010
0000
,  // measure 28
0001
0100
1000
0100
0001
0000
1000
0000
,  // measure 29
0001
0010
1000
0010
0001
0000
1000
0000
,  // measure 30
0200
2300
3020
0130
,  // measure 31
0200
0302
0023
0031
,  // measure 32
0011
0000
0001
0100
1000
0000
0100
0000
,  // measure 33
0001
0000
1000
0100
0001
0000
0100
0000
,  // measure 34
1000
0000
0001
1000
0001
0000
0100
0000
,  // measure 35
0010
0100
0010
1000
0002
0000
1003
0000
,  // measure 36
0010
0000
1000
0100
0020
0000
0031
0000
,  // measure 37
0010
0000
0001
0100
0020
0000
1030
0000
,  // measure 38
1000
0000
0100
1000
0020
0000
1030
0000
,  // measure 39
1000
0001
0010
0010
,  // measure 40
0001
0010
0001
0010
0002
0000
1003
0000
,  // measure 41
0100
1000
0100
1000
0200
0000
0310
0000
,  // measure 42
0001
1000
0001
1000
0200
0000
1300
0000
,  // measure 43
0001
0100
0010
1000
0002
0000
0103
0000
,  // measure 44
0010
1000
0100
1000
0020
0000
1030
0000
,  // measure 45
0100
0010
0001
0010
0200
0000
1300
0000
,  // measure 46
1010
0110
0101
0011
,  // measure 47
0001
0010
0100
0010
0002
0000
1003
0000
,  // measure 48
0010
0100
0001
0100
0020
0000
1030
0000
,  // measure 49
0100
1000
0001
1000
0200
0000
0310
0000
,  // measure 50
0001
1000
1001
0000
,  // measure 51
0010
1000
0001
1000
0200
0000
0310
0000
,  // measure 52
0001
1000
0001
0100
0020
0000
1030
0000
,  // measure 53
0010
0100
0001
0100
0002
0000
1003
0000
,  // measure 54
1010
0000
0110
0000
,  // measure 55
0001
0010
0100
1000
0200
0000
1300
0000
,  // measure 56
0001
0010
0100
0010
0002
0000
1003
0000
,  // measure 57
0100
1000
0010
0100
0002
0000
1003
0000
,  // measure 58
0200
0310
0002
1003
,  // measure 59
0010
1000
0010
0000
1000
0100
1000
0000
,  // measure 60
0001
0010
0001
0000
0100
0001
0100
0000
,  // measure 61
1010
0110
0101
0011
,  // measure 62
0200
0000
0310
0000
1000
0010
0000
0101
0000
0100
0010
0000
1000
0000
0100
0001
,  // measure 63
2000
0000
3001
0200
0000
0000
0000
0000
0000
0000
0000
0000
0300
0000
0000
0000
,  // measure 64
0000
0000
1000
0000
0010
0001
0000
1000
0000
0001
0200
0000
2300
0000
3020
0000
,  // measure 65
0031
0000
1000
0020
0000
0000
0000
0000
0000
0000
0000
0000
0030
0000
0000
0000
,  // measure 66
0110
0000
0100
0000
0001
0100
1000
0100
0001
0010
0010
0100
0010
0001
1000
0100
,  // measure 67
0020
0000
0130
2000
0001
0000
0100
0000
0001
0000
0100
0000
3001
0000
0100
0000
,  // measure 68
1010
0000
0100
0010
1000
0100
1000
0001
1000
0010
0100
0001
0100
1000
0100
0001
,  // measure 69
0010
0001
0010
0000
0001
0100
0001
0000
1000
0010
1000
0000
0100
1000
0100
0000
1100
0000
0000
0000
0110
0000
0000
0000
0011
0000
0000
0000
1000
0000
0000
0000
,  // measure 70
0101
0000
0100
1000
0100
1000
0100
0001
,  // measure 71
0100
0001
0010
0100
2000
0000
3001
0000
,  // measure 72
1001
0000
0010
1000
0010
1000
0010
0001
,  // measure 73
0010
0001
0010
1000
0001
2000
0000
0000
,  // measure 74
3001
0000
0000
0000
0100
0001
0100
0000
0010
0000
1000
0000
0100
0000
0001
0000
,  // measure 75
0100
1000
0010
0100
1000
0100
0001
0000
,  // measure 76
1010
0000
0000
0000
0010
0100
0010
0000
1000
0010
1000
0000
0001
0100
0001
0000
,  // measure 77
0100
0010
0100
0000
0001
0000
0010
0000
0100
0000
1000
0000
0100
0000
0000
0000
,  // measure 78
0011
0000
1100
0000
,  // measure 79
0011
0000
0000
0000
1000
0100
1000
0000
,  // measure 80
0001
0010
0001
0010
0200
0000
0310
0000
,  // measure 81
0001
1000
0001
1000
0002
0000
0103
0000
,  // measure 82
0010
0100
0010
0100
2000
0000
3100
0000
,  // measure 83
0001
0100
0001
0100
2000
0000
3100
0000
,  // measure 84
0001
0100
0001
0100
0002
0000
1003
0000
,  // measure 85
0010
1000
0010
1000
0020
0000
0130
0000
,  // measure 86
0010
1000
0001
0000
0010
0001
1000
0000
,  // measure 87
0100
1000
0001
0000
0100
0001
1000
0000
,  // measure 88
0010
0100
0001
0000
0010
0100
1000
0000
,  // measure 89
0100
0010
0001
0000
0100
0010
1000
0000
,  // measure 90
0010
1000
0100
0010
0001
0010
0100
1000
,  // measure 91
0010
0001
0010
1000
0100
0001
0100
1000
,  // measure 92
0020
0000
0000
0030
,  // measure 93
1010
1000
0001
0000
,  // measure 94
0101
0010
1000
1100
,  // measure 95
0000
0011
0000
0100
,  // measure 96
1000
0100
1000
0100
1000
0000
0001
0000
,  // measure 97
0110
0010
0001
0000
,  // measure 98
1100
0010
0001
1001
,  // measure 99
0000
1010
0000
0010
,  // measure 100
0100
0001
0010
0001
0100
0000
0000
0000
,  // measure 101
1001
0000
0000
0000
0010
0100
0010
0000
,  // measure 102
1001
0000
0000
0000
1000
0100
0010
0000
,  // measure 103
1001
0001
0100
1010
,  // measure 104
0000
0000
0202
0300
0200
0003
0301
0000
,  // measure 105
1000
0000
0000
0000
0000
0000
0000
0100
0010
0000
0000
0000
0000
0000
0000
0000
1000
0000
0000
0000
0000
0000
0000
0000
0000
0000
0000
0000
0001
0000
0100
0000
,  // measure 106
1000
0001
0010
1000
0000
0200
0000
0300
,  // measure 107
1001
0000
0000
0000
;

//---------------dance-single - ----------------
#NOTES:
     dance-single:
     :
     Hard:
     15:
     0.540771,1.023367,0.241621,0.372499,0.045304,376.000000,352.000000,24.000000,37.000000,0.000000,0.000000,0.540771,1.023367,0.241621,0.372499,0.045304,376.000000,352.000000,24.000000,37.000000,0.000000,0.000000:
0020
0000
0000
0000
,
0000
0000
0000
0000
0000
0000
0030
0002
,
0000
0000
0000
0000
,
0000
0000
0000
0000
,
2003
0000
0000
0000
,
0000
0000
0000
0000
,
3020
0000
0000
0000
,
0000
0000
0000
0000
,
0130
0010
0100
0001
1000
0000
1000
0000
,
0001
0010
0001
1000
0100
0000
0100
0000
,
0010
0001
0010
1000
0010
0000
0010
0000
,
0001
0100
1000
0100
0001
1000
0001
0000
,
0010
1000
0100
1000
0010
0000
0010
0000
,
0100
0001
0010
0001
0100
0000
0010
0000
,
1100
0010
0101
0010
,
1100
0101
1100
0100
,
0010
0100
1000
0100
,
0010
0100
1000
0001
,
0100
0010
0100
0001
,
0100
0010
1000
0000
,
0001
0100
0001
1000
,
0001
0100
0001
1000
,
0001
0010
0001
1000
,
0100
0000
0100
0000
,
0001
0100
1000
0100
,
0001
0100
1000
0100
,
0001
0100
1000
0010
,
0001
0010
1000
0000
,
0010
0100
0010
0100
,
0001
0100
0001
0100
,
0010
1000
0010
0000
,
2000
3200
0320
0030
,
0011
0000
0011
0000
,
0001
1000
0001
1000
,
1100
0000
1100
0000
,
0010
1000
0001
0100
,
0010
0100
0001
0100
,
1000
0100
0001
0100
,
0010
0100
0001
1000
,
0001
1000
0100
0000
,
0001
0010
0100
1000
,
0001
0010
0100
1000
,
0100
1000
0010
0100
,
0001
0010
0001
0000
,
1000
0010
1000
0010
,
0100
1000
0100
0010
,
2000
0000
0000
3000
,
1010
0000
0011
0000
,
1100
0000
0101
0000
,
0110
0000
1001
0000
,
0100
0001
0010
0000
,
0001
0100
1000
0100
,
0001
0010
0001
0010
,
0100
1000
0100
0001
,
0100
1000
0010
0000
,
0020
0000
1000
0000
,
0230
0000
0001
0000
,
0320
0000
0100
0000
,
2030
0000
0010
0000
,
3002
0000
0023
0000
,
0032
0000
2003
0000
,
3020
0000
0000
0030
,
0010
0000
1000
0000
0010
1000
0000
0001
0000
0000
0010
0000
0001
0000
1000
0000
,
0010
0000
0100
0002
0000
0000
0000
0000
0000
0000
0000
0000
0003
0000
0000
0000
,
0000
0000
0100
0000
0001
1000
0000
0100
0000
0000
1000
0000
0001
0000
0100
0000
,
0010
0000
1000
0002
0000
0000
0000
0000
0000
0000
0000
0000
0003
0000
0000
0000
,
0001
0001
0010
0010
0001
0001
1000
1000
,
0100
0100
1000
0010
1000
0100
1000
0010
,
0100
0100
0010
0010
0100
0010
0100
0010
,
0100
0010
0100
0010
0100
0000
0001
0000
1000
0000
1000
0000
1000
0000
0001
0000
,
0200
0000
0000
0001
0000
0001
0000
1000
,
0000
0001
0000
0000
0010
0000
0300
0000
,
0020
0000
0000
0100
0000
1000
0000
0100
,
0000
0001
0000
0000
1000
0000
0030
0000
,
2000
0000
0000
0001
0000
0001
0000
0010
,
0000
0100
0000
0000
0010
0000
3010
0100
,
0002
0000
0000
0010
0000
1000
0000
0100
,
0000
1000
0000
0000
0013
0000
0011
0000
,
0011
0000
1010
0000
,
0101
0000
1100
0000
,
0110
0000
1001
0000
,
0010
0100
0010
0000
,
1000
0100
1000
0100
,
0010
0001
0010
0000
,
0001
0100
0001
0100
,
0010
1000
0010
0000
,
1000
0100
0010
0100
,
1000
0001
0100
0001
,
1000
0010
0100
0010
,
1000
0001
0010
0001
,
1000
0100
0001
0100
,
1000
0010
0001
0010
,
2000
0000
0000
0000
,
3002
0000
0000
0000
,
0203
0000
0000
0302
,
0000
0023
0000
0000
,
0130
0000
0000
0000
,
2001
0000
0000
0000
,
3020
0000
0000
0032
,
0000
2003
0000
0000
,
3100
0000
0001
0000
,
0002
0000
0000
0000
,
2003
0000
0000
0000
,
3200
0000
0000
1300
,
0000
0012
0000
0000
,
0103
0000
0000
0000
0010
0000
0000
0000
0100
0000
0000
0000
0000
0000
0100
0001
,
1000
0010
1000
0001
0000
0200
0000
0000
,
0310
0000
0000
0000
;

//---------------dance-single - ----------------
#NOTES:
     dance-single:
     :
     Medium:
     12:
     0.504816,0.915644,0.392635,0.120811,0.030203,351.000000,312.000000,39.000000,12.000000,0.000000,0.000000,0.504816,0.915644,0.392635,0.120811,0.030203,351.000000,312.000000,39.000000,12.000000,0.000000,0.000000:
0010
0000
0000
0000
,
0000
0000
0000
0000
0000
0000
0000
0010
,
0000
0000
0000
0000
,
0000
0000
0000
0000
,
0100
0000
0000
0000
,
0000
0000
0000
0100
,
0100
0000
0000
0000
,
0000
0000
0000
0000
,
1001
0000
0000
0100
0000
0100
0000
0010
,
0000
1000
0000
0001
1000
0000
0000
0000
,
1001
0000
0000
0100
0000
0100
0000
0010
,
0000
0001
0000
0010
0001
2000
3000
0000
,
1001
0000
0000
1000
0000
1000
0000
0100
,
0010
0001
0000
1000
0000
1000
0000
0010
,
0100
0010
0000
0100
0010
0100
0000
0100
,
0002
2003
3002
0013
,
1100
0000
1000
0000
,
0001
0100
0001
0000
,
1000
0010
1000
0000
,
0001
0100
0010
0000
,
1010
0000
1000
0000
,
0100
0010
0001
0000
,
0010
0100
1000
0000
,
0001
0010
0100
0000
,
0010
0000
0010
0000
,
0100
0010
0100
0000
,
1000
0100
0010
0000
,
0001
0100
0010
0000
,
1000
0001
1000
0001
,
1000
0010
1000
0010
,
0100
0001
0100
0001
,
2000
0000
0000
0000
,
3001
0000
1001
0000
,
0100
0010
0100
0010
,
0110
0000
0110
0000
,
1000
0000
0001
0000
,
1001
0000
0101
0000
,
0001
0100
1000
0000
,
1000
0100
0001
0000
,
0001
0100
0001
0000
,
1000
0010
1000
0000
,
1000
0100
1000
0000
,
1000
0010
0100
0001
,
0010
0001
1000
0000
,
0001
0000
0001
0000
,
0100
0010
0100
0010
,
0100
0100
0100
0000
,
1001
0000
1001
0000
,
1001
0000
0001
1000
,
0001
0000
1000
0010
,
1000
0000
0010
0100
,
0010
0000
0100
0001
,
0100
0000
0001
0010
,
0001
0000
1000
0100
,
1000
0000
0001
0010
,
0100
1000
0100
0010
,
0001
1000
0001
1000
,
0010
0100
0001
0100
,
0010
1000
0010
0000
,
1010
0000
1010
0000
,
0011
0000
0011
0000
,
0020
0000
0000
0030
,
0000
0000
0100
0000
0100
0000
0000
0001
0000
0001
0100
0000
0100
0000
1000
0000
,
0020
0000
0000
0032
0000
0000
0000
0000
0000
0000
0000
0000
0003
0000
0000
0000
,
0000
0000
1000
0000
0001
0000
0000
0010
0000
0010
0001
0000
1000
0000
0100
0000
,
2000
0000
0000
3020
0000
0000
0000
0000
0000
0000
0000
0000
0030
0000
0000
0000
,
1000
1000
0100
1000
0001
0001
0100
0001
,
0010
0010
0100
0010
0001
0010
1000
0010
,
0001
1000
0001
1000
0010
1000
0010
0100
,
0001
0100
0001
0100
0100
0100
0100
0000
,
1001
0000
0000
1000
0000
1000
0000
0001
,
0000
0010
0000
0100
0010
0000
0000
0000
,
0110
0000
0000
1000
0000
1000
0000
0010
,
0000
0100
0000
0001
0010
0001
0000
0000
,
1001
0000
0000
0010
0000
1000
0000
0010
,
0000
1000
0000
0001
0010
0000
0010
0000
,
0110
0000
0000
0100
0000
0100
0000
0010
,
0000
0001
0000
1000
0100
1000
0000
0000
,
1001
0000
0010
0000
,
0100
0000
0010
0000
,
1001
0000
1000
0000
,
0001
0000
1000
0000
,
1001
0000
0010
0000
,
1000
0000
0100
0000
,
0010
0000
0001
0000
,
0010
0000
0100
0000
,
0110
0000
0100
1000
,
0010
0000
0100
0001
,
0010
0000
0100
1000
,
0100
0000
0010
0001
,
1000
0100
0010
0001
,
1000
0100
0010
0001
,
0200
0000
0000
0300
,
1001
0000
0000
0000
,
0110
0000
0000
1001
,
0000
0110
0000
0000
,
0000
0000
0000
0000
,
1001
0000
0000
0000
,
1010
0000
0000
0101
,
0000
0011
0000
0000
,
0000
0000
0000
0000
,
1001
0000
0100
0000
,
1001
0000
0010
0000
,
1001
0000
0000
0110
,
0000
1001
0000
0000
,
1100
0000
0010
0000
0001
0000
0000
0100
,
0001
0000
1000
0010
0000
0200
0000
0000
,
0301
0000
0000
0000
;

//---------------dance-single - ----------------
#NOTES:
     dance-single:
     :
     Easy:
     9:
     0.322162,0.807921,0.070473,0.080540,0.020135,224.000000,217.000000,7.000000,8.000000,0.000000,0.000000,0.322162,0.807921,0.070473,0.080540,0.020135,224.000000,217.000000,7.000000,8.000000,0.000000,0.000000:
0000
0000
0000
0000
,
0000
0000
0000
0000
,
0000
0000
0000
0000
,
0000
0000
0000
0000
,
0000
0000
0000
0000
,
0000
0000
0000
0000
,
0000
0000
0000
0000
,
0000
0000
0000
0000
,
0001
0001
1000
1000
,
0010
1000
0001
0100
,
0001
0001
1000
1000
,
0100
1000
0001
0010
,
0001
0100
0100
0100
,
0010
1000
1000
1000
,
0001
0010
0100
1000
,
0002
0000
0000
0003
,
0001
0000
0001
0000
,
0010
0000
0001
0000
,
1000
0000
0100
0000
,
1000
0000
0010
0000
,
0100
0000
0100
0000
,
0001
0000
0100
0000
,
0010
0000
1000
0000
,
0001
0000
1000
0000
,
0100
0000
0100
0000
,
0010
0000
0100
0000
,
1000
0000
0001
0000
,
0010
0000
0001
0000
,
0010
0000
0010
0000
,
0100
0000
0100
0000
,
0020
0000
0000
0000
,
0001
0000
0031
0000
,
1001
0000
1000
0000
,
0001
0000
1000
0000
,
0010
0000
0010
0000
,
1000
0000
0001
0000
,
0100
0000
0100
0000
,
0010
0000
1000
0000
,
0010
0000
0100
0000
,
0001
0000
0100
0000
,
0010
0000
0010
0000
,
0100
0000
0001
0000
,
0100
0000
0100
0000
,
0010
0000
1000
0000
,
0100
0000
0100
0000
,
1000
0000
1000
0000
,
0002
0000
0000
0003
,
0001
1000
0001
0000
,
1000
0000
0001
0000
,
1000
0001
1000
0000
,
0001
0000
0100
0000
,
0010
0000
0010
0000
,
1000
0000
1000
0000
,
0001
0000
0100
0000
,
0001
0000
0001
0000
,
1000
0000
1000
0000
,
0001
1000
0001
0000
,
0010
0000
0010
0000
,
0100
0010
0100
0000
,
1000
0000
0100
0000
,
0010
0000
0001
0000
,
0200
0000
0000
0300
,
0000
0000
0000
0000
1000
0000
0000
0001
0000
0000
1000
0000
0010
0000
1000
0000
,
0010
0000
0000
0200
0000
0000
0000
0000
0000
0000
0000
0000
0300
0000
0000
0000
,
0000
0000
0000
0000
0001
0000
0000
0010
0000
0000
0001
0000
1000
0000
0100
0000
,
1000
0000
0000
0020
0000
0000
0000
0000
0000
0000
0000
0000
0030
0000
0000
0000
,
0010
0001
0010
0001
,
1000
0100
1000
0100
,
0010
0100
0010
0100
0001
1000
0001
1000
,
0010
0100
0010
0100
0020
0000
0000
0030
,
1001
0000
0000
0000
,
0000
0000
0000
0000
,
1001
0000
0000
0000
,
0000
0000
0000
0000
,
1001
0000
0000
0000
,
0000
0000
0000
0010
,
1001
0000
0000
0000
,
0000
0000
0000
0000
,
0010
0000
0010
0000
,
1000
0000
0100
0000
,
1000
0000
1000
0000
,
0001
0000
0010
0000
,
0001
0000
0001
0000
,
0100
0000
0001
0000
,
0010
0000
0010
0000
,
0001
0000
1000
0000
,
0010
0000
0100
0000
,
0001
0000
0010
0000
,
0001
0000
0100
0000
,
0010
0000
1000
0000
,
0100
1000
0100
0000
,
1000
0100
1000
0000
,
0002
0000
0000
0003
,
0001
0000
0100
0000
,
1000
0000
0000
0100
,
0000
0001
0000
0000
,
0000
0000
0000
0000
,
1000
0000
0010
0000
,
0001
0000
0000
0010
,
0000
1000
0000
0000
,
0000
0000
0000
0000
,
1000
0000
0100
0000
,
0001
0000
0000
0000
,
0001
0000
0000
0010
,
0000
1000
0000
0000
,
1001
0100
0100
0000
,
0010
0000
0100
0010
0000
0010
0000
0000
,
1001
0000
0000
0000
;

//---------------dance-single - ----------------
#NOTES:
     dance-single:
     :
     Beginner:
     5:
     0.145260,0.323168,0.010068,0.110743,0.000000,101.000000,100.000000,1.000000,11.000000,0.000000,0.000000,0.145260,0.323168,0.010068,0.110743,0.000000,101.000000,100.000000,1.000000,11.000000,0.000000,0.000000:
0000
0000
0000
0000
,
0000
0000
0000
0000
,
0000
0000
0000
0000
,
0000
0000
0000
0000
,
0000
0000
0000
0000
,
0000
0000
0000
0000
,
0000
0000
0000
0000
,
0000
0000
0000
0000
,
0002
0000
0000
0000
,
0000
0000
0003
0000
,
2000
0000
0000
0000
,
0000
0000
3000
0000
,
0002
0000
0003
0000
,
2000
0000
3000
0000
,
0001
0000
1000
0000
,
0001
0000
0000
0000
,
0010
0000
0000
0000
,
0010
0000
0000
0000
,
0010
0000
0000
0000
,
1000
0000
0000
0000
,
0001
0000
0000
0000
,
0001
0000
0000
0000
,
0001
0000
0000
0000
,
0100
0000
0000
0000
,
0010
0000
0000
0000
,
0010
0000
0000
0000
,
0010
0000
0000
0000
,
0100
0000
0000
0000
,
0001
0000
0000
0000
,
0001
0000
0000
0000
,
0001
0000
0000
0000
,
1000
0000
0000
0000
,
0001
0000
0000
0000
,
0010
0000
0000
0000
,
0001
0000
0000
0000
,
0010
0000
0000
0000
,
0001
0000
0000
0000
,
0001
0000
0000
0000
,
1000
0000
0000
0000
,
1000
0000
0000
0000
,
0100
0000
0000
0000
,
1000
0000
0000
0000
,
0100
0000
0000
0000
,
1000
0000
0000
0000
,
0100
0000
0000
0000
,
0100
0000
0000
0000
,
0020
0000
0030
0000
,
0010
0000
0000
0000
,
0010
0000
0000
0000
,
0010
0000
0000
0000
,
1000
0000
0000
0000
,
0001
0000
0000
0000
,
0001
0000
0000
0000
,
0001
0000
0000
0000
,
0100
0000
0000
0000
,
0010
0000
0000
0000
,
0010
0000
0000
0000
,
0010
0000
0000
0000
,
0010
0000
0000
0000
,
1000
0000
0000
0000
,
0001
0000
0000
0000
,
2000
0000
3000
0000
,
0001
0000
0001
0000
,
0001
0000
0000
0000
,
0100
0000
0001
0000
,
0100
0000
0000
0000
,
1000
0000
1000
0000
,
1000
0000
0000
0000
,
0010
0000
1000
0000
,
0010
0010
0010
0000
,
0020
0000
0000
0000
,
0000
0000
0030
0000
,
2000
0000
0000
0000
,
0000
0000
3000
0000
,
0020
0000
0000
0000
,
0000
0000
0030
0000
,
2000
0000
0000
0000
,
0000
0000
3000
0000
,
0010
0000
0000
0000
,
0010
0000
0000
0000
,
1000
0000
0000
0000
,
1000
0000
0000
0000
,
0010
0000
0000
0000
,
0010
0000
0000
0000
,
1000
0000
0000
0000
,
0010
0000
0000
0000
,
0100
0000
0000
0000
,
0100
0000
0000
0000
,
0001
0000
0000
0000
,
0001
0000
0000
0000
,
0100
0000
0000
0000
,
0001
0000
0000
0000
,
0200
0000
0000
0000
,
0300
0000
0000
0000
,
0100
0000
0000
0100
,
0000
0100
0000
0000
,
0000
0000
0000
0000
,
0001
0000
0000
0000
,
0001
0000
0000
0001
,
0000
0001
0000
0000
,
0000
0000
0000
0000
,
0010
0000
0000
0000
,
0010
0000
0000
0000
,
0010
0000
0000
0010
,
0000
0010
0000
0000
,
0010
0000
0000
0000
,
0000
0000
0000
0000
,
1001
0000
0000
0000
;
