#TITLE:Sparkling Software;
#SUBTITLE:HARDCORE TANO*C;
#ARTIST:Kobaryo;
#TITLETRANSLIT:;
#SUBTITLETRANSLIT:;
#ARTISTTRANSLIT:;
#GENRE:Speedcore;
#CREDIT:;
#BANNER:bn.png;
#BACKGROUND:bg.png;
#LYRICSPATH:;
#CDTITLE:;
#MUSIC:Sparkling Software.ogg;
#OFFSET:0.000000;
#SAMPLESTART:18.009562;
#SAMPLELENGTH:12.000000;
#SELECTABLE:YES;
#DISPLAYBPM:80.000000:320.000000;
#BPMS:0.000000=80.000000
,4.000000=160.000000
,36.000000=80.000000
,40.000000=320.000000
,67.000000=640.000000
,67.500000=320.000000
,99.000000=640.000000
,99.500000=320.000000
,104.000000=160.000000
,144.000000=320.000000
,160.000000=160.000000
,168.000000=320.000000
,184.000000=160.000000
,192.000000=80.000000
,200.000000=160.000000
,264.000000=80.000000
,268.000000=320.000000
,311.500000=640.000000
,312.000000=320.000000
,332.000000=160.000000
;
#STOPS:67.000000=0.047000,
99.000000=0.047000,
311.500000=0.047000
;
#BGCHANGES:;
#KEYSOUNDS:;
#ATTACKS:;

//---------------dance-single - ----------------
#NOTES:
     dance-single:
     Zach Bell's vision:
     Challenge:
     18:
     0.979841,1.376868,0.111075,0.416532,0.805295,741.000000,729.000000,12.000000,45.000000,5.000000,0.000000,0.979841,1.376868,0.111075,0.416532,0.805295,741.000000,729.000000,12.000000,45.000000,5.000000,0.000000:
0000
0000
0000
0000
,
0001
1000
0100
0001
,
0201
0000
0310
0011
0000
1001
0000
0001
,
0100
0010
1000
0010
,
0011
0000
0000
1010
0000
0000
1001
0000
0000
0000
0012
0000
2000
0000
0003
0000
,
3001
1000
0100
0001
0100
0010
0001
1000
,
0010
0100
1000
0100
0010
1000
0001
0010
,
0100
0010
0100
0010
0001
1000
0001
1000
0010
0100
0010
0100
0001
1000
0100
0010
,
0100
1000
0010
0001
0010
1000
0001
0010
1000
0010
0001
1000
0400
0000
0000
0000
,
0300
0000
0000
0000
0000
0000
0000
0000
0000
0000
0000
0000
1000
0000
0001
0000
0100
0000
1000
0000
0001
0000
0010
0000
1000
0001
0100
0010
0100
0001
1000
0100
,
10M0
0100
0010
0100
1000
0001
0100
0010
,
1000
0010
0100
0001
1000
0100
0001
0100
,
1000
0001
1000
0010
0100
0001
1000
0100
,
0010
0100
0010
0001
1000
0010
0100
1000
,
0100
0010
1000
0001
0010
0100
0010
0001
,
0010
0100
1000
0001
1000
0010
0100
0001
,
2000
3200
0320
0032
2003
3020
0230
0301
,
0000
1000
0001
0100
0001
0010
0001
0100
,
0001
0010
1000
0010
0001
1000
0100
0001
,
0100
0010
0001
1000
0010
0100
1000
0100
,
0010
1000
0001
1000
0010
0001
0010
0100
,
1000
0100
0001
1000
0100
0010
1000
0010
,
0100
0001
0100
0010
0001
1000
0100
0001
,
0100
1000
0001
0100
1000
0100
0010
1000
,
0002
0023
0230
0320
2030
3020
0032
0013
,
0001
1000
0010
0100
0010
0001
0010
0100
,
001M
0000
1000
0000
0001
0000
0010
0000
0100
0000
0010
0000
0001
0000
0010
0002
,
0200
0000
0303
2020
0000
3030
0010
1000
,
0100
0000
0001
0000
1000
0000
0010
0000
0100
0000
0010
0000
0001
0000
1000
0020
,
0200
0000
0330
2002
0000
3003
1000
0001
,
0100
0000
0010
0000
0001
0000
1000
0000
0100
0000
0001
0000
0100
0000
0010
2000
,
0200
0000
0000
0000
3300
0000
0022
0000
0000
0000
0033
0000
0000
0000
0001
0100
,
2000
0000
0000
0000
3000
0000
0001
0010
4000
3000
0001
0100
4000
3000
0001
0010
,
1000
0010
1000
0010
0100
0001
0100
0001
1000
0001
1000
0100
0010
0100
0010
0001
,
0010
0000
0001
0000
1000
0000
0010
0100
0010
1000
0001
0010
0200
0000
0310
0000
,
0001
0000
1000
0000
0010
0000
0100
0001
0010
0100
1000
0010
0100
0001
0010
0100
,
1000
0100
0001
0100
0010
1000
0010
0001
,
1000
0010
0100
1000
0100
0010
0001
0010
,
1000
0001
0010
1000
0001
0100
0010
0001
,
1000
0010
0100
1000
0001
0010
0100
0001
,
1000
0000
0010
0000
0100
0000
0001
1000
0010
0100
0001
1000
0020
0000
1030
0000
,
0001
0000
0010
0000
0100
0000
0010
0001
1000
0100
1000
0010
0100
0001
0010
0100
,
1000
0010
1000
0100
0010
0001
0100
1000
,
0100
0001
1000
0100
0001
0100
1000
0001
,
0100
1000
0001
1000
0100
0001
1000
0100
,
0001
1000
0001
0100
0010
0001
1000
0020
,
0200
0000
0000
0000
,
0000
0000
0000
0000
0000
0000
0000
0330
,
1001
0000
0000
0000
0000
0001
0100
0000
0010
0000
1000
0000
0001
0000
0010
0000
0400
0300
0000
0000
0000
1000
0001
0000
0100
0000
0001
1000
0100
0010
0004
0003
,
4000
3000
0000
0000
0000
0001
0100
0000
0001
0000
0000
0010
0100
0000
1000
0000
0010
0000
0100
0000
0001
1000
0100
0000
0010
0000
0001
0000
1000
0100
0010
0000
,
0001
0010
0001
0000
1000
0100
1000
0000
0001
0010
0100
1000
0020
0000
0030
0000
,
0100
0010
1000
0010
0200
0000
0300
0001
0100
0010
1000
0001
0020
0000
0030
0100
,
1000
0000
0100
0000
1000
0000
0001
0000
0100
0010
1000
0001
0020
0000
0030
0100
,
0010
0001
0010
0001
1000
0001
1000
0010
1000
0010
0100
0001
0100
0010
1000
0100
,
0010
0000
0100
0010
0001
0000
1000
0010
0100
0001
0000
1000
0000
0001
0100
0010
,
1000
0000
0001
0000
0010
0100
0000
1000
0100
0000
0001
0100
0000
0010
0001
0010
,
0100
0000
1000
0010
0100
0000
0001
0010
0100
1000
0000
0001
0000
1000
0010
0100
,
0001
0000
0010
0000
0100
0001
0000
0100
0000
1000
0001
0000
0100
0010
0000
0100
,
0001
0000
0010
0100
1000
0000
0100
0001
1000
0010
0000
0100
0000
0010
0001
0100
,
0010
0000
1000
0000
0010
0100
0000
1000
0001
0000
0010
0100
0000
0001
1000
0010
,
0100
0000
0001
1000
0100
0000
0010
0100
0001
0100
0000
0010
0000
0001
0100
0010
,
1000
0000
0010
0000
0100
0001
0000
0010
0000
0001
1000
0000
0100
0010
0000
0100
,
1000
0100
0010
0100
1000
0001
0100
0001
1000
0010
1000
0001
0100
0010
0100
0001
,
1000
0100
0010
0100
1000
0001
0100
0010
1000
0001
1000
0010
1000
0001
0010
0100
,
0001
0100
0010
0001
1000
0010
0100
1000
0100
0010
1000
0010
0001
0010
0100
0001
,
1000
0100
0001
0100
0010
0001
0010
1000
0010
0100
1000
0001
0200
0000
0000
0000
,
0301
0000
0000
0000
0000
0000
0000
0000
1000
1000
0001
1000
0100
0010
0001
0010
,
M001
0010
0001
0100
1000
0000
0100
0001
,
1000
0100
0000
0010
0000
0100
1000
0001
,
0100
0010
1000
0000
0010
0001
0000
0010
,
0100
0001
0100
0001
1000
0100
0001
0100
,
1000
0001
0100
1000
0100
0010
1000
0001
,
0010
0100
0000
0001
0000
1000
0010
0100
,
1000
0001
1000
0100
0010
0100
0000
0001
,
0000
1000
0010
0001
0100
1000
0000
0100
,
0001
0000
1000
0100
0010
1000
0010
0100
,
0001
0100
0000
0010
0000
0001
0100
1000
,
0100
0010
1000
0000
0001
0010
0000
0100
,
0000
0010
0001
0000
0100
0000
0001
0000
,
2000
3000
0001
0010
2000
3000
0001
0100
,
2000
3000
0001
0100
2000
3000
0001
0010
,
1000
0001
1000
0100
0010
1000
0010
0001
,
0100
1000
0100
0010
1000
0010
0001
0010
,
2002
0000
0000
0000
,
0000
0000
3000
0000
0003
0M00
0000
0000
,
00M0
0000
0000
0000
;

//---------------dance-single - ----------------
#NOTES:
     dance-single:
     ITG 11:
     Medium:
     16:
     0.751079,1.022817,0.037025,0.194381,0.476697,568.000000,564.000000,4.000000,21.000000,4.000000,0.000000,0.751079,1.022817,0.037025,0.194381,0.476697,568.000000,564.000000,4.000000,21.000000,4.000000,0.000000:
0000
0000
0000
0000
,
1000
0001
0100
0010
,
0100
0000
0001
1000
0000
0001
0000
0010
,
0100
1000
0100
0001
,
0100
0000
0000
0010
0000
0000
0001
0000
0000
0000
1000
0000
0002
0000
0000
0000
,
0103
0001
0100
0001
1000
0100
1000
0100
,
0010
0001
0010
0001
1000
0010
0100
0001
,
1000
0001
1000
0001
0100
0001
0100
0001
1000
0100
1000
0100
0010
0100
0010
0001
,
0040
0000
0000
0000
,
M030
0000
0000
0000
0000
0000
0000
0000
0001
0001
0010
1000
0010
0001
1000
0010
,
010M
0010
0100
0000
0010
1000
0000
0010
,
0100
0000
0001
1000
0000
0001
0100
0000
,
0001
0100
0010
0000
1000
0000
0001
0000
,
0010
0001
0000
0010
0000
0100
1000
0100
,
0010
0001
0010
0000
0001
1000
0000
0010
,
0100
0000
0010
1000
0000
0001
0010
0000
,
0001
0010
0001
0010
0001
1000
0001
1000
,
0000
0010
1000
0000
0010
0000
0100
0000
,
0001
0100
0010
0000
0100
0001
0000
0100
,
0010
0000
1000
0001
0000
1000
0010
0000
,
1000
0010
0100
0000
0001
0000
1000
0000
,
0100
1000
0000
0100
0000
0010
0001
0010
,
0100
1000
0100
0000
1000
0001
0000
0100
,
0010
0000
0100
0001
0000
1000
0100
0000
,
1000
0100
1000
0100
1000
0001
1000
0001
,
0000
0100
0001
0000
0100
0000
0010
0000
,
1000
0000
0010
0000
0100
0000
0010
0000
0001
0000
0010
0000
0100
0000
0001
0100
,
0020
0000
0030
2000
0000
0000
3000
0000
,
1100
0000
0100
0000
0010
0000
0100
0000
0001
0000
0100
0000
0010
0000
0001
1000
,
0020
0000
0000
2030
0000
0000
3000
0000
,
0101
0000
0100
0000
0010
0000
0100
0000
1000
0000
0100
0000
0010
0000
1000
0001
,
0200
0000
0000
0000
0000
0000
0302
0000
0000
0000
0000
0000
0003
0000
1000
0100
,
0020
0000
0000
0000
0030
0000
0100
0010
0002
0003
1000
0001
0200
0300
0010
1000
,
0002
0000
0000
0000
,
0103
0010
0100
0001
1000
0100
0001
1000
,
0010
0001
1000
0001
0100
1000
0001
0010
,
1000
0010
1000
0000
0001
0010
0000
0001
,
0100
0010
0000
1000
0000
0001
0010
0100
,
0000
0010
0000
0001
1000
0000
0010
0100
,
0010
1000
0000
0001
0000
0010
0100
0010
,
0001
0010
0100
0001
0100
0010
1000
0001
,
0100
0010
0001
1000
0010
0001
1000
0100
,
0001
0100
0001
0000
1000
0100
0000
1000
,
0010
0100
0000
0001
0000
1000
0100
0010
,
0000
0100
0000
1000
0001
0000
0100
0010
,
0100
0001
0000
1000
0000
0100
0001
0100
,
2000
0000
0000
0000
,
0000
0000
0000
3000
,
0001
0000
0000
0000
0000
1000
0010
0000
0100
0000
0000
0001
1000
0000
0100
0000
1000
0000
0000
0000
0000
1000
0100
0000
0010
0000
0001
0000
1000
0000
0001
0000
,
0100
0000
0000
0000
0000
0010
1000
0000
0000
0001
0000
1000
0010
0000
0100
0000
0001
0000
0000
0000
0000
0000
0100
0000
0010
0000
0000
0000
0000
0000
0100
0000
,
0001
0000
0100
0000
0001
0000
0100
0000
0010
0100
0001
0100
0010
0000
0000
0000
,
1000
0010
0100
0010
1000
0000
0001
0000
1000
0001
1000
0000
0100
0000
0010
0000
,
0100
0000
0010
0000
0001
0000
1000
0000
0010
0100
0001
1000
0010
0000
0000
0000
,
0100
0001
1000
0010
0100
0000
0010
0000
1000
0001
1000
0100
0010
0100
1000
0000
,
0001
0000
1000
0100
0010
0000
0001
1000
0010
0100
0000
0010
0000
0100
0001
1000
,
0100
0000
0010
0000
0100
0010
0000
0001
0010
0000
0001
1000
0000
0001
0100
0010
,
1000
0000
0010
0100
0001
0000
1000
0001
1000
0001
0000
0010
0000
0100
0010
0001
,
0010
0000
0001
0000
1000
0010
0000
1000
0000
0010
0100
0000
0010
1000
0000
0010
,
1000
0000
0001
0010
0100
0000
1000
0100
0010
0001
0000
1000
0000
0001
1000
0010
,
0100
0000
0010
0000
1000
0010
0000
0100
0001
0000
0100
0001
0000
1000
0100
1000
,
0100
0000
0010
0001
1000
0000
0001
0010
0100
0010
0000
0001
0000
1000
0001
1000
,
0010
0000
1000
0000
0010
0100
0000
0001
0000
0100
0010
0000
1000
0010
0000
1000
,
0001
0100
0001
1000
0100
1000
0001
0100
,
0001
1000
0100
0010
0001
1000
0010
0100
,
0010
0100
0010
0100
0010
0100
0001
0100
0001
1000
0001
1000
0001
1000
0100
1000
,
0400
0000
0300
0000
,
2200
0000
0000
0000
0000
0000
3300
0000
1000
1000
0100
0010
0001
1000
0010
0100
,
0001
0000
0100
0001
1000
0000
0001
1000
,
0100
1000
0000
0001
0000
1000
0001
0010
,
0100
0000
1000
0000
0001
1000
0000
0010
,
0100
0000
0001
1000
0000
0010
0100
0010
,
1000
0000
0001
0100
0010
0000
1000
0010
,
0100
0001
0000
1000
0000
0100
0010
0001
,
0010
0000
0100
0000
0010
0001
0000
1000
,
0000
0001
0010
0000
0100
1000
0000
0001
,
1000
0000
0001
0010
0100
0000
0010
0001
,
1000
0010
0000
0100
0000
0010
0100
0001
,
1000
0000
0100
0000
0010
0001
1000
0010
,
0000
0010
0100
0000
0001
0000
1000
0000
,
0002
0003
0010
0100
2000
3000
0010
0100
,
0002
0003
0010
0100
2000
3000
0010
0100
,
0002
0003
0010
0000
0001
1000
0000
0010
,
0000
0100
0001
1000
0010
0100
0001
0100
,
2002
0000
0000
0000
,
0000
0000
0003
0000
3000
00M0
0000
0000
,
0M00
0000
0000
0000
;

//---------------dance-single - ----------------
#NOTES:
     dance-single:
     Mozata's vision:
     Hard:
     18:
     0.985130,1.455547,0.342482,0.185125,0.712732,745.000000,708.000000,37.000000,20.000000,2.000000,1.000000,0.985130,1.455547,0.342482,0.185125,0.712732,745.000000,708.000000,37.000000,20.000000,2.000000,1.000000:
// measure 0
0000
0000
0000
0000
,  // measure 1
1001
0000
0000
0000
,  // measure 2
1010
0000
0000
1001
0000
0101
0000
0000
,  // measure 3
1001
0000
0000
0000
,  // measure 4
0011
0000
0000
0101
0000
0000
0110
0000
0000
0000
1010
0000
2000
0000
3000
0000
,  // measure 5
0001
0100
0001
0100
0010
0100
0010
0100
,  // measure 6
0010
1000
0010
1000
0100
1000
0100
0010
,  // measure 7
0001
0100
0001
0100
0001
1000
0001
1000
0010
1000
0010
1000
0010
0100
0010
0100
,  // measure 8
0001
0000
0000
1000
0000
0000
0010
0000
0000
1000
0000
0000
0100
0000
0000
0010
0000
0000
0100
0000
0000
1000
0000
0000
0010
0000
0000
0100
0000
0000
0001
0000
0000
0010
0000
0000
0001
0000
0010
0000
0001
0000
0010
0000
0001
0000
0010
0000
,  // measure 9
0200
0000
0000
0000
0300
0000
0000
0000
1000
0010
0000
1000
0000
0001
0010
0001
1000
0000
0100
0000
1000
0000
0001
0100
0010
1000
0000
0001
0100
0000
0110
0000
,  // measure 10
0001
0010
0001
0010
0001
1000
0100
1000
,  // measure 11
0010
0100
0001
1000
0000
0010
0100
0010
,  // measure 12
1000
0010
1000
0100
1000
0001
0100
0001
,  // measure 13
0010
0100
0010
0001
0000
1000
0010
0100
,  // measure 14
0001
0100
0010
0100
0010
1000
0100
0010
,  // measure 15
0100
1000
0001
1000
0000
0001
0100
0010
,  // measure 16
1000
0100
0001
0100
1000
0100
0000
0110
,  // measure 17
0000
0010
0001
0010
1000
0010
0100
1000
,  // measure 18
0001
0010
0100
0010
0100
0010
1000
0010
,  // measure 19
0001
1000
0001
0000
0010
0000
0001
0000
0000
0000
1000
0000
0100
0000
0010
0000
,  // measure 20
0001
0010
0001
0100
0001
0100
1000
0100
,  // measure 21
0001
1000
0001
0000
1000
0000
0001
0000
0000
0000
1000
0000
0100
0000
1000
0000
,  // measure 22
0010
1000
0001
1000
0001
0010
0100
0010
,  // measure 23
0001
1000
0001
0000
0100
0000
0010
0000
0000
0000
1000
0000
0100
0000
0001
0000
,  // measure 24
0100
1000
0010
0001
0010
0100
0000
0110
,  // measure 25
0000
1000
0100
0010
0001
0100
0010
1000
,  // measure 26
0001
0000
0200
0000
1300
0000
0200
0000
0310
0000
0200
0000
0301
0000
1000
0100
,  // measure 27
0010
0001
1000
0001
0100
0010
0100
0001
,  // measure 28
1000
0000
0100
0000
0001
0000
0100
0000
0010
0000
1000
0000
0010
0000
0001
0100
,  // measure 29
0010
0000
1000
0000
1010
0000
1000
0010
0000
M010
0001
0000
0011
0000
0001
0000
,  // measure 30
1000
0000
0200
0000
0310
0000
0200
0000
0301
0000
0200
0000
1300
0000
0001
0100
,  // measure 31
0010
0000
0100
0000
0001
0000
0010
0000
0100
0000
0001
0000
0100
0000
1000
0100
,  // measure 32
1000
0000
0000
0000
0010
0000
0000
0000
0100
0000
0001
0000
0100
0000
0001
0000
0010
0000
0000
0000
001M
0000
0000
0000
1000
0100
0000
0000
1000
0100
0000
0000
,  // measure 33
0010
0000
0001
0010
0100
0000
0010
0001
1000
0000
0010
1000
0100
0000
1000
0010
,  // measure 34
0100
0000
0001
0000
1000
0000
0001
0000
1000
0100
0010
0001
2000
0000
3100
0000
,  // measure 35
0010
0100
1000
0001
0200
0000
0310
0000
0001
0010
1000
0100
0020
0000
0031
0000
,  // measure 36
1000
0100
0010
0100
0010
0100
1000
0001
,  // measure 37
1000
0001
1000
0000
0100
0000
1000
0000
0000
0000
0010
0000
0100
0000
0001
0000
,  // measure 38
0010
0001
1000
0001
1000
0001
0100
0010
,  // measure 39
1000
0001
1000
0000
0100
0000
0010
0000
0000
0000
0100
0000
1000
0000
0001
0000
,  // measure 40
0010
0000
0100
0000
0010
0000
0001
0000
0100
1000
0100
0001
0020
0000
0130
0000
,  // measure 41
0010
1000
0010
0001
0200
0000
0310
0000
0010
1000
0100
0010
0001
0100
0001
0010
,  // measure 42
0100
1000
0001
1000
0001
1000
0010
0100
,  // measure 43
0001
1000
0001
0000
0010
0000
0001
0000
0000
0000
1000
0000
0010
0000
1000
0000
,  // measure 44
0100
1000
0010
1000
0010
0100
0001
0100
,  // measure 45
0010
0100
0001
0000
0010
0000
0001
0000
0000
0000
1000
0000
0100
0000
0010
0000
,  // measure 46
2002
0000
0000
0000
,  // measure 47
0000
0000
0000
0000
,  // measure 48
3003
0000
0000
0000
,  // measure 49
0000
0000
0000
0000
,  // measure 50
1000
0000
0010
0000
0100
0000
0010
0000
1000
0100
0010
0001
0200
0000
0310
0000
,  // measure 51
1000
0100
0001
0100
0020
0000
0130
0000
0001
0100
1000
0010
0200
0000
0301
0000
,  // measure 52
0101
0000
0010
0000
1000
0000
0001
0000
0011
0010
0100
1000
0001
0000
0100
0000
,  // measure 53
1010
0000
0000
0010
0000
0000
0100
0000
0000
0001
0000
0000
1001
0000
0000
0000
0000
0000
1000
0000
0000
0000
0000
0000
0110
0000
0000
0010
0000
0000
0001
0000
0000
1000
0000
0000
0100
0000
0010
0000
0001
0000
0100
0000
0010
0000
1000
0000
,  // measure 54
0100
0000
0000
1000
0100
0000
1000
0100
0010
0100
0000
1000
0000
0001
0100
0010
,  // measure 55
1000
0000
0001
0000
0010
0100
0000
1000
0100
0000
0001
0100
0000
1000
0100
0010
,  // measure 56
0011
0000
0001
0100
0010
0000
0100
0001
0010
0100
0000
0010
0000
1000
0010
0001
,  // measure 57
1100
0000
0010
0000
0101
0010
0000
1010
0000
0001
0010
0000
0001
0100
0010
0100
,  // measure 58
0001
0000
0000
1000
0100
0000
1000
0100
0010
0100
0000
1000
0000
0001
1000
0001
,  // measure 59
0010
0000
0100
0000
0010
0001
0000
1000
0001
0000
1000
0001
0000
0100
1000
0100
,  // measure 60
1010
0000
0000
0100
0010
0000
1000
0100
0110
0010
0000
0001
0000
1000
0010
1000
,  // measure 61
1010
0000
0100
1001
0000
0100
1001
0010
0000
0010
1001
0000
0001
0010
0100
0010
,  // measure 62
0001
1000
0001
1000
0001
0100
0001
0100
,  // measure 63
0010
0100
0010
0100
0010
1000
0010
1000
,  // measure 64
0100
0010
0100
0001
0100
0010
0100
1000
0010
0100
0010
0001
0010
0100
0010
1000
,  // measure 65
0100
0001
1000
0010
0001
1000
0100
0010
1000
0001
0100
1000
0001
0100
0010
1000
,  // measure 66
0200
0000
0000
0000
0300
0000
0000
0000
1000
0010
0000
1000
0000
0001
0010
0001
1000
0000
1000
0000
1000
0000
1000
0000
0440
0000
0000
0000
0334
0000
4003
0000
,  // measure 67
3001
0010
0001
0010
0001
1000
0010
0001
,  // measure 68
0010
0100
0001
1000
0000
0001
0100
0010
,  // measure 69
1000
0100
1000
0010
0100
0001
1000
0100
,  // measure 70
0010
1000
0010
0001
1000
0001
0100
0010
,  // measure 71
1000
0010
1000
0010
1000
0001
0010
1000
,  // measure 72
0010
0100
1000
0100
0000
1000
0001
0100
,  // measure 73
0010
1000
0010
0100
0001
1000
0001
0010
,  // measure 74
0001
0100
1000
0001
0010
1000
0100
0010
,  // measure 75
0001
0100
0001
0100
0001
0010
1000
0010
,  // measure 76
0100
0010
0001
0100
0000
0010
1000
0100
,  // measure 77
0010
0100
0010
0001
1000
0010
0000
0110
,  // measure 78
0000
0011
0001
1000
0010
1000
0001
1000
,  // measure 79
0110
0000
1000
0100
0110
0000
0001
0100
,  // measure 80
0110
0000
1000
0100
0110
0000
0001
0100
,  // measure 81
0010
0001
0010
1000
0100
0001
0100
0010
,  // measure 82
1000
0000
0000
0010
0000
0000
0001
0000
0000
1000
0000
0000
0010
0000
0100
0000
0001
0000
1000
0000
0010
0000
0100
0000
,  // measure 83
0002
0000
0000
0000
,  // measure 84
0000
0000
0000
0000
,  // measure 85
0003
0000
0000
0000
;

//---------------dance-single - ----------------
#NOTES:
     dance-single:
     :
     Beginner:
     9:
     0.371573,0.550747,0.175869,0.222150,0.013884,281.000000,262.000000,19.000000,24.000000,0.000000,0.000000,0.371573,0.550747,0.175869,0.222150,0.013884,281.000000,262.000000,19.000000,24.000000,0.000000,0.000000:
0000
0000
0000
0000
,
1001
0000
0000
0000
,
1001
0000
0000
0110
0000
1001
0000
0000
,
0110
0000
0000
0000
,
0001
0000
0000
0001
0000
0000
1000
0000
0000
0000
1000
0000
0200
0300
0000
0000
,
1000
1000
0100
0100
,
0010
0010
0100
0100
,
1000
0001
0010
0001
,
0100
0010
1000
0001
,
0200
0000
0300
0000
,
0001
0010
0001
1000
,
0100
1000
0001
0000
,
1000
0010
1000
0100
,
0010
0001
1000
0000
,
0001
0100
0001
0100
,
0010
1000
0001
0000
,
1000
0000
0100
0000
0010
0000
0000
0110
,
0000
0100
1000
0000
,
0001
0100
0010
1000
,
0100
1000
0010
0000
,
1000
0001
0100
0001
,
1000
0010
1000
0000
,
0100
1000
0001
0010
,
0100
0010
0001
0000
,
1000
0000
0010
0000
0100
0000
0000
0110
,
0000
0100
0001
0000
,
2000
3000
0020
0030
2000
3000
0020
0030
,
0200
0300
0002
0003
0200
0300
0020
0030
,
1000
0100
0010
0001
,
0100
0000
0000
0000
0001
0000
0000
1000
0000
0000
0001
0000
0100
0000
0000
0000
,
0010
1000
0010
1000
,
0100
0010
0100
0010
,
0001
0100
0001
0100
,
0020
0000
0000
0030
,
1000
1000
1000
1000
,
1000
1000
1000
0200
,
0310
0001
1000
0001
,
0010
0000
0100
0000
,
1000
0001
1000
0100
,
1000
0000
0001
0000
,
0100
0100
0100
0100
,
0100
0100
0100
0020
,
1030
0001
0010
0001
,
1000
0000
0100
0000
,
0010
0001
1000
0100
,
1000
0000
0010
0000
,
0220
0000
0000
0000
,
0000
0000
0000
0000
,
0330
0000
0000
0000
,
0000
0000
0000
0000
,
2000
0000
3200
0000
,
0320
0000
0230
0000
,
0320
0000
0032
0000
,
0103
0100
0010
0010
,
1000
1000
0010
1000
,
0010
0100
0001
0100
,
0001
0001
0010
0001
,
0011
0110
1100
0000
,
1000
0001
0010
0001
,
1000
0100
1000
0001
,
1000
1000
0010
1000
,
0001
0000
0000
0001
0000
0000
0100
0000
0000
0000
0100
0000
0000
0000
0000
0000
,
0020
0000
0000
0000
,
0030
0000
0000
0000
,
1000
0010
0100
0001
,
1000
0001
1000
0001
1000
0001
1000
0000
,
1001
0000
0000
0000
0001
0001
0100
0100
,
0001
0100
0001
0100
,
0010
1000
0010
0000
,
1000
0001
0010
0001
,
1000
0100
1000
0000
,
0010
0100
0001
0100
,
0010
1000
0010
0000
,
1000
0001
0010
0100
,
1000
0100
0010
0000
,
0001
0010
0001
1000
,
0010
1000
0001
0000
,
1000
0000
0010
0000
0100
0000
0000
0110
,
0000
0010
1000
0000
,
1001
0000
0110
0000
,
1001
0000
0110
0000
,
1001
0000
0001
0010
,
0100
1000
0001
0000
,
2002
0000
0000
0000
,
0000
0000
0000
0000
,
3003
0000
0000
0000
;

//---------------dance-single - ----------------
#NOTES:
     dance-single:
     :
     Easy:
     12:
     0.522317,0.747443,0.268432,0.212894,0.083306,395.000000,366.000000,29.000000,23.000000,0.000000,0.000000,0.522317,0.747443,0.268432,0.212894,0.083306,395.000000,366.000000,29.000000,23.000000,0.000000,0.000000:
0000
0000
0000
0000
,
1010
0100
0100
0100
,
1010
0000
0100
0001
0000
1000
0000
0000
,
0011
0100
0100
0100
,
0011
0000
0000
1000
0000
0000
1010
0000
0000
0000
0010
0000
0200
0000
0300
0000
,
0001
0001
0100
0100
,
0010
0010
1000
1000
,
0100
1000
0100
1000
0001
1000
0001
1000
,
0001
0010
0001
0010
0100
0010
0100
1000
,
0002
0000
0000
0000
1003
0010
0200
0300
,
0001
0010
0100
0010
,
0001
0000
0000
1000
0000
0000
0001
0000
,
0100
0010
1000
0010
,
0100
0000
0000
0001
0000
0000
1000
0000
,
0100
1000
0010
0100
,
0001
0000
0000
0010
0000
0000
0001
0000
,
0100
0000
1000
0000
0100
0000
0000
0001
,
0000
1000
0001
0010
,
0001
1000
0100
1000
,
0001
1000
0000
0010
0000
0000
0100
0000
,
0001
1000
0001
0010
,
0100
0010
0000
0001
0000
0000
0100
0000
,
0010
1000
0010
0100
,
0001
1000
0000
0010
0000
0000
1000
0000
,
0100
0000
0010
0000
0001
0000
0000
0011
,
0000
0010
0100
1000
,
0001
0100
0010
0100
0001
0100
0010
1000
,
0002
0000
0003
2000
0000
0000
0000
3000
,
1001
1000
0100
0010
0100
1000
0100
0010
,
0002
0000
0003
0200
0000
0000
0000
0300
,
1001
0001
0100
0010
1000
0100
0001
0100
,
2000
0000
3000
0020
0000
0000
0030
0100
,
0020
0000
0030
0100
0001
0100
1000
0100
,
0020
0000
0000
0000
,
1030
0000
1000
0000
0010
1000
0100
0000
,
1000
0001
0100
0000
0001
1000
0100
0000
,
1000
0001
0010
0001
,
0100
0010
0000
1000
0000
0000
0001
0000
,
1000
0010
1000
0100
,
0010
0001
0000
1000
0000
0000
0001
0000
,
0010
0000
0010
0000
0001
0010
0100
0000
,
0010
0001
0100
0000
0010
1000
0100
0000
,
0010
0100
1000
0001
,
0100
0001
0000
1000
0000
0000
0001
0000
,
0100
1000
0100
0001
,
0100
0001
0000
0010
0000
0000
0100
0000
,
2000
0000
0000
0000
,
0000
0000
0000
0000
,
3010
0000
0000
1000
0000
0000
0010
1000
0100
0000
0000
0010
0000
0000
0001
0010
,
0100
0000
0000
1000
0000
0001
0100
0010
2000
3000
2000
3000
0200
0300
0200
0300
,
0110
0000
0010
0000
0001
0010
0100
0000
,
0001
0100
1000
0000
0010
0100
0001
0000
,
1001
0000
0001
0000
1100
1000
0100
0000
,
0110
0100
1000
0100
0110
0010
0002
0000
,
1003
0000
0000
0001
1000
0000
0000
0000
0010
0000
1000
0000
0001
0000
0000
0000
,
0010
0000
0001
0000
0100
0000
0010
0000
1000
0000
0000
0100
0000
0000
1000
0000
,
0001
0000
0000
0100
0001
0000
0000
0000
0010
0000
0001
0000
0100
0000
0000
0000
,
1010
0000
0000
0000
0011
0000
0000
1001
0000
0000
1100
0000
0000
0000
0000
0000
,
1000
0000
0000
0100
1000
0000
0000
0000
0010
0000
0100
0000
0001
0000
0000
0000
,
1000
0000
0100
0000
0010
0000
0100
0000
0010
0000
0000
1000
0000
0000
0010
0000
,
0001
0000
0000
1000
0001
0000
0000
0000
1010
0000
0010
0000
0100
0000
0000
0000
,
0101
0000
0000
0110
0000
0000
1100
0000
0000
0000
0110
0000
0000
0000
0000
0000
,
0002
0000
0000
0000
,
0003
0000
0000
0000
,
1000
0100
1000
0100
0010
0100
0010
0001
,
1000
0010
0100
0010
0100
0001
0010
0001
,
0200
0000
0000
0000
0000
0000
0000
0000
0301
0010
0001
0100
0020
0000
0030
0000
,
1000
0001
1000
0000
0010
0000
0100
0000
,
0001
1000
0000
0001
0000
0000
0100
0000
,
0010
1000
0010
0100
,
0001
0000
0000
0010
0000
0000
0001
0000
,
1000
0100
1000
0000
0001
0000
0100
0000
,
0001
0010
0000
0001
0000
0000
0100
0000
,
1000
0100
0001
0010
,
1000
0010
0001
0000
,
1000
0001
1000
0000
0010
0000
0100
0000
,
0001
1000
0000
0100
0000
0000
1000
0000
,
0001
0000
0100
0000
0001
0000
0000
0011
,
0000
0001
1000
0100
,
1100
0000
1010
0000
,
0011
0000
0101
0000
,
0110
0000
0010
0000
1000
0000
0000
0001
,
0000
0100
0001
0000
0020
0000
0030
0000
,
2002
0000
0000
0000
,
0000
0000
0000
0000
,
3003
0000
0000
0000
;
