#TITLE:Soulless 5;
#SUBTITLE:;
#ARTIST:Exilelord;
#TITLETRANSLIT:;
#SUBTITLETRANSLIT:;
#ARTISTTRANSLIT:;
#GENRE:;
#CREDIT:;
#BANNER:soulless5-bn.png;
#BACKGROUND:soulless5-bg.png;
#LYRICSPATH:;
#CDTITLE:;
#MUSIC:soulless5.ogg;
#OFFSET:0.000000;
#SAMPLESTART:44.273632;
#SAMPLELENGTH:12.000000;
#SELECTABLE:YES;
#BPMS:0.000000=130.100006
,4.000000=130.000000
;
#STOPS:
;
#BGCHANGES:;
#KEYSOUNDS:;
#ATTACKS:;

//---------------dance-single - ----------------
#NOTES:
     dance-single:
     :
     Challenge:
     11:
     0.955769,1.617499,0.766443,0.484069,1.305117,6800.000000,5879.000000,779.000000,492.000000,668.000000,309.000000,0.955769,1.617499,0.766443,0.484069,1.305117,6800.000000,5879.000000,779.000000,492.000000,668.000000,309.000000:
// measure 0
0000
0000
0000
0000
,  // measure 1
0000
0000
0000
0000
,  // measure 2
0000
0000
0000
0000
,  // measure 3
0000
0000
0000
0000
,  // measure 4
0000
0000
0000
0000
,  // measure 5
0000
0000
0000
0000
,  // measure 6
0000
0000
0000
0000
,  // measure 7
0000
0000
0000
0000
,  // measure 8
0001
1000
0100
1000
0001
1000
0100
1000
0010
0100
0001
1000
0001
1000
0100
1000
,  // measure 9
0001
1000
0100
1000
0010
1000
0100
1000
0010
0100
0001
1000
0100
0010
0001
1000
,  // measure 10
0001
1000
0100
1000
0001
1000
0100
1000
0010
0100
0001
1000
0010
1000
0001
1000
,  // measure 11
0010
1000
0001
1000
0010
1000
0010
1000
0001
1000
0100
1000
0001
1000
0100
0010
,  // measure 12
0001
1000
0100
1000
0001
1000
0100
1000
0010
1000
0010
1000
0001
1000
0100
1000
,  // measure 13
0010
1000
0100
1000
0001
1000
0100
1000
0010
1000
0010
1000
0001
1000
0100
1000
,  // measure 14
0010
1000
0100
1000
0001
1000
0100
1000
0001
1000
0001
1000
0010
1000
0100
1000
,  // measure 15
0001
0100
0010
1000
0001
0010
0100
1000
0001
0100
0010
1000
0001
0010
0100
1000
,  // measure 16
0001
1000
0100
1000
0001
1000
0100
1000
0010
0010
0100
0100
0001
0001
0100
0001
,  // measure 17
1000
0001
0100
0001
0010
0001
0100
0001
1010
0001
1000
0001
1100
0001
1000
0001
,  // measure 18
0010
0000
0000
0001
0000
0000
0100
0000
0000
0001
0000
0000
1000
0000
0000
0001
0000
0000
0100
0000
0000
0001
0000
0000
1000
0000
0100
0000
0010
0000
0100
0000
0010
0000
0001
0000
1000
0000
0000
0001
0000
0000
0100
0000
0000
0001
0000
0000
,  // measure 19
1000
0001
0100
0001
0010
0001
0100
0001
0010
0010
0100
0100
1000
1000
0001
0001
,  // measure 20
1000
0001
0100
0001
1000
0001
0100
0001
0010
001M
1000
0100
1000
0100
0010
0001
,  // measure 21
1000
0001
0100
0001
1000
0001
0100
0001
0010
001M
1000
1000
0001
0001
0100
0100
,  // measure 22
0001
1000
0100
1000
0001
1000
0100
1000
0010
M010
0001
0001
1000
1000
0001
0100
,  // measure 23
1010
0100
0011
0100
1010
0100
0011
0100
0101
0010
1100
0010
0101
0010
1100
0010
,  // measure 24
0001
1000
0100
1000
0001
1000
0100
1000
0001
1000
0100
1000
0001
1000
0100
1000
,  // measure 25
0010
1000
0001
1000
0010
1000
0001
1000
0010
1000
0100
1000
0010
1000
0100
1000
,  // measure 26
0001
1000
0010
1000
0001
1000
0010
1000
0010
1000
0100
1000
0010
1000
0100
1000
,  // measure 27
0010
1000
0100
1000
0010
1000
0001
1000
0200
0000
0000
0300
0100
0000
0000
0000
,  // measure 28
1000
0001
0100
0001
1000
0001
0100
0001
1000
0001
0100
0001
1000
0001
0100
0001
,  // measure 29
0010
0001
1000
0001
0010
0001
1000
0001
0010
0001
0100
0001
0010
0001
0100
0001
,  // measure 30
0010
0001
1000
0001
0010
0001
1000
0001
0010
0001
0100
0001
0010
0001
0100
0001
,  // measure 31
0010
0001
0100
0001
1000
0001
0010
0001
0200
0000
0000
0300
0100
0000
0000
0000
,  // measure 32
0010
0100
0001
0100
0010
0100
0001
0100
0010
0100
1000
0100
0010
0100
1000
0100
,  // measure 33
1000
0100
0010
0100
1000
0100
0010
0100
1000
0100
0001
0100
1000
0100
0001
0100
,  // measure 34
0010
0100
1000
0100
0010
0100
1000
0100
0010
0100
0001
0100
0010
0100
0001
0100
,  // measure 35
0010
0100
1000
0100
0010
0100
0001
0100
0002
0000
0000
0003
0001
0000
0000
0000
,  // measure 36
0010
0100
1000
0100
0010
0100
1000
0100
0010
0100
0001
0100
0010
0100
0001
0100
,  // measure 37
0001
0100
0010
0100
0001
0100
0010
0100
0010
0100
1000
0100
0010
0100
1000
0100
,  // measure 38
0001
0100
1000
0100
0001
0100
1000
0100
0010
0100
1000
0100
0010
0100
1000
0100
,  // measure 39
0010
0100
1000
0100
0010
0100
0001
0100
2000
0000
0000
3000
1000
0000
0000
0000
,  // measure 40
0001
0100
0010
0001
0010
0100
0001
0100
0010
0001
0010
0100
0001
0100
0010
0001
0010
0100
0001
0100
0010
0001
0010
0100
,  // measure 41
0010
1000
0100
0010
0100
1000
0010
1000
0100
0020
0000
0000
0230
0000
0000
0000
0000
0000
0000
0000
0000
0000
0000
0000
,  // measure 42
0310
0001
0100
0010
0100
0001
0010
0001
0100
0020
0000
0000
2030
0000
0000
0000
0000
0000
0000
0000
0000
0000
0000
0000
,  // measure 43
3001
1000
0100
0001
0100
1000
0001
1000
0100
0020
0000
0000
0032
0000
0000
0000
0000
0000
0000
0000
0000
0000
0000
0000
,  // measure 44
1003
0100
0010
1000
0010
0100
1000
0100
0010
1000
0010
0100
1000
0100
0010
1000
0010
0100
1000
0100
0010
1000
0010
0100
,  // measure 45
0010
0100
0001
0010
0001
0100
0010
0100
0001
0020
0000
0000
0230
0000
0000
0000
0000
0000
0000
0000
0000
0000
0000
0000
,  // measure 46
1300
0010
0100
1000
0100
0010
1000
0010
0100
0020
0000
0000
2030
0000
0000
0000
0000
0000
0000
0000
0000
0000
0000
0000
,  // measure 47
3001
1000
0100
0001
0100
1000
0001
1000
0100
0020
0000
0000
0032
0000
0000
0000
0000
0000
0000
0000
0000
0000
0000
0000
,  // measure 48
1003
0001
0100
0001
1000
0001
0100
0001
1000
0001
0100
0001
1000
0001
0100
0001
,  // measure 49
0010
0001
1000
0001
0010
0001
1000
0001
0010
0001
0100
0001
0010
0001
0100
0001
,  // measure 50
1000
0001
0010
0001
1000
0001
0010
0001
1000
0001
0100
0001
1000
0001
0100
0001
,  // measure 51
1000
0001
0100
0001
1000
0001
0010
0001
0200
0000
0000
0300
0100
0000
0000
0000
,  // measure 52
0001
1000
0100
1000
0001
1000
0100
1000
0001
1000
0100
1000
0001
1000
0100
1000
,  // measure 53
0010
1000
0001
1000
0010
1000
0001
1000
0010
1000
0100
1000
0010
1000
0100
1000
,  // measure 54
0001
1000
0010
1000
0001
1000
0010
1000
0001
1000
0100
1000
0001
1000
0100
1000
,  // measure 55
0001
1000
0100
1000
0001
1000
0010
1000
0002
0000
0000
0003
100M
0000
0000
0000
,  // measure 56
2210
0001
0010
0001
0000
0000
0010
0001
0010
0001
0000
0000
0010
0001
3300
0000
,  // measure 57
0010
0001
0010
0001
0000
0000
0010
0001
0010
0002
0000
0000
M1M3
0000
0000
0000
,  // measure 58
0212
1000
0010
1000
0000
0000
0010
1000
0010
1000
0000
0000
0010
1000
0303
0000
,  // measure 59
0010
1000
0010
1000
0000
0000
0010
1000
0001
0020
0000
0000
MM31
0000
0000
0000
,  // measure 60
0122
1000
0100
1000
0000
0000
0100
1000
0100
1000
0000
0000
0100
1000
0033
0000
,  // measure 61
0100
1000
0100
1000
0000
0000
0100
1000
0100
2000
0000
0000
3M1M
0000
0000
0000
,  // measure 62
2120
0001
0100
0001
0000
0000
0100
0001
0100
0001
0000
0000
0100
0001
3030
0000
,  // measure 63
0100
0001
0100
0001
0000
0000
1100
0001
1100
0001
0000
0000
20MM
0000
0000
0000
,  // measure 64
0011
0100
0011
0100
0000
0000
0011
0100
0011
0100
0000
0000
0011
0100
3000
0000
,  // measure 65
0011
1000
0011
1000
0000
0000
0011
1000
0011
1000
0000
0000
M2M0
0000
0000
0000
,  // measure 66
1010
0001
1010
0001
0000
0000
1010
0001
1010
0001
0000
0000
1010
0001
0300
0000
,  // measure 67
1010
0100
1010
0100
0000
0000
1010
0100
1010
0100
0000
0000
0M2M
0000
0000
0000
,  // measure 68
0101
1000
0101
1000
0000
0000
0101
1000
0101
1000
0000
0000
0101
1000
0030
0000
,  // measure 69
0101
0010
0101
0010
0000
0000
0101
0010
0101
0010
0000
0000
MM02
0000
0000
0000
,  // measure 70
1100
0010
1100
0010
0000
0000
1100
0010
1100
0010
0000
0000
1100
0010
0003
0000
,  // measure 71
1100
0001
1100
0001
0000
0000
1100
0001
1100
0001
0000
0000
0010
0001
1000
0000
,  // measure 72
M001
M001
M001
M001
M002
0000
0003
1000
0001
0010
1000
0001
0100
1000
0001
0010
,  // measure 73
01M0
01M0
01M0
01M0
02M0
0000
0300
0010
0001
0100
1000
0001
0010
1000
0001
0100
,  // measure 74
0M10
0M10
0M10
0M10
0M20
0000
0030
1000
0001
0010
1000
0001
0100
1000
0001
0010
,  // measure 75
01M0
01M0
01M0
01M0
02M0
0000
0300
1000
0010
0001
1000
0100
0001
1000
0100
0010
,  // measure 76
M001
M001
M001
M001
M002
0000
0003
0100
0001
0010
1000
0001
0100
0010
0001
0100
,  // measure 77
0M10
0M10
0M10
0M10
0M20
0000
0030
1000
0100
0001
1000
0010
0001
0100
1000
0001
,  // measure 78
0M10
0M10
0M10
0M10
0M20
0000
0030
1000
0001
0100
1000
0001
0010
1000
0100
0001
,  // measure 79
1000
0010
0001
0100
1000
0001
0010
1000
0100
0001
1000
0010
0001
1000
0100
0010
,  // measure 80
0001
1000
0010
1000
0001
0010
0001
1000
0010
M010
0001
1000
0010
M010
0001
1000
,  // measure 81
0100
1000
0001
0100
0001
0010
0100
1000
0001
0100
0010
1000
0001
0010
0100
1000
,  // measure 82
0100
1000
0010
0100
0001
0010
0001
1000
0010
M010
0001
0100
010M
1000
0001
1000
,  // measure 83
0010
0000
M010
0000
0001
0000
0100
0000
010M
0000
1000
0000
0001
0000
0010
0000
0100
0000
M100
0000
0001
0000
0010
0000
001M
0000
1000
0000
0001
0000
0100
0010
,  // measure 84
1000
0100
0010
0001
1000
0001
0010
0001
0010
001M
1000
0001
0010
001M
1000
0100
,  // measure 85
0010
0001
1000
0001
0100
0010
1000
0001
0100
010M
1000
0001
0100
010M
1000
0001
,  // measure 86
0100
0010
1000
0001
1000
0100
0010
0001
0010
001M
1000
0010
M010
0001
1000
0001
,  // measure 87
0100
010M
1000
0100
M100
0001
1000
0010
0100
010M
1000
0010
M010
0000
0001
0000
,  // measure 88
01M0
01M0
01M0
01M0
02M0
0000
0300
0001
0010
1000
0001
0100
1000
0001
0010
0100
,  // measure 89
100M
100M
100M
100M
200M
0000
3000
0010
0001
1000
0100
0001
0010
1000
0001
0100
,  // measure 90
100M
100M
100M
100M
200M
0000
3000
0100
0001
1000
0010
0001
0100
1000
0001
0010
,  // measure 91
01M0
01M0
01M0
01M0
02M0
0000
0300
0001
0010
0100
1000
0001
0010
0100
1000
0001
,  // measure 92
1000
0000
0000
0000
0001
0010
0001
0000
0100
0000
0000
0000
0001
0010
0001
0000
1000
0000
0000
0000
0001
0010
0001
0000
0100
0000
0000
0000
0001
0000
0000
0000
,  // measure 93
0100
0000
0001
0000
1000
0000
0010
0000
2200
0000
0000
3300
0202
0000
1303
0000
,  // measure 94
0001
0000
0000
0000
1000
0010
1000
0000
0100
0000
0000
0000
1000
0010
1000
0000
0001
0000
0000
0000
1000
0000
0000
0000
0200
0000
0000
0000
0000
0000
0000
0000
,  // measure 95
0310
0000
0000
0000
0001
1000
0001
0000
0100
0000
0000
0000
0001
1000
0001
0000
0010
0000
0000
0000
0001
1000
0001
0000
1000
0001
1000
0000
0001
1000
0001
0000
,  // measure 96
0010
0000
0000
0000
0100
0010
0100
0000
1000
0000
0000
0000
0100
0010
0100
0000
0010
0000
0000
0000
0100
0010
0100
0000
1000
0000
0000
0000
0100
0000
0000
0000
,  // measure 97
0010
0000
0001
0000
1000
0000
0001
0000
2020
0000
0000
3030
0022
0000
1033
0000
,  // measure 98
0001
0000
0000
0000
0100
0010
0100
0000
0010
0000
0000
0000
0100
0010
0100
0000
0001
0000
0000
0000
0100
0000
0000
0000
0020
0000
0000
0000
0000
0000
0000
0000
,  // measure 99
1030
0000
0000
0000
0001
1000
0001
0000
0100
0000
0000
0000
0001
1000
0001
0000
0010
0000
0000
0000
0001
1000
0001
0000
1000
0000
0000
0000
0001
0000
0000
0000
,  // measure 100
2M20
3031
0000
0000
1000
0000
0000
0000
0M22
1033
0000
0000
0001
0000
0000
0000
22M0
3301
0000
0000
1000
0000
0000
0000
02M2
1303
0000
0000
0001
0000
0000
0000
,  // measure 101
2M20
3031
0000
0000
1000
0000
0000
0000
0M22
1033
0000
0000
0001
0000
0000
0000
22M0
3301
0000
0000
220M
3310
0000
0000
22M0
3301
0000
0000
2M20
3031
0000
0000
,  // measure 102
2M20
3031
0000
0000
1000
0000
0000
0000
0000
0000
0000
0000
02M2
1303
0000
0000
0M22
1033
0000
0000
0001
0000
0000
0000
22M0
3301
0000
0000
1000
0000
0000
0000
,  // measure 103
0M22
1033
0000
0000
0001
0000
0000
0000
2M20
3031
0000
0000
1000
0000
0000
0000
02M2
1303
0000
0000
0001
0000
0000
0000
22M0
3301
0000
0000
1000
0000
0000
0000
,  // measure 104
M022
0133
0000
0000
0010
0000
0000
0000
22M0
3301
0000
0000
1000
0000
0000
0000
M202
0313
0000
0000
0100
0000
0000
0000
2M20
3031
0000
0000
1000
0000
0000
0000
,  // measure 105
0M22
1033
0000
0000
0100
0000
0000
0000
2M20
3031
0000
0000
0100
0000
0000
0000
0M22
1033
0000
0000
02M2
1303
0000
0000
M202
0313
0000
0000
02M2
1303
0000
0000
,  // measure 106
0M22
1033
0000
0000
0010
0000
0000
0000
0000
0000
0000
0000
22M0
3301
0000
0000
220M
3310
0000
0000
1000
0000
0000
0000
0M22
1033
0000
0000
0001
0000
0000
0000
,  // measure 107
2M20
3031
0000
0000
0100
0000
0000
0000
0M22
1033
0000
0000
0100
0000
0000
0000
202M
3130
0000
0000
0010
0000
0000
0000
M002
0000
0000
0000
0000
0000
0000
0000
,  // measure 108
0013
0001
0100
0010
1000
0100
1000
0001
,  // measure 109
M1M1
M11M
1M1M
1MM1
11MM
M11M
MM11
1MM1
,  // measure 110
0100
0010
1000
0001
1000
0010
0100
0001
,  // measure 111
1000
0001
1000
0010
0100
0001
1000
0001
,  // measure 112
0010
0001
0100
0010
1000
0100
1000
0001
,  // measure 113
MM11
M11M
11MM
1MM1
1M1M
M11M
M1M1
1MM1
,  // measure 114
0100
0010
1000
0001
1000
0010
0100
0001
,  // measure 115
1000
0001
0100
0010
1000
0001
1000
0000
,  // measure 116
0001
0010
0100
1000
,  // measure 117
0001
0010
0100
1000
,  // measure 118
0001
0100
0010
1000
,  // measure 119
0001
0100
0010
1000
,  // measure 120
0001
0010
0100
1000
,  // measure 121
0001
0010
0100
1000
,  // measure 122
0001
0100
0010
1000
,  // measure 123
0001
0100
0010
1000
,  // measure 124
0001
0010
0100
1000
0001
0010
0100
1000
,  // measure 125
0001
0010
0100
1000
0010
1000
0001
0100
,  // measure 126
0010
1000
0001
0100
0010
1000
0001
0100
,  // measure 127
0010
1000
0001
0100
0001
1000
0100
0010
,  // measure 128
0001
0010
0100
1000
0001
0010
0100
1000
,  // measure 129
0001
0100
0010
1000
0010
0100
0001
0010
,  // measure 130
MMM2
0000
0000
0000
,  // measure 131
2MM3
0000
0000
0000
0000
0000
0000
0000
0MM0
0MM0
0MM0
0MM0
3MM0
0MM0
0MM0
0000
,  // measure 132
2012
0100
0010
0100
0010
0100
0010
0100
0010
0100
0010
0100
0010
0100
3013
0100
,  // measure 133
0010
0100
0010
0100
0010
0100
0010
0100
0010
1000
0010
1000
0001
0100
0001
0100
,  // measure 134
0012
1000
0010
1000
0010
1000
0013
1000
0010
1000
0010
1000
0010
1000
0010
1000
,  // measure 135
0102
0010
0100
0010
0100
0010
0103
0010
0100
0010
0100
0010
0100
0010
0100
0000
,  // measure 136
2010
0100
0010
0100
0010
0100
0010
0100
0010
0100
0010
0100
0010
0100
3010
0100
,  // measure 137
0010
0100
0010
0100
0010
0100
0010
0100
1000
0001
1000
0001
0100
0001
0100
0001
,  // measure 138
1200
0010
1000
0010
1000
0010
1300
0010
1000
0010
1000
0010
1000
0010
1000
0010
,  // measure 139
2100
0001
0100
0001
0100
0001
3100
0001
0100
0001
0100
0001
0100
0001
0100
0000
,  // measure 140
0020
0000
1030
0002
0000
1003
0020
0000
1030
0002
0000
1003
,  // measure 141
2200
3300
1000
0100
1000
0100
2200
3300
0100
2200
3300
0100
,  // measure 142
2000
0000
3001
0200
0000
0301
2000
0000
3001
0020
0000
0031
,  // measure 143
0001
0100
0001
0202
0303
0100
0202
0303
0001
2002
3003
1000
,  // measure 144
0200
0000
0310
0002
0000
0013
0200
0000
0310
0002
0000
1003
,  // measure 145
2020
3030
0010
1000
0010
1000
2020
3030
1000
2020
3030
0010
,  // measure 146
0200
0000
0301
2000
0000
3100
0020
0000
0031
0020
0000
0031
,  // measure 147
0000
0000
0000
0000
,  // measure 148
1001
L00L
1001
L00L
2002
0000
3003
0000
1001
L00L
1001
L00L
0220
0000
0330
0000
,  // measure 149
1001
L00L
1001
L00L
0110
0000
1000
0000
0001
0000
1000
0100
0010
0001
0010
0100
,  // measure 150
1000
L000
0110
0LL0
1001
L00L
1001
L00L
1001
L00L
0110
0LL0
1001
L00L
1001
L00L
,  // measure 151
1000
0100
1000
0100
1000
0000
M0M1
0000
0111
0000
0LLL
0000
1110
0000
LLL0
0000
,  // measure 152
0110
0LL0
0110
0LL0
0220
0000
0330
0000
0110
0LL0
0110
0LL0
2002
0000
3003
0000
,  // measure 153
1001
L00L
0110
0LL0
1001
0000
0001
0000
0100
0000
0010
1000
0100
0010
0001
1000
,  // measure 154
0001
0000
1001
L00L
0110
0LL0
0110
0LL0
0110
0LL0
1001
L00L
0110
0LL0
0110
0LL0
,  // measure 155
1000
0010
1000
0010
1000
0000
0010
0000
1101
0000
LL0L
0000
1011
0000
L0LL
0000
,  // measure 156
1000
0000
0010
0100
0001
0100
0010
0000
1000
0000
0001
1000
0000
0001
1000
0000
,  // measure 157
0001
0000
0010
0100
1000
0100
0010
0000
0001
0000
1000
0001
0000
1000
0001
0000
,  // measure 158
0010
0000
0100
1000
0001
1000
0100
0000
0010
0000
0001
1000
0100
1000
0001
0000
,  // measure 159
1000
0000
0010
1000
0001
1000
0010
0000
0100
0000
0001
0100
0000
0001
0100
0000
,  // measure 160
0001
0000
0100
0010
1000
0010
0100
0000
0001
0000
1000
0001
0000
1000
0001
0000
,  // measure 161
1000
0000
0100
0010
0001
0010
0100
0000
1000
0000
0001
1000
0000
0001
1000
0000
,  // measure 162
0010
0000
0100
0001
1000
0001
0100
0000
0010
0000
1000
0001
0100
0001
1000
0000
,  // measure 163
0100
0000
0010
0001
1000
0001
0010
0000
0100
0000
1000
0100
0000
0100
1000
0000
,  // measure 164
0001
0000
0010
0000
0100
0000
1000
0000
0010
0000
0100
0000
0001
0000
0010
0000
0100
0000
1000
0000
0010
0000
0100
0000
0001
0000
0000
0100
0000
0000
0010
0000
0000
1000
0000
0000
0100
0000
0000
0010
0000
0000
0001
0000
0000
1000
0000
0000
,  // measure 165
0010
0000
0100
0000
0001
0000
0010
0000
0100
0000
1000
0000
0010
0000
0100
0000
0001
0000
0010
0000
0100
0000
1000
0000
0001
0000
0000
0100
0000
0000
0010
0000
0000
1000
0000
0000
0100
0000
0000
0010
0000
0000
0001
0000
0000
0010
0000
0000
,  // measure 166
0100
0000
1000
0000
0001
0000
0100
0000
0010
0000
1000
0000
0001
0000
1000
0000
0100
0000
0010
0000
0001
0000
1000
0000
0010
0000
0000
1000
0000
0000
0001
0000
0000
0010
0000
0000
0100
0000
0000
1000
0000
0000
0100
0000
0000
0010
0000
0000
,  // measure 167
0001
0000
1000
0000
0010
0000
1000
0000
0001
0000
0100
0000
0001
0000
0000
1000
0000
0000
0100
0000
0000
1000
0000
0000
0001
0000
0010
0000
0001
0000
1000
0000
0100
0000
0010
0000
0001
0000
0000
0100
0000
0000
0010
0000
0000
1000
0000
0000
,  // measure 168
0001
0000
0010
0000
0100
0000
1000
0000
0100
0000
0010
0000
0001
0000
1000
0000
0100
0000
0010
0000
0001
0000
0100
0000
0010
0000
0000
1000
0000
0000
0001
0000
0000
0100
0000
0000
0010
0000
0000
1000
0000
0000
0100
0000
0000
0010
0000
0000
,  // measure 169
0001
0000
0100
0000
0010
0000
1000
0000
0010
0000
0100
0000
0001
0000
1000
0000
0010
0000
0100
0000
0001
0000
1000
0000
0100
0000
0000
0010
0000
0000
0001
0000
0000
1000
0000
0000
0100
0000
0000
0010
0000
0000
0001
0000
0000
0010
0000
0000
,  // measure 170
0100
0000
1000
0000
0010
0000
0100
0000
0001
0000
0010
0000
0001
0000
0100
0000
0010
0000
1000
0000
0100
0000
1000
0000
0001
0000
0000
0100
0000
0000
0010
0000
0000
1000
0000
0000
0100
0000
0000
1000
0000
0000
0010
0000
0000
0100
0000
0000
,  // measure 171
0001
0010
0001
0010
0100
0010
0100
1000
0100
1000
0001
1000
0010
1000
0010
0100
0010
0100
0001
0100
0001
1000
0001
1000
,  // measure 172
0010
0100
0010
0100
,  // measure 173
0010
0000
0100
0000
0010
1000
0100
0010
,  // measure 174
0001
1000
0001
1000
,  // measure 175
0001
0000
1000
0000
0001
0010
0100
1000
,  // measure 176
0001
0100
0001
0100
,  // measure 177
0001
0000
0100
0000
0001
0100
0001
1000
,  // measure 178
0010
1000
0010
1000
,  // measure 179
0010
0000
1000
0000
0010
0100
MMM1
MMM1
,  // measure 180
0010
0100
0010
0100
,  // measure 181
0010
0000
0100
0000
0010
0001
0100
0010
,  // measure 182
1000
0001
1000
0001
,  // measure 183
1000
0000
0001
0000
1000
0010
0100
0001
,  // measure 184
1000
0100
1000
0100
,  // measure 185
1000
0000
0100
0000
1000
0100
0010
0001
,  // measure 186
0010
0001
0010
0001
,  // measure 187
0010
0000
0001
0000
0010
0100
1000
0010
,  // measure 188
1000
0010
0101
0000
1000
0010
0101
0000
,  // measure 189
1000
0010
0101
0000
1000
0010
0101
0000
,  // measure 190
1000
0100
0011
0000
1000
0100
0011
0000
,  // measure 191
1000
0100
0011
0000
1000
0100
0011
0000
,  // measure 192
0001
0010
1100
0000
0001
0010
1100
0000
,  // measure 193
0001
0010
1100
0000
0001
0010
1100
0000
,  // measure 194
0001
0100
1010
0000
0001
0100
1010
0000
,  // measure 195
0001
0100
1010
0000
0001
0100
1010
0000
,  // measure 196
2021
000L
0100
0L00
0001
000L
0100
0L00
,  // measure 197
0001
000L
0100
0L00
0001
000L
3130
0002
,  // measure 198
1020
L000
0100
0L00
1000
L000
0100
0L00
,  // measure 199
1000
L000
0100
0L00
1000
L000
0133
2000
,  // measure 200
0201
000L
0010
00L0
0001
000L
0010
00L0
,  // measure 201
0001
000L
0010
00L0
0001
000L
3310
0002
,  // measure 202
1200
L000
0010
00L0
1000
L000
0010
00L0
,  // measure 203
1000
L000
0010
00L0
1000
L000
0010
00L0
,  // measure 204
0303
0000
0000
0000
,  // measure 205
0000
0000
0000
0000
,  // measure 206
0000
0000
0000
0000
,  // measure 207
0000
0000
0000
0000
,  // measure 208
0000
0000
0000
0000
,  // measure 209
0000
0000
0000
0000
,  // measure 210
0000
0000
0000
0000
,  // measure 211
0000
0000
0000
0000
,  // measure 212
0000
0000
0000
0000
,  // measure 213
0000
0000
0000
0000
,  // measure 214
0000
0000
0000
0000
,  // measure 215
0000
0000
0000
0000
,  // measure 216
0000
0000
0000
0000
,  // measure 217
0000
0000
0000
0000
,  // measure 218
0000
0000
0000
0000
,  // measure 219
0000
0000
0000
0000
,  // measure 220
2000
0000
0000
0000
3100
0000
0020
0000
0000
0000
0000
0000
0000
0000
0000
0000
0000
0000
0000
0000
0000
0030
0000
0000
,  // measure 221
0200
0000
0000
0000
1300
0000
0020
0000
0000
0000
0000
0000
0000
0000
0000
0000
0000
0000
0000
0000
0000
0030
0000
0000
,  // measure 222
2000
0000
3100
0020
0000
0000
0032
0000
0000
2003
0000
0000
,  // measure 223
3020
0000
0000
0000
,  // measure 224
0230
0000
0000
0000
0301
0000
0020
0000
0000
0000
0000
0000
0000
0000
0000
0000
0000
0000
0000
0000
0000
0030
0000
0000
,  // measure 225
0002
0000
0000
0000
0103
0000
0020
0000
0000
0000
0000
0000
0000
0000
0000
0000
0000
0000
0000
0000
0000
0030
0000
0000
,  // measure 226
0200
0000
0301
0020
0000
0000
0230
0000
0000
2300
0000
0000
,  // measure 227
3002
0000
0000
0000
,  // measure 228
1003
0000
0000
M000
1000
0M00
0100
0000
0000
0M00
0100
00M0
0010
0000
0000
00M0
0010
000M
0001
0000
0000
000M
0001
00M0
,  // measure 229
0010
000M
0001
00M0
0010
0M00
0100
0000
0000
0M00
0100
M000
1000
0000
0000
000M
0001
M000
1000
000M
0001
M000
1000
000M
,  // measure 230
0001
0000
0000
000M
0001
0M00
0100
0000
0000
0M00
0100
00M0
0010
0M00
0100
00M0
0010
M000
1000
0000
0000
M000
1000
0M00
,  // measure 231
0100
0000
0000
0M00
0100
00M0
0010
0000
0000
00M0
0010
000M
0001
00M0
0010
0M00
0100
M000
1000
0000
0000
000M
0001
M000
,  // measure 232
1000
0000
0000
M000
1000
00M0
0010
0000
0000
00M0
0010
0M00
0100
0000
0000
0M00
0100
000M
0001
0000
0000
000M
0001
M000
,  // measure 233
1000
0M00
0100
M000
1000
0M00
0100
0000
0000
00M0
0010
0M00
0100
0000
0000
00M0
0010
000M
0001
0000
0000
00M0
0010
0M00
,  // measure 234
0100
0000
0000
00M0
0010
000M
0001
0000
0000
M000
1000
0M00
0100
00M0
0010
000M
0001
M000
1000
0000
0000
000M
0001
0M00
,  // measure 235
0100
0000
0000
00M0
0010
M000
1000
0000
0000
000M
0001
0M00
0100
00M0
0010
M000
1000
000M
0001
0000
0000
00M0
0010
0M00
,  // measure 236
0100
0000
0000
00M0
0010
000M
0001
0000
0000
000M
0001
M000
1000
0000
0000
000M
0001
M000
1000
0000
0000
000M
0001
0M00
,  // measure 237
0100
0000
0000
00M0
0010
M000
1000
0000
0000
M000
1000
000M
0001
0000
0000
M000
1000
000M
0001
0000
0000
M000
1000
0M00
,  // measure 238
0100
0000
0000
00M0
0010
000M
0001
0000
0000
0000
0000
M000
1000
0000
0000
0000
0000
0M00
0100
0000
0000
0000
0000
00M0
,  // measure 239
0010
0000
0000
00M0
0010
0M00
0100
0000
0000
0M00
0100
00M0
0010
0000
0000
00M0
0010
0M00
0100
0000
0000
0M00
0100
M000
,  // measure 240
1000
0000
0000
M000
1000
000M
0001
0000
0000
000M
0001
0M00
0100
0000
0000
0M00
0100
000M
0001
0000
0000
000M
0001
M000
,  // measure 241
1000
0000
0000
M000
1000
000M
0001
0000
0000
000M
0001
0M00
0100
0000
0000
0M00
0100
000M
0001
0000
0000
000M
0001
0M00
,  // measure 242
0100
0000
0000
00M0
0010
M000
1000
0000
0000
0000
0000
000M
0001
0000
0000
0000
0000
0M00
0100
0000
0000
0000
0000
00M0
,  // measure 243
0010
0000
0000
00M0
0010
0M00
0100
0000
0000
0M00
0100
00M0
0010
0000
0000
00M0
0010
0M00
0100
0000
0000
00M0
0010
0M00
,  // measure 244
0100
0000
0000
00M0
0010
0M00
0100
0000
0000
00M0
0010
0M00
0200
0000
0000
0000
0000
000M
0301
0000
0000
M000
1000
000M
,  // measure 245
0001
0000
0000
M000
1000
000M
0001
0000
0000
M000
1000
000M
0002
0000
0000
0000
0000
00M0
0013
0000
0000
0M00
0100
M000
,  // measure 246
1000
0000
0000
0M00
0100
M000
1000
0000
0000
0M00
0100
M000
2000
0000
0000
0000
0000
000M
3002
0000
0000
0000
0000
00M0
,  // measure 247
0023
0000
0000
0000
0000
0000
0000
0000
0000
0000
0000
0000
0030
0000
0000
0000
0000
0000
0000
0000
0000
0000
0000
000M
,  // measure 248
0001
0000
0000
M000
1000
000M
0001
0000
0000
M000
1000
000M
0001
0000
0000
M000
1000
0M00
0100
0000
0000
M000
1000
000M
,  // measure 249
0001
0000
0000
M000
1000
000M
0001
0000
0000
M000
1000
000M
0002
0000
0000
0000
0000
0M00
0103
0000
0000
00M0
0010
M000
,  // measure 250
1000
0000
0000
00M0
0010
M000
1000
0000
0000
00M0
0010
M000
2000
0000
0000
0000
0000
000M
3002
0000
0000
0000
0000
0M00
,  // measure 251
0203
0000
0000
0300
,  // measure 252
0010
1100
0010
1100
0010
1100
0010
1100
,  // measure 253
0001
1100
0001
1100
0001
1100
0001
1100
,  // measure 254
0001
1010
0001
1010
0001
1010
0001
1010
,  // measure 255
0010
1010
0001
1010
0010
1100
0101
MMM1
,  // measure 256
1000
0011
1000
0011
1000
0011
1000
0011
,  // measure 257
0100
0011
0100
0011
0100
0011
0100
0011
,  // measure 258
1000
0101
1000
0101
1000
0101
1000
0101
,  // measure 259
0010
0101
1000
0011
0010
0101
1010
1MMM
,  // measure 260
0001
1000
0001
1000
0001
1000
0001
1000
,  // measure 261
0011
1100
0011
1100
0011
1100
0011
1100
,  // measure 262
0101
1010
0101
1010
0101
1010
0101
1010
,  // measure 263
0001
1010
0100
1100
0011
0100
0101
1MMM
,  // measure 264
1MMM
0001
1000
0001
1000
0001
1000
0001
,  // measure 265
1010
0101
1010
0101
1010
0101
1010
0101
,  // measure 266
1100
0011
1100
0011
1100
0011
1100
0011
,  // measure 267
1010
0101
1100
0011
1010
0101
1100
0011
,  // measure 268
1001
0000
1001
0000
1100
0101
1100
0000
0010
0000
0100
0000
0001
0000
0010
0000
,  // measure 269
0110
0000
0110
0000
1010
1100
1010
0000
0001
0010
0100
1000
0010
0100
0001
0000
,  // measure 270
0110
0000
0110
0000
0011
0101
0011
0000
1000
0000
0001
0000
1010
0000
0011
0000
,  // measure 271
1001
0110
1010
0101
0022
0033
2200
3300
,  // measure 272
1001
0000
0110
0000
1100
0101
1010
0000
0100
0000
0010
0000
0011
0000
0110
0000
,  // measure 273
0110
0000
1001
0000
0101
1100
0011
0000
0100
0001
1000
0010
1000
0001
0100
0000
,  // measure 274
0001
0000
0110
0000
1100
0011
1100
0000
0001
0000
1010
0000
0101
0000
1010
0000
,  // measure 275
1001
1001
0110
0110
2000
0000
3001
0000
,  // measure 276
1000
0100
0001
0100
1000
0001
0010
0001
1000
0100
0001
0100
1000
0001
0010
0001
,  // measure 277
1000
0000
0000
0100
0000
0000
0001
0000
0000
0100
0000
0000
1000
0000
0000
0001
0000
0000
0010
0000
0000
0001
0000
0000
1000
0000
0100
0000
0001
0000
0100
0000
1000
0000
0100
0000
0010
0000
0001
0000
0010
0000
0100
0000
0000
1000
0000
0000
,  // measure 278
0001
0100
1000
0100
0001
1000
0010
1000
0001
0100
1000
0100
0001
1000
0010
1000
,  // measure 279
0001
0000
0000
0100
0000
0000
1000
0000
0000
0100
0000
0000
0001
0000
0000
1000
0000
0000
0010
0000
0000
1000
0000
0000
0001
0000
0100
0000
1000
0000
0100
0000
0001
0000
0100
0000
0010
0000
1000
0000
0010
0000
0100
0000
0000
0001
0000
0000
,  // measure 280
1000
0010
0001
0010
1000
0001
0010
0001
1000
0010
0001
0010
1000
0001
0010
0001
,  // measure 281
1000
0000
0000
0010
0000
0000
0001
0000
0000
0010
0000
0000
1000
0000
0000
0001
0000
0000
0010
0000
0000
0001
0000
0000
1000
0000
0010
0000
0001
0000
0010
0000
1000
0000
0001
0000
0100
0000
0010
0000
1000
0000
0001
0000
0000
1000
0000
0000
,  // measure 282
0001
0010
1000
0010
0001
1000
0010
1000
0001
0010
1000
0010
0001
1000
0010
1000
,  // measure 283
0011
1100
0101
1010
0220
0330
2002
3003
,  // measure 284
4000
3000
0400
0300
0040
0030
0004
0003
4000
0000
0000
3000
0400
0000
0000
0000
,  // measure 285
0000
0000
0000
0000
0000
0000
0000
0000
0000
0000
0000
0300
4000
0000
0000
3000
,  // measure 286
0040
0000
0000
0000
,  // measure 287
0000
0000
0000
0000
0000
0000
0000
0000
0000
0000
0000
0000
0000
0000
0000
0030
,  // measure 288
4000
3000
0040
0030
4000
3000
0004
0003
0040
0000
0000
0030
0400
0000
0000
0000
,  // measure 289
0000
0000
0000
0000
0000
0000
0000
0000
0000
0000
0000
0000
0000
0000
0000
0300
,  // measure 290
0040
0000
0000
0000
0000
0000
0000
0000
0000
0000
0000
0000
0000
0000
0000
0030
,  // measure 291
0004
0000
0000
0000
0000
0000
0000
0003
4000
0000
0000
0000
0000
0000
0000
3000
,  // measure 292
0001
1000
0100
1000
0001
1000
0100
1000
0001
1000
0100
1000
0001
1000
0100
1000
,  // measure 293
0010
1000
0001
1000
0010
1000
0001
1000
0010
1000
0100
1000
0010
1000
0100
1000
,  // measure 294
0001
1000
0010
1000
0001
1000
0010
1000
0001
1000
0100
1000
0001
1000
0100
1000
,  // measure 295
0001
1000
0100
1000
0001
1000
0010
1000
0200
0000
0000
0300
0100
0000
0000
0000
,  // measure 296
1000
0001
0100
0001
1000
0001
0100
0001
1000
0001
0100
0001
1000
0001
0100
0001
,  // measure 297
0010
0001
1000
0001
0010
0001
1000
0001
0010
0001
0100
0001
0010
0001
0100
0001
,  // measure 298
1000
0001
0010
0001
1000
0001
0010
0001
1000
0001
0100
0001
1000
0001
0100
0001
,  // measure 299
1000
0001
0100
0001
1000
0001
0010
0001
0200
0000
0000
0300
0100
0000
0000
0000
,  // measure 300
0001
1000
0100
1000
0001
1000
0100
1000
0001
1000
0100
1000
0001
1000
0100
1000
,  // measure 301
0010
1000
0001
1000
0010
1000
0001
1000
0010
1000
0100
1000
0010
1000
0100
1000
,  // measure 302
0001
1000
0010
1000
0001
1000
0010
1000
0001
1000
0100
1000
0001
1000
0100
1000
,  // measure 303
0001
1000
0100
1000
0001
1000
0010
1000
0200
0000
0000
0300
0100
0000
0000
0000
,  // measure 304
1000
0001
0100
0001
1000
0001
0100
0001
1000
0001
0100
0001
1000
0001
0100
0001
,  // measure 305
0010
0001
1000
0001
0010
0001
1000
0001
0010
0001
0100
0001
0010
0001
0100
0001
,  // measure 306
1000
0001
0010
0001
1000
0001
0010
0001
1000
0001
0100
0001
1000
0001
0100
0001
,  // measure 307
0010
0001
0100
0001
1000
0001
0010
0001
0200
0000
0000
0300
0100
0000
0000
0000
,  // measure 308
0001
0010
0100
1000
0001
MMMM
1001
0000
1010
0100
0011
0100
1010
0100
0011
0100
,  // measure 309
1000
0010
0100
0001
1000
MMMM
1001
0000
0011
0100
1010
0100
0011
0100
1010
0100
,  // measure 310
0001
0010
0100
1000
0001
MMMM
0110
0000
1100
0010
0101
0010
1100
0010
0101
0010
,  // measure 311
1000
0010
0100
0001
1000
MMMM
0110
0000
0101
0010
1100
0010
0101
0010
1100
0010
,  // measure 312
0001
0010
0100
1000
0001
MMMM
1001
0000
1010
0001
1100
0001
1010
0001
1100
0001
,  // measure 313
1000
0010
0100
0001
1000
MMMM
1001
0000
0011
1000
0101
1000
0011
1000
0101
1000
,  // measure 314
0001
0010
0100
1000
0001
MMMM
0110
0000
1010
0001
1100
0010
0101
0010
1100
0001
,  // measure 315
1000
0010
0100
0001
1000
MMMM
0110
0000
0011
1000
0101
0010
1100
0010
0101
1000
,  // measure 316
0010
0100
0000
0000
0000
0000
0001
0100
0000
0000
0000
0000
1000
0100
0000
0000
0000
0000
0010
0100
0000
0000
0000
0000
0001
1000
0000
0000
0000
0000
1000
0001
0000
0000
0000
0000
1000
0010
0000
0000
0000
0000
1000
0001
0000
0000
0000
0000
,  // measure 317
0010
0100
0000
0000
0000
0000
1000
0100
0000
0000
0000
0000
0001
0100
0000
0000
0000
0000
0010
0100
0000
0000
0000
0000
1000
0001
0000
0000
0000
0000
0001
1000
0000
0000
0000
0000
0001
0010
0000
0000
0000
0000
0001
1000
0000
0000
0000
0000
,  // measure 318
0100
1000
0000
0000
0000
0000
0100
0001
0000
0000
0000
0000
0100
1000
0000
0000
0000
0000
0100
0010
0000
0000
0000
0000
0001
1000
0000
0000
0000
0000
1000
0001
0000
0000
0000
0000
1000
0100
0000
0000
0000
0000
1000
0001
0000
0000
0000
0000
,  // measure 319
0100
0001
0000
0000
0000
0000
0100
1000
0000
0000
0000
0000
0100
0001
0000
0000
0000
0000
0100
0010
0000
0000
0000
0000
1000
0001
0000
0000
0000
0000
0001
1000
0000
0000
0000
0000
0001
0100
0000
0000
0000
0000
0001
1000
0000
0000
0000
0000
,  // measure 320
0010
1000
0000
0000
0000
0000
0100
1000
0000
0000
0000
0000
0010
1000
0000
0000
0000
0000
1000
0001
0000
0000
0000
0000
0010
0001
0000
0000
0000
0000
0100
0001
0000
0000
0000
0000
0010
0001
0000
0000
0000
0000
0001
1000
0000
0000
0000
0000
,  // measure 321
0100
1000
0000
0000
0000
0000
0001
1000
0000
0000
0000
0000
0010
1000
0000
0000
0000
0000
1000
0001
0000
0000
0000
0000
0100
0001
0000
0000
0000
0000
1000
0001
0000
0000
0000
0000
0010
0001
0000
0000
0000
0000
0010
0100
0000
0000
0000
0000
,  // measure 322
0100
1000
0000
0000
0000
0000
0100
0010
0000
0000
0000
0000
0001
0010
0000
0000
0000
0000
0010
0001
0000
0000
0000
0000
1000
0001
0000
0000
0000
0000
0001
0100
0000
0000
0000
0000
0010
0100
0000
0000
0000
0000
0100
0010
0000
0000
0000
0000
,  // measure 323
0010
1000
0000
0000
0000
0000
0001
1000
0000
0000
0000
0000
0100
0010
0000
0000
0000
0000
0001
1000
0000
0000
0000
0000
0010
0100
0000
0000
0000
0000
0100
0001
0000
0000
0000
0000
1000
0001
0000
0000
0000
0000
1000
0100
0000
0000
0000
0000
,  // measure 324
0010
0100
1000
0100
0010
0100
1000
0100
0010
0100
0001
0100
0010
0100
0001
0100
,  // measure 325
1000
0100
0010
0100
1000
0100
0010
0100
1000
0100
0001
0100
1000
0100
0001
0100
,  // measure 326
0010
0100
1000
0100
0010
0100
1000
0100
0010
0100
0001
0100
0010
0100
0001
0100
,  // measure 327
0010
0100
1000
0100
0010
0100
0001
0100
2000
0000
0000
3000
1000
0000
0000
0000
,  // measure 328
0010
0100
0001
0100
0010
0100
0001
0100
0010
0100
1000
0100
0010
0100
1000
0100
,  // measure 329
0001
0100
0010
0100
0001
0100
0010
0100
1000
0100
0010
0100
1000
0100
0010
0100
,  // measure 330
0001
0100
1000
0100
0001
0100
1000
0100
0010
0100
1000
0100
0010
0100
1000
0100
,  // measure 331
0010
0100
0001
0100
0010
0100
1000
0100
0001
0100
1000
0100
0001
0000
0000
0000
,  // measure 332
1000
0100
M100
0010
0100
01M0
1000
0010
1000
0010
M010
0100
0010
001M
1000
0001
,  // measure 333
0100
0000
010M
0000
0010
0000
0100
0000
M100
0000
0001
0000
0010
0000
0100
0000
1000
0001
0100
0010
0100
0001
1000
0100
0010
0000
0000
0000
0001
0000
0100
0000
,  // measure 334
0001
0100
010M
0010
0100
M100
0001
0100
0001
0010
001M
0100
0010
M010
0001
1000
,  // measure 335
0010
0000
0100
0000
010M
0000
1000
0000
0100
0000
M100
0000
0010
0000
1000
0000
0001
1000
0100
1000
0010
0100
0001
0010
0001
0000
0000
0000
0010
0000
0000
0000
,  // measure 336
0100
1000
100M
0010
0001
M001
0100
1000
0001
0100
010M
1000
0010
M010
0001
1000
,  // measure 337
0100
0001
M001
0010
1000
100M
0100
0010
0001
0010
001M
1000
0100
M100
0001
1000
,  // measure 338
0001
0100
010M
0010
0100
M100
0001
0010
0001
0010
001M
0100
0010
M010
0001
0000
,  // measure 339
1000
0100
M100
0010
0100
010M
1000
0010
1000
0010
M010
0100
0010
001M
1000
0000
,  // measure 340
0010
0100
010M
1000
0100
M100
0010
1000
0001
0100
010M
1000
0100
M100
0001
1000
,  // measure 341
0010
0000
0100
0000
010M
0000
1000
0000
0100
0000
M100
0000
0010
0000
0100
0000
0001
0010
0100
1000
0010
1000
0100
0010
0001
0000
0000
0000
1000
0000
0010
0000
,  // measure 342
1000
0100
M100
0010
0100
010M
1000
0010
1000
0100
M100
0001
0100
010M
1000
0001
,  // measure 343
0010
0000
0100
0000
010M
0000
1000
0000
0100
0000
M100
0000
0001
0000
0100
0000
0010
1000
0100
0010
0100
1000
0001
0010
0100
0000
0000
0000
1000
0000
0000
0000
,  // measure 344
0010
0001
M001
0100
1000
100M
0010
0100
0001
0010
001M
1000
0100
M100
0001
1000
,  // measure 345
0100
0001
M001
0010
1000
100M
0100
0010
0001
0100
010M
1000
0010
M010
0001
1000
,  // measure 346
0100
0001
M001
0010
0001
M001
0100
1000
0010
0100
010M
1000
0100
M100
0001
0100
,  // measure 347
0010
1000
100M
0100
1000
100M
0010
0100
0001
0010
001M
1000
0010
M010
0001
0000
,  // measure 348
0010
0000
0000
0000
0000
0000
0000
0000
0000
0000
0000
0000
0000
0000
0000
0000
0000
0000
0000
0000
0000
0000
0000
0000
0100
0000
0000
0000
0000
0000
0000
0000
1000
0000
0000
0000
0000
0000
0000
0000
0100
0000
0000
0000
0000
0000
0000
0000
1000
0000
0000
0000
0000
0000
0000
0000
0000
0000
0000
0000
0001
0000
0000
0000
0000
0000
0000
0000
0000
0000
0000
0000
1000
0000
0000
0000
0000
0000
0000
0000
0000
0000
0000
0000
0100
0000
0000
0000
0000
0000
0000
0000
0000
0000
0000
0000
0010
0000
0000
0000
0000
0000
0100
0000
0000
0000
0000
0000
0010
0000
0000
0000
0000
0000
0000
0000
0000
0000
0000
0000
0001
0000
0000
0000
0000
0000
0000
0000
0000
0000
0000
0000
1000
0000
0000
0000
0000
0000
0000
0000
0000
0000
0000
0000
0010
0000
0000
0000
0000
0000
0000
0000
0000
0000
0000
0000
0100
0000
0000
0000
0000
0000
0000
0000
0000
0000
0000
0000
0001
0000
0000
0000
0000
0000
0000
0000
0000
0000
0000
0000
1000
0000
0000
0000
0000
0000
0000
0000
0000
0000
0000
0000
,  // measure 349
0010
0000
0000
0000
0000
0000
0000
0000
0000
0000
0000
0000
0000
0000
0000
0000
0000
0000
0000
0000
0000
0000
0000
0000
0100
0000
0000
0000
0000
0000
0000
0000
0001
0000
0000
0000
0000
0000
0000
0000
0100
0000
0000
0000
0000
0000
0000
0000
0001
0000
0000
0000
0000
0000
0000
0000
0000
0000
0000
0000
1000
0000
0000
0000
0000
0000
0000
0000
0000
0000
0000
0000
0001
0000
0000
0000
0000
0000
0000
0000
0000
0000
0000
0000
0100
0000
0000
0000
0000
0000
0000
0000
0000
0000
0000
0000
0010
0000
0000
0000
0000
0000
0100
0000
0000
0000
0000
0000
0010
0000
0000
0000
0000
0000
0000
0000
0000
0000
0000
0000
1000
0000
0000
0000
0000
0000
0000
0000
0000
0000
0000
0000
0001
0000
0000
0000
0000
0000
0000
0000
0000
0000
0000
0000
0010
0000
0000
0000
0000
0000
0000
0000
0000
0000
0000
0000
0100
0000
0000
0000
0000
0000
0000
0000
0000
0000
0000
0000
1000
0000
0000
0000
0000
0000
0000
0000
0000
0000
0000
0000
0001
0000
0000
0000
0000
0000
0000
0000
0000
0000
0000
0000
,  // measure 350
0100
0000
0000
0000
0000
0000
0010
0000
1000
0000
0100
0000
0010
0000
0001
0000
1000
0000
0010
0000
0000
0100
0000
0000
0001
0000
0000
0000
0000
0000
0010
0000
0001
0000
0100
0000
0010
0000
1000
0000
0100
0000
0010
0000
0000
0001
0000
0000
,  // measure 351
1000
0000
0000
0000
0000
0000
0010
0000
0100
0000
0001
0000
1000
0000
0100
0000
1000
0000
0010
0000
0000
0100
0000
0000
0001
0000
0000
0000
0000
0000
0010
0000
0000
0100
0000
0000
1000
0000
0000
0001
0000
0000
1000
0000
0000
0100
0000
0000
,  // measure 352
0010
0001
0010
0100
0010
1000
0010
0100
1010
0101
1000
0001
1010
0101
1000
1MMM
,  // measure 353
0010
1000
0010
0100
0010
0001
0010
0100
0011
1100
0001
1000
0011
1100
0001
1000
,  // measure 354
0100
0010
0100
0001
0100
0010
0100
1000
0101
1010
0001
1000
0011
1100
0010
0100
,  // measure 355
0001
0000
0000
0000
0000
0000
0000
0000
0100
0000
0000
0000
0000
0000
0000
0000
0001
0000
0000
0000
0000
0000
0000
0000
0010
0000
0000
0000
0000
0000
0000
0000
0100
0000
0000
0000
0000
0000
0000
0000
0010
0000
0000
0000
0000
0000
0000
0000
0100
0000
0000
0000
0000
0000
0000
0000
1000
0000
0000
0000
0000
0000
0000
0000
0100
0000
0000
0000
0000
0000
0000
0000
1000
0000
0000
0000
0000
0000
0000
0000
0010
0000
0000
0000
0000
0000
0000
0000
1000
0000
0000
0000
0000
0000
0000
0000
0MM1
0000
0000
0000
0000
0000
1000
0000
0000
0000
0000
0000
0MM1
0000
0000
0000
0000
0000
1000
0000
0000
0000
0000
0000
0MM1
0000
0000
0000
0000
0000
1000
0000
0000
0000
0000
0000
0MM1
0000
0000
0000
0000
0000
1000
0000
0000
0000
0000
0000
0MM1
0000
0000
0000
0000
0000
1000
0000
0000
0000
0000
0000
0MM1
0000
0000
0000
0000
0000
1000
0000
0000
0000
0000
0000
0MM1
0000
0000
0000
0000
0000
1000
0000
0000
0000
0000
0000
0MM1
0000
0000
0000
0000
0000
0000
0000
0000
0000
0000
0000
,  // measure 356
1000
0001
0100
0001
1000
0001
0100
0001
1000
0001
0100
0001
1000
0001
0100
0001
,  // measure 357
0010
0100
1000
0100
0010
0001
1000
0001
0200
0000
0000
0300
0100
0000
0000
0000
,  // measure 358
0010
1000
0100
1000
0010
1000
0100
1000
0001
1000
0100
1000
0001
1000
0100
1000
,  // measure 359
0010
0100
0001
0100
0010
1000
0001
1000
0200
0000
0000
0300
0100
0000
0000
0000
,  // measure 360
1000
0001
0100
0001
1000
0001
0100
0001
1000
0001
0100
0001
1000
0001
0100
0001
,  // measure 361
0010
0100
1000
0100
0010
0001
1000
0001
0200
0000
0000
0300
0100
0000
0000
0000
,  // measure 362
0010
1000
0100
1000
0010
1000
0100
1000
0001
1000
0100
1000
0001
1000
0100
1000
,  // measure 363
0010
0100
0001
0100
0010
1000
0001
1000
0200
0000
0000
0300
0100
0000
0000
0000
,  // measure 364
1000
0001
0100
0001
1000
0001
0100
0001
1000
0001
0100
0001
1000
0001
0100
0001
,  // measure 365
1000
0001
0100
0001
1000
0001
0010
0001
0200
0000
0000
0300
0100
0000
0000
0000
,  // measure 366
0010
1000
0100
1000
0010
1000
0100
1000
0001
1000
0100
1000
0001
1000
0100
1000
,  // measure 367
0001
1000
0100
1000
0001
1000
0010
1000
0200
0000
0000
0300
0100
0000
0000
0000
,  // measure 368
1000
0001
0100
0001
1000
0001
0100
0001
1000
0001
0100
0001
1000
0001
0100
0001
,  // measure 369
0010
0001
1000
0001
0010
0001
1000
0001
0010
0001
0100
0001
0010
0001
0100
0001
,  // measure 370
0010
0001
1000
0001
0010
0001
1000
0001
0010
0001
0100
0001
0010
0001
0100
0001
,  // measure 371
1000
0001
0100
0001
1000
0001
0010
0001
0200
0000
0000
0300
0100
0000
0000
0000
,  // measure 372
0001
0000
0000
1000
0000
0000
0010
0000
0000
1000
0000
0000
0001
0000
0000
0100
0000
0000
0001
0000
0000
1000
0000
0000
0100
0000
1000
0000
0010
0000
0100
0000
0001
0000
0010
0000
0001
0000
1000
0000
0001
0000
0100
0000
0010
0000
1000
0000
,  // measure 373
0001
0100
0010
0100
0001
0100
0010
1000
0100
0010
0100
1000
0100
0010
0001
0010
,  // measure 374
0100
0000
0010
0000
0100
0000
1000
0000
0000
0001
0000
0000
1000
0000
0000
0010
0000
0000
0100
0000
0000
0001
0000
0000
1000
0000
0001
0000
1000
0000
0001
0000
0000
0010
0000
0000
0100
0000
0000
1000
0000
0000
0100
0000
0000
0010
0000
0000
,  // measure 375
0001
0000
0100
0000
0001
0000
1000
0000
0000
0100
0000
0000
0010
0000
0000
0001
0000
0000
1000
0000
0000
0010
0000
0000
1100
0000
0000
0001
0000
0000
0010
0000
0000
0100
0000
0000
1000
0000
0000
0100
0000
0000
1010
0000
0000
0001
0000
0000
,  // measure 376
0010
0000
0000
0100
0000
0000
1000
0000
0000
0100
0000
0000
0010
0000
0000
0100
0000
0000
1000
0000
0000
0100
0000
0000
0010
0000
0100
0000
0010
0000
0100
0000
0010
0000
0100
0000
0010
0000
0000
0001
0000
0000
1000
0000
0000
0001
0000
0000
,  // measure 377
0100
0000
0000
1000
0000
0000
0100
0000
0000
0001
0000
0000
0100
0000
0000
1000
0000
0000
0100
0000
0000
0001
0000
0000
1000
0000
0010
0000
1000
0000
0001
0000
1000
0000
0001
0000
0010
0000
0000
0100
0000
0000
1000
0000
0000
0001
0000
0000
,  // measure 378
1000
0000
0000
0100
0000
0000
0001
0000
0000
0100
0000
0000
1000
0000
0000
0100
0000
0000
0001
0000
0000
0100
0000
0000
1000
0000
0010
0000
1000
0000
0001
0000
0100
0000
0001
0000
0010
0000
0000
0001
0000
0000
0010
0000
0000
0100
0000
0000
,  // measure 379
1000
0000
0000
0001
0000
0000
0100
0000
0000
0001
0000
0000
1000
0000
0000
0010
0000
0000
0100
0000
0000
0010
0000
0000
1000
0000
0000
0100
0000
0000
0010
0000
0000
0100
0000
0000
1000
0000
0100
0000
1000
0000
0001
0000
0010
0000
0001
0000
,  // measure 380
1000
1000
0100
0100
1000
1000
0100
0100
1000
1000
0100
0100
1000
1000
0100
0100
,  // measure 381
0010
0010
0100
0100
0010
0010
0100
0100
0020
0000
0000
0000
0030
0000
0010
0000
,  // measure 382
1001
0000
1001
0000
1001
0000
1001
0000
1001
0000
0000
0000
0110
0110
0000
0000
2002
0000
0000
0000
3003
0000
0000
0000
0000
0000
0000
0000
1001
0000
0000
0000
,  // measure 383
0001
0000
0000
0010
0000
0000
0001
0000
0000
0010
0000
0000
0001
0000
0000
0000
0000
0000
0100
0000
0000
0000
0000
0000
0001
0000
1000
0000
0001
0000
0010
0000
0000
0100
0000
0000
1000
0000
0001
0000
1000
0000
0010
0000
0100
0000
0001
0000
,  // measure 384
1000
1000
0100
0100
1000
1000
0100
0100
0010
0010
0001
0001
0010
0010
0001
0001
,  // measure 385
0022
0000
0000
0000
0000
0033
2200
3300
,  // measure 386
1000
0000
0010
0000
0100
0000
0001
0000
0000
1000
0000
0000
0001
0000
0010
0000
0100
0000
1000
0000
0000
0001
0000
0000
1000
0000
0010
0000
0100
0000
0001
0000
0000
1000
0000
0000
0001
0000
0010
0000
0100
0000
1000
0000
0000
0100
0000
0000
,  // measure 387
0010
0000
0001
0000
0100
0000
0010
0000
0000
1000
0000
0000
0100
0000
0010
0000
0001
0000
0100
0000
0000
0010
0000
0000
1000
0000
0100
0000
0010
0000
0001
0000
0000
1000
0000
0000
0010
0000
0100
0000
0001
0000
1000
0000
0000
0000
0000
0000
,  // measure 388
0001
1000
0100
1000
0001
1000
0100
1000
0001
1000
0100
1000
0001
1000
0100
1000
,  // measure 389
0001
1000
0100
1000
0001
1000
0010
1000
0200
0000
0000
0300
0100
0000
0000
0000
,  // measure 390
0010
0001
0100
0001
0010
0001
0100
0001
1000
0001
0100
0001
1000
0001
0100
0001
,  // measure 391
1000
0001
0100
0001
1000
0001
0010
0001
0200
0000
0000
0300
0100
0000
0000
0000
,  // measure 392
0010
0100
0001
0100
0010
0100
0001
0100
0010
0100
1000
0100
0010
0100
1000
0100
,  // measure 393
0010
0100
1000
0100
0010
0100
0001
0100
0002
0000
0000
0003
0001
0000
0000
0000
,  // measure 394
1000
0100
0010
0100
1000
0100
0010
0100
1000
0100
0001
0100
1000
0100
0001
0100
,  // measure 395
0010
0100
0001
0100
0010
0100
1000
0100
0020
0000
0000
0030
0010
0000
0000
0000
,  // measure 396
0111
0MMM
1110
MMM0
0111
0MMM
1110
MMM0
,  // measure 397
0111
0MMM
1110
MMM0
0111
0MMM
1110
MMM0
,  // measure 398
1011
M0MM
1101
MM0M
1011
M0MM
1101
MM0M
,  // measure 399
1011
M0MM
1101
MM0M
1011
M0MM
1101
MM0M
,  // measure 400
1110
MMM0
0111
0MMM
1110
MMM0
0111
0MMM
,  // measure 401
1110
MMM0
0111
0MMM
1110
MMM0
0111
0MMM
,  // measure 402
1101
MM0M
1011
M0MM
1101
MM0M
1011
M0MM
,  // measure 403
1101
MM0M
1011
M0MM
1101
MM0M
1011
M0MM
,  // measure 404
0111
0MMM
1101
MM0M
1110
MMM0
1011
M0MM
,  // measure 405
0111
0MMM
1101
MM0M
1110
MMM0
1011
M0MM
,  // measure 406
1110
MMM0
1101
MM0M
0111
0MMM
1011
M0MM
,  // measure 407
1110
MMM0
1101
MM0M
1011
M0MM
0111
0MMM
,  // measure 408
1110
MMM0
0111
0MMM
1011
M0MM
1101
MM0M
,  // measure 409
1110
MMM0
0111
0MMM
1011
M0MM
1101
MM0M
,  // measure 410
0111
0MMM
1110
MMM0
1101
MM0M
1011
M0MM
,  // measure 411
0111
0MMM
1110
MMM0
1101
MM0M
1011
M0MM
,  // measure 412
0002
0000
0000
0000
,  // measure 413
0000
0000
0000
0000
,  // measure 414
2003
0000
0000
0000
,  // measure 415
0000
0000
3200
0000
,  // measure 416
0320
0000
0000
0000
,  // measure 417
0000
0000
0230
0000
,  // measure 418
2300
0000
0000
0000
,  // measure 419
3002
0000
0023
0000
,  // measure 420
0032
0000
0000
0000
,  // measure 421
0000
0000
0000
0000
,  // measure 422
2003
0000
0000
0000
,  // measure 423
0000
0000
3200
0000
,  // measure 424
0320
0000
0000
0000
,  // measure 425
0000
0000
0230
0000
,  // measure 426
2300
0000
0000
0000
,  // measure 427
3002
0000
0023
0000
,  // measure 428
0031
0100
0010
1000
0001
0100
0010
1000
0001
0100
0010
1000
0001
0100
0010
1000
0001
0100
0010
1000
0001
0100
0010
1000
0001
0100
0010
1000
0001
0100
0010
1000
,  // measure 429
0001
0000
0000
0000
0000
0000
0010
0000
0000
0000
0000
0000
0100
0000
0000
0000
0000
0000
1000
0000
0000
0000
0000
0000
0001
0000
0000
0000
0000
0000
0010
0000
0000
0000
0000
0000
0100
0000
0000
0000
0000
0000
1000
0000
0000
0000
0000
0000
0001
0000
0000
0000
0000
0000
0010
0000
0000
0000
0000
0000
0100
0000
0000
0000
0000
0000
1000
0000
0000
0000
0000
0000
0001
0000
0000
0000
0000
0000
0010
0000
0000
0000
0000
0000
0100
0000
0000
0000
0000
0000
0000
0000
0000
0000
0000
0000
1000
0000
0000
0000
0000
0000
0000
0000
0100
0000
0000
0000
0000
0000
0000
0000
0010
0000
0000
0000
0000
0000
0000
0000
0001
0000
0000
0000
0000
0000
0000
0000
1000
0000
0000
0000
0000
0000
0000
0000
0100
0000
0000
0000
0000
0000
0000
0000
0010
0000
0000
0000
0000
0000
0000
0000
0001
0000
0000
0000
0000
0000
0000
0000
1000
0000
0000
0000
0000
0000
0000
0000
0100
0000
0000
0000
0000
0000
0000
0000
0010
0000
0000
0000
0000
0000
0000
0000
0001
0000
0000
0000
0000
0000
0000
0000
,  // measure 430
0010
0001
0100
0010
1000
0100
1000
0010
0100
0001
0010
0001
1000
0001
1000
0000
,  // measure 431
2002
0000
0000
0000
0000
0000
0000
3003
,  // measure 432
1000
0000
0000
0100
0000
0000
0010
0000
0000
0100
0000
0000
1000
0000
0001
0000
0100
0000
0010
0000
0000
1000
0000
0000
0001
0000
0000
0100
0000
0000
0010
0000
0000
0100
0000
0000
0001
0000
1000
0000
0100
0000
0010
0000
0000
0001
0000
0000
,  // measure 433
1000
0000
0000
0010
0000
0000
0100
0000
0000
0010
0000
0000
1000
0000
0001
0000
0100
0000
0010
0000
0000
1000
0000
0000
0001
0000
0000
0010
0000
0000
0100
0000
0000
0010
0000
0000
0001
0000
1000
0000
0010
0000
0100
0000
0000
0001
0000
0000
,  // measure 434
0010
0000
0000
0001
0000
0000
1000
0000
0000
0001
0000
0000
0010
0000
0100
0000
1000
0000
0001
0000
0000
1000
0000
0000
0010
0000
0000
1000
0000
0000
0001
0000
0000
1000
0000
0000
0010
0000
0100
0000
0001
0000
1000
0000
0000
0001
0000
0000
,  // measure 435
0010
0000
0000
0001
0000
0000
0100
0000
0000
0010
0000
0000
1000
0000
0100
0000
1000
0000
0010
0000
0100
0000
0001
0000
0220
0000
0000
0000
0000
0000
0000
0000
0000
0330
0000
0000
2002
0000
0000
0000
0000
0000
0000
0000
0000
3003
0000
0000
,  // measure 436
1000
0000
0000
0100
0000
0000
0001
0000
0000
0100
0000
0000
1000
0000
0001
0000
0100
0000
1000
0000
0000
0100
0000
0000
0001
0000
0000
0010
0000
0000
1000
0000
0000
0010
0000
0000
0001
0000
1000
0000
0010
0000
0001
0000
0000
0010
0000
0000
,  // measure 437
1000
0000
0000
0001
0000
0000
0010
0000
0000
0001
0000
0000
1000
0000
0100
0000
0010
0000
1000
0000
0000
0010
0000
0000
0001
0000
0000
1000
0000
0000
0010
0000
0000
1000
0000
0000
0001
0000
0100
0000
0010
0000
0001
0000
0000
0010
0000
0000
,  // measure 438
1000
0000
0000
0001
0000
0000
0100
0000
0000
0001
0000
0000
1000
0000
0010
0000
0100
0000
1000
0000
0000
0100
0000
0000
0001
0000
0000
1000
0000
0000
0100
0000
0000
1000
0000
0000
0001
0000
0010
0000
0100
0000
0001
0000
0000
0100
0000
0000
,  // measure 439
1000
0000
0010
0000
1000
0000
0001
0000
0100
0000
0001
0000
0010
0000
0100
0000
0010
0000
0001
0000
1000
0000
0001
0000
0220
0000
0000
0000
0000
0000
0000
0000
0000
0330
0000
0000
2002
0000
0000
0000
0000
0000
0000
0000
0000
3003
0000
0000
,  // measure 440
2100
0010
0001
0000
0100
0010
0001
3000
0012
1003
2200
3300
0012
1003
2200
3300
,  // measure 441
0012
0100
1000
0000
0010
0100
1000
0003
2010
3001
0202
0303
2010
3001
0202
0303
,  // measure 442
2001
0010
0100
0000
0001
0010
0100
3000
0012
0103
2020
3030
2100
3010
0202
0303
,  // measure 443
1020
0001
0100
0000
1000
0001
0100
0000
1000
0001
0100
0000
1000
0001
0100
0030
,  // measure 444
2010
0100
0001
0000
0010
0100
0001
3000
0021
1030
0202
0303
0021
1030
0202
0303
,  // measure 445
0102
0010
1000
0000
0100
0010
1000
0003
1020
0031
0202
0303
1020
0031
0202
0303
,  // measure 446
2010
0100
0001
0000
0100
0010
0001
3000
0201
1300
0022
0033
1200
0301
2020
3030
,  // measure 447
0012
0100
1000
0000
0100
0010
1000
0000
1000
0100
0010
0000
1000
0010
0100
0003
,  // measure 448
1000
0000
0000
0000
0000
0000
0010
0000
0000
0000
0000
0000
1000
0000
0000
0000
0000
0000
0001
0000
0000
0000
0000
0000
1000
0000
0000
0000
0000
0000
0000
0000
0010
0000
0000
0000
0000
0000
0000
0000
0100
0000
0000
0000
0000
0000
0000
0000
0001
0000
0000
0000
0000
0000
0000
0000
0010
0000
0000
0000
0000
0000
0000
0000
0100
0000
0000
0000
0000
0000
0000
0000
1000
0000
0000
0000
0000
0000
0000
0000
0100
0000
0000
0000
0000
0000
0000
0000
0010
0000
0000
0000
0000
0000
0000
0000
0001
0000
0000
0000
0000
0000
0010
0000
0000
0000
0000
0000
0001
0000
0000
0000
0000
0000
1000
0000
0000
0000
0000
0000
0001
0000
0000
0000
0000
0000
0000
0000
0100
0000
0000
0000
0000
0000
0000
0000
0010
0000
0000
0000
0000
0000
0000
0000
1000
0000
0000
0000
0000
0000
0000
0000
0100
0000
0000
0000
0000
0000
0000
0000
0010
0000
0000
0000
0000
0000
0000
0000
0001
0000
0000
0000
0000
0000
0000
0000
1000
0000
0000
0000
0000
0000
0000
0000
0100
0000
0000
0000
0000
0000
0000
0000
,  // measure 449
0010
0000
0000
0000
0000
0000
0001
0000
0000
0000
0000
0000
0010
0000
0000
0000
0000
0000
0100
0000
0000
0000
0000
0000
0010
0000
0000
0000
0000
0000
0000
0000
0001
0000
0000
0000
0000
0000
0000
0000
1000
0000
0000
0000
0000
0000
0000
0000
0010
0000
0000
0000
0000
0000
1000
0000
0000
0000
0000
0000
0010
0000
0000
0000
0000
0000
0100
0000
0000
0000
0000
0000
0010
0000
0000
0000
0000
0000
0000
0000
1000
0000
0000
0000
0000
0000
0000
0000
0001
0000
0000
0000
0000
0000
0000
0000
0100
0000
0000
0000
0000
0000
0001
0000
0000
0000
0000
0000
0100
0000
0000
0000
0000
0000
0010
0000
0000
0000
0000
0000
0100
0000
0000
0000
0000
0000
0000
0000
0001
0000
0000
0000
0000
0000
0000
0000
1000
0000
0000
0000
0000
0000
0000
0000
0100
0000
0000
0000
0000
0000
1000
0000
0000
0000
0000
0000
0100
0000
0000
0000
0000
0000
0010
0000
0000
0000
0000
0000
0100
0000
0000
0000
0000
0000
0000
0000
1000
0000
0000
0000
0000
0000
0000
0000
0010
0000
0000
0000
0000
0000
0000
0000
,  // measure 450
0100
0000
0000
0000
0000
0000
0001
0000
0000
0000
0000
0000
0100
0000
0000
0000
0000
0000
0010
0000
0000
0000
0000
0000
0100
0000
0000
0000
0000
0000
0000
0000
0001
0000
0000
0000
0000
0000
0000
0000
1000
0000
0000
0000
0000
0000
0000
0000
0010
0000
0000
0000
0000
0000
0000
0000
1000
0000
0000
0000
0000
0000
0000
0000
0100
0000
0000
0000
0000
0000
0000
0000
0010
0000
0000
0000
0000
0000
0000
0000
0001
0000
0000
0000
0000
0000
0000
0000
1000
0000
0000
0000
0000
0000
0000
0000
0100
0000
0000
0000
0000
0000
1000
0000
0000
0000
0000
0000
0100
0000
0000
0000
0000
0000
0010
0000
0000
0000
0000
0000
0100
0000
0000
0000
0000
0000
0000
0000
0010
0000
0000
0000
0000
0000
0000
0000
0001
0000
0000
0000
0000
0000
0000
0000
0010
0000
0000
0000
0000
0000
0000
0000
0001
0000
0000
0000
0000
0000
0000
0000
1000
0000
0000
0000
0000
0000
0000
0000
0010
0000
0000
0000
0000
0000
0000
0000
0100
0000
0000
0000
0000
0000
0000
0000
0001
0000
0000
0000
0000
0000
0000
0000
,  // measure 451
1000
0000
0000
0000
0000
0000
0010
0000
0000
0000
0000
0000
1000
0000
0000
0000
0000
0000
0001
0000
0000
0000
0000
0000
1000
0000
0000
0000
0000
0000
0000
0000
0001
0000
0000
0000
0000
0000
0000
0000
1000
0000
0000
0000
0000
0000
0000
0000
0001
0000
0000
0000
0000
0000
1000
0000
0000
0000
0000
0000
0001
0000
0000
0000
0000
0000
0010
0000
0000
0000
0000
0000
0001
0000
0000
0000
0000
0000
0000
0000
1000
0000
0000
0000
0000
0000
0000
0000
0100
0000
0000
0000
0000
0000
0000
0000
0010
0000
0000
0000
0000
0000
0001
0000
0000
0000
0000
0000
0010
0000
0000
0000
0000
0000
0100
0000
0000
0000
0000
0000
0010
0000
0000
0000
0000
0000
0000
0000
0100
0000
0000
0000
0000
0000
0000
0000
1000
0000
0000
0000
0000
0000
0000
0000
0100
0000
0000
0000
0000
0000
0010
0000
0000
0000
0000
0000
0100
0000
0000
0000
0000
0000
1000
0000
0000
0000
0000
0000
0100
0000
0000
0000
0000
0000
0000
0000
0010
0000
0000
0000
0000
0000
0000
0000
0001
0000
0000
0000
0000
0000
0000
0000
,  // measure 452
1000
0000
0000
0000
0000
0000
0010
0000
0000
0000
0000
0000
0100
0000
0000
0000
0000
0000
0010
0000
0000
0000
0000
0000
1000
0000
0000
0000
0000
0000
0000
0000
0001
0000
0000
0000
0000
0000
0000
0000
0100
0000
0000
0000
0000
0000
0000
0000
0010
0000
0000
0000
0000
0000
0000
0000
1000
0000
0000
0000
0000
0000
0000
0000
0100
0000
0000
0000
0000
0000
0000
0000
0010
0000
0000
0000
0000
0000
0000
0000
0001
0000
0000
0000
0000
0000
0000
0000
1000
0000
0000
0000
0000
0000
0000
0000
0100
0000
0000
0000
0000
0000
0010
0000
0000
0000
0000
0000
0001
0000
0000
0000
0000
0000
0010
0000
0000
0000
0000
0000
0100
0000
0000
0000
0000
0000
0000
0000
1000
0000
0000
0000
0000
0000
0000
0000
0001
0000
0000
0000
0000
0000
0000
0000
0100
0000
0000
0000
0000
0000
0000
0000
0010
0000
0000
0000
0000
0000
0000
0000
1000
0000
0000
0000
0000
0000
0000
0000
0100
0000
0000
0000
0000
0000
0000
0000
0010
0000
0000
0000
0000
0000
0000
0000
0001
0000
0000
0000
0000
0000
0000
0000
,  // measure 453
0100
0000
0000
0000
0000
0000
0010
0000
0000
0000
0000
0000
1000
0000
0000
0000
0000
0000
0010
0000
0000
0000
0000
0000
0100
0000
0000
0000
0000
0000
0000
0000
0001
0000
0000
0000
0000
0000
0000
0000
1000
0000
0000
0000
0000
0000
0000
0000
0100
0000
0000
0000
0000
0000
0000
0000
0010
0000
0000
0000
0000
0000
0000
0000
0001
0000
0000
0000
0000
0000
0000
0000
1000
0000
0000
0000
0000
0000
0000
0000
0010
0000
0000
0000
0000
0000
0000
0000
1000
0000
0000
0000
0000
0000
0000
0000
0001
0000
0000
0000
0000
0000
1000
0000
0000
0000
0000
0000
0010
0000
0000
0000
0000
0000
1000
0000
0000
0000
0000
0000
0001
0000
0000
0000
0000
0000
0000
0000
0100
0000
0000
0000
0000
0000
0000
0000
0001
0000
0000
0000
0000
0000
0000
0000
0010
0000
0000
0000
0000
0000
0001
0000
0000
0000
0000
0000
1000
0000
0000
0000
0000
0000
0001
0000
0000
0000
0000
0000
0010
0000
0000
0000
0000
0000
0000
0000
0100
0000
0000
0000
0000
0000
0000
0000
1000
0000
0000
0000
0000
0000
0000
0000
,  // measure 454
0010
0000
0000
0000
0000
0000
0100
0000
0000
0000
0000
0000
0001
0000
0000
0000
0000
0000
1000
0000
0000
0000
0000
0000
0001
0000
0000
0000
0000
0000
0000
0000
0010
0000
0000
0000
0000
0000
0000
0000
0100
0000
0000
0000
0000
0000
0000
0000
1000
0000
0000
0000
0000
0000
0000
0000
0100
0000
0000
0000
0000
0000
0000
0000
0010
0000
0000
0000
0000
0000
0000
0000
0001
0000
0000
0000
0000
0000
0000
0000
1000
0000
0000
0000
0000
0000
0000
0000
0001
0000
0000
0000
0000
0000
0000
0000
0100
0000
0000
0000
0000
0000
0010
0000
0000
0000
0000
0000
1000
0000
0000
0000
0000
0000
0001
0000
0000
0000
0000
0000
0010
0000
0000
0000
0000
0000
0000
0000
0100
0000
0000
0000
0000
0000
0000
0000
1000
0000
0000
0000
0000
0000
0000
0000
0001
0000
0000
0000
0000
0000
0000
0000
0100
0000
0000
0000
0000
0000
0000
0000
0010
0000
0000
0000
0000
0000
0000
0000
1000
0000
0000
0000
0000
0000
0000
0000
0010
0000
0000
0000
0000
0000
0000
0000
0100
0000
0000
0000
0000
0000
0000
0000
,  // measure 455
0001
0000
0000
0000
0000
0000
0010
0000
0000
0000
0000
0000
0100
0000
0000
0000
0000
0000
1000
0000
0000
0000
0000
0000
0001
0000
0000
0000
0000
0000
0000
0000
1000
0000
0000
0000
0000
0000
0000
0000
0010
0000
0000
0000
0000
0000
0000
0000
0100
0000
0000
0000
0000
0000
0001
0000
0000
0000
0000
0000
1000
0000
0000
0000
0000
0000
0010
0000
0000
0000
0000
0000
0100
0000
0000
0000
0000
0000
0000
0000
0001
0000
0000
0000
0000
0000
0000
0000
0010
0000
0000
0000
0000
0000
0000
0000
0100
0000
0000
0000
0000
0000
1000
0000
0000
0000
0000
0000
0001
0000
0000
0000
0000
0000
1000
0000
0000
0000
0000
0000
0010
0000
0000
0000
0000
0000
0000
0000
0100
0000
0000
0000
0000
0000
0000
0000
0001
0000
0000
0000
0000
0000
0000
0000
1000
0000
0000
0000
0000
0000
0100
0000
0000
0000
0000
0000
0010
0000
0000
0000
0000
0000
0001
0000
0000
0000
0000
0000
1000
0000
0000
0000
0000
0000
0000
0000
0000
0000
0000
0000
0000
0000
0000
0000
0000
0000
0000
0000
0000
0000
0000
0000
,  // measure 456
4001
300L
1004
L003
0410
03L0
1004
L003
4010
00L0
0000
3000
0104
0L00
0000
0003
,  // measure 457
4001
300L
1004
L003
0410
03L0
1004
L003
0014
00L0
0000
0003
4100
0L00
0000
3000
,  // measure 458
0140
0L30
0410
03L0
4001
300L
0140
0L30
4010
00L0
0000
3000
1400
L000
0000
0300
,  // measure 459
0140
0L30
0410
03L0
1004
L003
0140
0L30
0014
00L0
0000
0003
0401
000L
0000
0300
,  // measure 460
1040
L030
4010
30L0
0104
0L03
1040
L030
0410
00L0
0000
0300
1004
L000
0000
0003
,  // measure 461
0041
003L
0014
00L3
4100
3L00
0041
003L
0410
00L0
0000
0300
4001
000L
0000
3000
,  // measure 462
1040
L030
0041
003L
1400
L300
0401
030L
1004
L000
0000
0003
4001
000L
0000
3000
,  // measure 463
0014
00L3
4010
30L0
0104
0L03
4100
3L00
1004
L000
0000
0003
4001
000L
0000
3000
,  // measure 464
0022
0000
0000
0033
0100
0000
0011
0100
0011
0000
1000
0000
0200
0000
0000
0300
,  // measure 465
0010
0000
0100
0000
0010
0000
0001
0000
0000
1000
0000
0000
0010
0000
0000
0100
0000
0000
0001
0000
0000
0010
0000
0000
0001
0000
1000
0000
0001
0000
0100
0000
0000
0010
0000
0000
1000
0000
0000
0100
0000
0000
1000
0000
0000
0100
0000
0000
,  // measure 466
2020
0000
0000
3030
0100
0000
1010
0100
1010
0000
0001
0000
0200
0000
0000
0300
,  // measure 467
0010
0000
0000
1000
0000
0000
0010
0000
0100
0000
0010
0000
1000
0000
0000
0001
0000
0000
0010
0000
0000
0001
0000
0000
0100
0000
0000
0001
0000
0000
0010
0000
0100
0000
0010
0000
0001
0000
0000
1000
0000
0000
0100
0000
0000
1000
0000
0000
,  // measure 468
0002
0000
0000
0000
1003
0000
0001
1000
0001
0000
1000
0000
0100
0000
0010
0000
,  // measure 469
0001
0100
0000
0001
0100
0000
0100
0001
,  // measure 470
0010
1000
0000
0010
1000
0000
1000
0010
,  // measure 471
0001
0000
0100
0000
0000
0000
0001
0000
0100
0000
0000
0000
2002
0000
0000
3003
,  // measure 472
0010
1000
0000
0000
0010
0100
0000
0000
0100
0001
0000
0000
1000
0001
0000
0000
0010
0100
0000
0000
1000
0001
0000
0000
0100
0010
0000
0000
1000
0001
0000
0000
,  // measure 473
2200
0000
3300
0000
2200
3300
2200
3300
2200
3300
2200
3300
2200
3300
2200
3300
,  // measure 474
0001
0010
0001
1000
0001
1000
0001
0010
0001
1000
0001
1000
0010
1000
0010
0100
0001
0100
0010
1000
0010
0100
0001
0100
,  // measure 475
0202
0000
0303
0000
0202
0303
0202
0303
0202
0303
0202
0303
0202
0303
0202
0303
,  // measure 476
0001
0100
0100
1000
0100
0100
0001
1000
0001
0010
0010
1000
0010
0010
0001
1000
,  // measure 477
0022
0000
0033
0000
0022
0033
0022
0033
0022
0033
0022
0033
0022
0033
0022
0033
,  // measure 478
1000
0010
0100
1000
0100
0001
1000
0100
0010
0100
0001
0100
1000
0010
0100
0001
,  // measure 479
0010
1000
0010
0100
1000
0001
0100
0010
0001
0010
1000
0010
0100
0001
1000
0100
,  // measure 480
0041
1000
0001
1000
0001
1000
0100
1000
0100
1000
0100
1000
0001
1000
0001
1000
,  // measure 481
0031
0010
0100
0001
0100
1000
0010
0001
0100
0010
0100
0001
1000
0100
0001
0010
0100
1000
0001
0010
0100
0001
0100
1000
,  // measure 482
1004
0100
1000
0100
1000
0100
0010
0100
0010
0100
0010
0100
1000
0100
1000
0100
,  // measure 483
0013
0100
1000
0001
0100
1000
0010
0100
0001
1000
0100
0001
0100
0010
0001
1000
0100
0001
0010
0100
1000
0001
0100
1000
,  // measure 484
4010
0100
0010
0100
0010
0100
0001
0100
0001
0100
0001
0100
0010
0100
0010
0100
,  // measure 485
3010
1000
0001
0010
0001
1000
0010
1000
0001
1000
0100
0001
0100
1000
0001
0100
1000
0100
0001
0010
0001
1000
0010
1000
,  // measure 486
0014
0100
0010
0100
0010
0100
1000
0100
1000
0100
1000
0100
0010
0100
0010
0100
,  // measure 487
0013
0000
0000
0000
0000
0000
0000
0000
0100
0000
0000
0000
0000
0000
0000
0000
1000
0000
0000
0000
0000
0000
0000
0000
0010
0000
0000
0000
0000
0000
1000
0000
0000
0000
0000
0000
0001
0000
0000
0000
0000
0000
0000
0000
0000
0000
0000
0000
1000
0000
0000
0000
0000
0000
0000
0000
0100
0000
0000
0000
0000
0000
0000
0000
0010
0000
0000
0000
0000
0000
0000
0000
0001
0000
0000
0000
0000
0000
1000
0000
0000
0000
0000
0000
0010
0000
0000
0000
0000
0000
0000
0000
0000
0000
0000
0000
1000
0000
0000
0000
0000
0000
0000
0000
0010
0000
0000
0000
0000
0000
0000
0000
1000
0000
0000
0000
0000
0000
0000
0000
0010
0000
0000
0000
0000
0000
0000
0000
1000
0000
0000
0000
0000
0000
0000
0000
0010
0000
0000
0000
0000
0000
0000
0000
1000
0000
0000
0000
0000
0000
0000
0000
0010
0000
0000
0000
0000
0000
0000
0000
1000
0000
0000
0000
0000
0000
0000
0000
0010
0000
0000
0000
0000
0000
0000
0000
1000
0000
0000
0000
0000
0000
0000
0000
0010
0000
0000
0000
0000
0000
0000
0000
,  // measure 488
2022
0000
0000
3033
L0LL
0000
0000
0000
2202
0000
0000
3303
LL0L
0000
0000
0000
2022
0000
0000
3033
L0LL
0000
0000
0000
2202
0000
0000
3303
LL0L
0000
0000
0000
,  // measure 489
2022
0000
0000
3033
L0LL
0000
0000
0000
2202
0000
0000
3303
LL0L
0000
0000
0000
2220
0000
0000
3330
LLL0
0000
0000
0000
2202
0000
0000
3303
LL0L
0000
0000
0000
,  // measure 490
0222
0000
0000
0333
0LLL
0000
0000
0000
2220
0000
0000
3330
LLL0
0000
0000
0000
0222
0000
0000
0333
0LLL
0000
0000
0000
2220
0000
0000
3330
LLL0
0000
0000
0000
,  // measure 491
0222
0000
0000
0333
0LLL
0000
0000
0000
2220
0000
0000
3330
LLL0
0000
0000
0000
0222
0000
0000
0333
0LLL
0000
0000
0000
2202
0000
0000
3303
LL0L
0000
0000
0000
,  // measure 492
2022
0000
0000
3033
L0LL
0000
0000
0000
2202
0000
0000
3303
LL0L
0000
0000
0000
2022
0000
0000
3033
L0LL
0000
0000
0000
2202
0000
0000
3303
LL0L
0000
0000
0000
,  // measure 493
2022
0000
0000
3033
L0LL
0000
0000
0000
2202
0000
0000
3303
LL0L
0000
0000
0000
2022
0000
0000
3033
L0LL
0000
0000
0000
0222
0000
0000
0333
0LLL
0000
0000
0000
,  // measure 494
2220
0000
0000
3330
LLL0
0000
0000
0000
0222
0000
0000
0333
0LLL
0000
0000
0000
2220
0000
0000
3330
LLL0
0000
0000
0000
0222
0000
0000
0333
0LLL
0000
0000
0000
,  // measure 495
2022
0000
0000
3033
L0LL
0000
0000
0000
2202
0000
0000
3303
LL0L
0000
0000
0000
2022
0000
0000
3033
L0LL
0000
0000
0000
2202
0000
0000
3303
LL0L
0000
0000
0000
,  // measure 496
0001
0000
0000
0000
0000
0000
0000
0000
0010
0000
0000
0000
0000
0000
0000
0000
0100
0000
0000
0000
0000
0000
0000
0000
0001
0000
0000
0000
0000
0000
0000
0000
0100
0000
0000
0000
0000
0000
0000
0000
1000
0000
0000
0000
0000
0000
0000
0000
0001
0000
0000
0000
0000
0000
0000
0000
0010
0000
0000
0000
0000
0000
0000
0000
0100
0000
0000
0000
0000
0000
0000
0000
0001
0000
0000
0000
0000
0000
0000
0000
0100
0000
0000
0000
0000
0000
0000
0000
1000
0000
0000
0000
0000
0000
0000
0000
0001
0000
0000
0000
0000
0000
0000
0000
0010
0000
0000
0000
0000
0000
0000
0000
0100
0000
0000
0000
0000
0000
0000
0000
0001
0000
0000
0000
0000
0000
0000
0000
0100
0000
0000
0000
0000
0000
0000
0000
1000
0000
0000
0000
0000
0000
0000
0000
0001
0000
0000
0000
0000
0000
0010
0000
0000
0000
0000
0000
0100
0000
0000
0000
0000
0000
1000
0000
0000
0000
0000
0000
0001
0000
0000
0000
0000
0000
0010
0000
0000
0000
0000
0000
0100
0000
0000
0000
0000
0000
1000
0000
0000
0000
0000
0000
,  // measure 497
0002
0000
0000
0000
0100
0000
0020
0003
0200
0030
0010
0000
2000
0300
3001
0000
,  // measure 498
1000
0000
0000
0000
0000
0000
0000
0000
0010
0000
0000
0000
0000
0000
0000
0000
0100
0000
0000
0000
0000
0000
0000
0000
1000
0000
0000
0000
0000
0000
0000
0000
0100
0000
0000
0000
0000
0000
0000
0000
0001
0000
0000
0000
0000
0000
0000
0000
1000
0000
0000
0000
0000
0000
0000
0000
0010
0000
0000
0000
0000
0000
0000
0000
0100
0000
0000
0000
0000
0000
0000
0000
1000
0000
0000
0000
0000
0000
0000
0000
0100
0000
0000
0000
0000
0000
0000
0000
0001
0000
0000
0000
0000
0000
0000
0000
1000
0000
0000
0000
0000
0000
0000
0000
0010
0000
0000
0000
0000
0000
0000
0000
0100
0000
0000
0000
0000
0000
0000
0000
1000
0000
0000
0000
0000
0000
0000
0000
0100
0000
0000
0000
0000
0000
0000
0000
0001
0000
0000
0000
0000
0000
0000
0000
1000
0000
0000
0000
0000
0000
0010
0000
0000
0000
0000
0000
0100
0000
0000
0000
0000
0000
0001
0000
0000
0000
0000
0000
1000
0000
0000
0000
0000
0000
0010
0000
0000
0000
0000
0000
0100
0000
0000
0000
0000
0000
0001
0000
0000
0000
0000
0000
,  // measure 499
2000
0000
0000
0000
0010
0000
0200
3000
0001
0000
2000
0300
0002
3000
0103
0000
,  // measure 500
0010
0000
0000
0000
0000
0000
0000
0000
1000
0000
0000
0000
0000
0000
0000
0000
0100
0000
0000
0000
0000
0000
0000
0000
0001
0000
0000
0000
0000
0000
0000
0000
0100
0000
0000
0000
0000
0000
0000
0000
1000
0000
0000
0000
0000
0000
0000
0000
0010
0000
0000
0000
0000
0000
0000
0000
1000
0000
0000
0000
0000
0000
0000
0000
0100
0000
0000
0000
0000
0000
0000
0000
0001
0000
0000
0000
0000
0000
0000
0000
0100
0000
0000
0000
0000
0000
0000
0000
1000
0000
0000
0000
0000
0000
0000
0000
0010
0000
0000
0000
0000
0000
0000
0000
1000
0000
0000
0000
0000
0000
0000
0000
0100
0000
0000
0000
0000
0000
0000
0000
0001
0000
0000
0000
0000
0000
0000
0000
0100
0000
0000
0000
0000
0000
0000
0000
1000
0000
0000
0000
0000
0000
0000
0000
0010
0000
0000
0000
0000
0000
1000
0000
0000
0000
0000
0000
0001
0000
0000
0000
0000
0000
0100
0000
0000
0000
0000
0000
0001
0000
0000
0000
0000
0000
1000
0000
0000
0000
0000
0000
0010
0000
0000
0000
0000
0000
1000
0000
0000
0000
0000
0000
,  // measure 501
0020
0000
0000
0000
0100
0000
2000
0030
0001
0000
0200
3000
0320
0000
0031
0000
,  // measure 502
0100
0010
1000
0010
0001
0010
0100
0010
1000
0010
0001
0010
0100
1000
0001
1000
0100
0010
0100
1000
0001
1000
0100
0010
,  // measure 503
0001
0100
1000
0010
0001
0100
1000
0010
0001
0100
1000
0010
0001
0100
1000
0010
0001
0100
1000
0010
0001
0100
1000
0010
0001
0100
1000
0010
0001
0100
1000
0010
,  // measure 504
0000
0000
0000
0000
,  // measure 505
0000
0000
0000
0000
,  // measure 506
0000
0000
0000
0000
,  // measure 507
0000
0000
0000
0000
,  // measure 508
0000
0000
0000
0000
,  // measure 509
0000
0000
0000
0000
,  // measure 510
0000
0000
0000
0000
,  // measure 511
0000
0000
0000
0000
,  // measure 512
2000
3200
2300
3200
,  // measure 513
2300
0000
0000
3200
0000
0000
1300
0000
0100
1000
0000
0001
,  // measure 514
0020
0000
0000
0000
,  // measure 515
0032
0000
0000
0000
0000
0103
0001
0000
1000
0010
0000
1000
,  // measure 516
0200
0000
0000
0000
0000
0000
0000
0000
0000
0000
0000
0310
,  // measure 517
0002
0000
0000
0023
0000
0000
0230
0000
0310
0001
0000
0010
,  // measure 518
0200
0000
0000
2300
,  // measure 519
3002
0000
0000
0000
0000
0000
0000
0003
,  // measure 520
1001
1001
0110
0110
1001
1001
0110
0110
,  // measure 521
1001
1001
0110
0110
1010
0110
0101
0110
,  // measure 522
1010
0000
1010
0000
1010
0000
1010
0000
0011
1100
0011
1100
0011
0000
0101
0000
,  // measure 523
0101
0101
0101
0101
1100
1100
0011
0110
,  // measure 524
1100
1100
1100
1100
1100
1100
1100
1100
,  // measure 525
1001
1001
1001
1001
0110
0110
0110
0110
,  // measure 526
1001
1001
1001
1001
1001
1001
1001
1001
,  // measure 527
1001
1001
1001
1001
1001
1001
1001
0110
,  // measure 528
1001
1001
0110
0110
1001
1001
0110
0110
,  // measure 529
1001
1001
0110
0110
0011
1001
1100
1001
,  // measure 530
0011
0000
0011
0000
0011
0000
0011
0000
1010
0101
1010
0101
1010
0000
1100
0000
,  // measure 531
1100
1100
1100
1100
0101
0101
1010
1001
,  // measure 532
0101
0101
0101
0101
0101
0101
0101
0101
,  // measure 533
0110
0110
0110
0110
1001
1001
1001
1001
,  // measure 534
0110
0110
0110
0110
0110
0110
0110
0110
,  // measure 535
0110
0110
0110
0110
0110
0110
0110
0110
,  // measure 536
0001
1000
0100
1000
0001
1000
0100
1000
0010
1000
0001
1000
0010
1000
0001
1000
,  // measure 537
0020
0000
0000
0000
1030
0001
0100
0001
0010
0001
1000
0001
0100
0001
1000
0001
,  // measure 538
0100
0001
1000
0001
0010
0001
0100
0001
1000
1000
0100
0100
0010
0001
1000
0001
,  // measure 539
0010
0001
1000
0001
0100
0001
1000
0001
0010
0001
0100
0010
1000
0100
1000
0001
,  // measure 540
0020
0000
0000
0000
0031
0010
0100
1000
0001
0100
0010
1000
0001
0010
0100
1000
,  // measure 541
0002
0000
0000
0000
1003
0010
0100
0001
1000
0100
0010
0001
1000
0010
0100
0000
,  // measure 542
0010
1000
0001
1000
0100
1000
0001
1000
0010
1000
0001
1000
0100
1000
0001
1000
,  // measure 543
0010
1000
0001
1000
0100
1000
0001
1000
0100
1000
0010
0100
0001
0010
0001
1000
,  // measure 544
2002
0000
0000
0000
,  // measure 545
0000
0000
0000
0000
,  // measure 546
0000
0000
0000
0000
,  // measure 547
0000
0000
0000
0000
,  // measure 548
3003
0000
0000
0000
;
