#VERSION:0.83;
#TITLE:Soulless 4;
#SUBTITLE:;
#ARTIST:Exilelord;
#TITLETRANSLIT:;
#SUBTITLETRANSLIT:;
#ARTISTTRANSLIT:;
#GENRE:;
#ORIGIN:;
#CREDIT:;
#BANNER:soulless 4-bn.jpg;
#BACKGROUND:soulless 4-bg.png;
#PREVIEWVID:;
#JACKET:;
#CDIMAGE:;
#DISCIMAGE:;
#LYRICSPATH:;
#CDTITLE:;
#MUSIC:Soulless 4 by ExileLord.ogg;
#OFFSET:0.000000;
#SAMPLESTART:7.675422;
#SAMPLELENGTH:12.000000;
#SELECTABLE:YES;
#BPMS:0.000=125.000,
8.000=124.500,
56.000=125.000;
#STOPS:;
#DELAYS:;
#WARPS:;
#TIMESIGNATURES:0.000=4=4;
#TICKCOUNTS:0.000=4;
#COMBOS:0.000=1;
#SPEEDS:0.000=1.000=0.000=0;
#SCROLLS:0.000=1.000;
#FAKES:;
#LABELS:0.000=Song Start,
8.000=Happy Intro,
56.000=Descent into Madness,
88.000=Tradeoff,
120.000=Ascent,
152.000=Bitchin Bach,
184.000=Chorus 1,
216.000=Synthetic Verse A,
232.000=Synthetic Verse B,
248.000=Chorus 2,
280.000=Throwback A,
296.000=Throwback B,
328.000=Throwback C,
360.000=Robotic Bridge,
392.000=Fatalism A,
408.000=Fatalism B,
424.000=Fatalism C,
440.000=Fatalism D,
456.000=Fatalism E,
472.000=Fatalism F,
488.000=Machinations A,
520.000=Machinations B,
552.000=Reminiscene A,
568.000=Reminiscene B,
584.000=Reminiscene C,
600.000=Reminiscene D,
620.000=Victory Verse O,
636.000=Victory Verse P,
652.000=Victory Verse Q,
668.000=Victory Verse X,
684.000=Victory Verse Y,
700.000=Victory Verse Z,
716.000=Mercy,
748.000=Malevolence,
780.000=Sickness A,
812.000=Sickness AB,
828.000=Sickness B,
860.000=Sickness C,
876.000=Savagery of Angels,
908.000=Memories of a Machine,
940.000=Rememberance A,
972.000=Rememberance B,
1004.000=Rememberance C,
1036.000=Rememberance D,
1068.000=The Calm Before the Storm,
1100.000=Xyphos,
1116.000=Stepping Solo A,
1148.000=Breaker Solo,
1164.000=Enlightened Solo A,
1180.000=Enlightened Solo B,
1196.000=Solo of a Robot A,
1212.000=Solo of a Robot B,
1228.000=Mosh Solo,
1244.000=Dark Solo A,
1276.000=Dark Solo B,
1308.000=Q Solo,
1340.000=Mourning Solo,
1372.000=Murderous Solo A,
1388.000=Murderous Solo B,
1404.000=Outro A,
1420.000=Outro B,
1436.000=Outro C,
1452.000=Outro D,
1468.000=Outro E,
1500.000=Outro F,
1548.000=End;
#BGCHANGES:;
#KEYSOUNDS:;
#ATTACKS:
;

//---------------dance-single - ----------------
#NOTEDATA:;
#CHARTNAME:;
#STEPSTYPE:dance-single;
#DESCRIPTION:;
#CHARTSTYLE:;
#DIFFICULTY:Challenge;
#METER:6;
#RADARVALUES:1.149227,1.688180,0.998509,0.199164,1.552264,5978.000000,5129.000000,742.000000,148.000000,458.000000,160.000000,97.000000,202.000000,0.000000,1.149227,1.688180,0.998509,0.199164,1.552264,5978.000000,5129.000000,742.000000,148.000000,458.000000,160.000000,97.000000,202.000000,0.000000;
#CREDIT:Mozata;
#NOTES:
// measure 0
0000
0000
0000
0000
,  // measure 1
0000
0000
0000
0000
,  // measure 2
1000
0100
0010
0001
1000
0100
0010
0001
,  // measure 3
1000
0100
0010
0001
1000
0100
0010
0001
,  // measure 4
1000
0100
0010
0001
1000
0100
0010
0001
,  // measure 5
1000
0100
0010
0001
1000
0100
0010
0001
,  // measure 6
1000
0100
0010
0001
1000
0100
0010
0001
,  // measure 7
1000
0100
0010
0001
1000
0100
0010
0001
,  // measure 8
1000
0010
0100
0001
1000
0010
0100
0001
,  // measure 9
1000
0010
0100
0001
1000
0010
0100
0001
,  // measure 10
1000
0100
0010
0001
1000
0100
0010
0001
,  // measure 11
1000
0100
0010
0001
1000
0100
0010
0001
,  // measure 12
1000
0100
0010
0001
1000
0100
0010
0001
,  // measure 13
1000
0100
0010
0001
0100
0010
1000
0100
,  // measure 14
1010
0100
M010
0001
1010
0100
M010
0001
,  // measure 15
1010
0100
M010
0001
1010
0100
M010
0001
,  // measure 16
1100
0010
M100
0001
1100
0010
M100
0001
,  // measure 17
1100
0010
M100
0001
1100
0010
M100
0001
,  // measure 18
1010
0100
M010
0001
1010
0100
M010
0001
,  // measure 19
1010
0100
M010
0001
1010
0100
M010
0001
,  // measure 20
1100
0010
M100
0001
1100
0010
M100
0001
,  // measure 21
1100
0010
M100
0001
1100
0010
M100
0001
,  // measure 22
1000
0000
0100
0000
0100
0000
0001
0000
0100
0000
0100
0000
1000
0000
0100
0000
0100
0000
0010
0000
1000
0000
0001
0000
0010
0000
0100
0000
1000
0000
0010
0000
0100
0000
0001
0000
0010
0000
0100
0000
1000
0000
0001
0000
0000
1000
0000
0000
,  // measure 23
0001
0000
0100
0000
0100
0000
1000
0000
0100
0000
0100
0000
0001
0000
0100
0000
0100
0000
0010
0000
1000
0000
0001
0000
0010
0000
0100
0000
1000
0000
0010
0000
0100
0000
0001
0000
0010
0000
0100
0000
1000
0000
0001
0000
0000
1000
0000
0000
,  // measure 24
0001
0000
0010
0000
0010
0000
1000
0000
0010
0000
0010
0000
0001
0000
0010
0000
0010
0000
0100
0000
0001
0000
1000
0000
0010
0000
0100
0000
0001
0000
0010
0000
0100
0000
1000
0000
0010
0000
0100
0000
0001
0000
1000
0000
0000
0001
0000
0000
,  // measure 25
1000
0010
0010
0001
0010
0010
1000
0010
0010
0100
1000
0001
0020
0000
0000
0000
0000
0000
0000
0000
0000
0000
0000
0000
,  // measure 26
0031
0000
0000
0000
0000
0000
0100
0000
0000
0000
0000
0000
0010
0000
0000
0000
0000
0000
1000
0000
0000
0000
0000
0000
0001
0000
0010
0000
0100
0000
1000
0000
0010
0000
0100
0000
0001
0000
0010
0000
0100
0000
1000
0000
0000
0001
0000
0000
,  // measure 27
1000
0000
0000
0000
0000
0000
0100
0000
0000
0000
0000
0000
0010
0000
0000
0000
0000
0000
0001
0000
0000
0000
0000
0000
0010
0000
0100
0000
1000
0000
0010
0000
0100
0000
0001
0000
0010
0000
0100
0000
1000
0000
0001
0000
0000
1000
0000
0000
,  // measure 28
0001
0000
0000
0000
0000
0000
0100
0000
0000
0000
0000
0000
0010
0000
0000
0000
0000
0000
1000
0000
0000
0000
0000
0000
0010
0000
0100
0000
0001
0000
0010
0000
0100
0000
1000
0000
0010
0000
0100
0000
0001
0000
0010
0000
0000
0100
0000
0000
,  // measure 29
1000
0100
0010
0001
0101
1010
0011
1100
,  // measure 30
0002
0000
0203
0320
,  // measure 31
1030
0010
2000
0000
0000
0000
0000
0000
3200
0000
0000
0000
0320
0000
0000
0000
,  // measure 32
0031
0010
0002
0000
0000
0000
0000
0000
2003
0000
0000
0000
3020
0000
0000
0000
,  // measure 33
0130
0001
2000
0000
0000
0000
0000
0000
3020
0000
0000
0000
0230
0000
0000
0000
,  // measure 34
0302
0000
2003
3200
,  // measure 35
0310
0100
0020
0000
0000
0000
0000
0000
0032
0000
0000
0000
2003
0000
0000
0000
,  // measure 36
3001
1000
0002
0000
0000
0000
0000
0000
0203
0000
0000
0000
0320
0000
0000
0000
,  // measure 37
1030
0001
0020
0000
0000
0000
0000
0000
0230
0000
0000
0000
2300
0000
0000
0000
,  // measure 38
3001
0100
1000
0100
0001
0010
1000
0010
,  // measure 39
0001
0100
1000
0100
0010
1000
0100
0001
,  // measure 40
1000
0010
0001
0010
0100
1000
0100
0001
,  // measure 41
1000
0010
0001
0010
0100
1000
0001
0010
,  // measure 42
0001
0100
1000
0100
0001
0010
1000
0010
,  // measure 43
0001
0100
1000
0001
0010
0100
0010
1000
,  // measure 44
0100
0001
0100
1000
0010
0001
0010
1000
,  // measure 45
0001
0100
1000
0001
0010
1000
0001
0100
,  // measure 46
0010
1000
0001
1000
0010
1000
0001
1000
0010
0100
0001
0100
0010
0100
0001
0100
,  // measure 47
0001
1000
0100
1000
0001
1000
0100
1000
0001
1000
0100
1000
0001
1000
0100
0000
,  // measure 48
0010
0001
1000
0001
0010
0001
1000
0001
0010
0100
1000
0100
0010
0100
1000
0100
,  // measure 49
1000
0001
0100
0001
1000
0001
0100
0001
1000
0001
0100
0001
1000
0001
0100
0000
,  // measure 50
0010
1000
0001
1000
0010
1000
0001
1000
0100
0010
0001
0010
0100
0010
0001
1000
,  // measure 51
0010
1000
0100
1000
0010
1000
0100
1000
0010
1000
0100
1000
0010
1000
0100
0000
,  // measure 52
0010
0001
0100
0001
0010
0001
0100
0001
0010
0001
1000
0001
0010
0001
1000
0001
,  // measure 53
1000
0001
0100
0001
1000
0001
0100
0001
1000
0001
0100
0001
1000
0001
0100
0000
,  // measure 54
0010
0000
0000
0000
0000
0000
0000
0000
0000
0000
0000
0000
0000
0000
0000
0000
0000
0000
0000
0000
0000
0000
0000
0000
1000
0000
0000
0000
0000
0000
0000
0000
0001
0000
0000
0000
0000
0000
0000
0000
1000
0000
0000
0000
0000
0000
0000
0000
0100
0000
0000
0000
0000
0000
0000
0000
0000
0000
0000
0000
0010
0000
0000
0000
0000
0000
0000
0000
0000
0000
0000
0000
0100
0000
0000
0000
0000
0000
0000
0000
0000
0000
0000
0000
0010
0000
0000
0000
0000
0000
0000
0000
0000
0000
0000
0000
0001
0000
0000
0000
0000
0000
0010
0000
0000
0000
0000
0000
0001
0000
0000
0000
0000
0000
0010
0000
0000
0000
0000
0000
0001
0000
0000
0000
0000
0000
0000
0000
0000
0000
0000
0000
1000
0000
0000
0000
0000
0000
0000
0000
0000
0000
0000
0000
0010
0000
0000
0000
0000
0000
0000
0000
0000
0000
0000
0000
0010
0000
0000
0000
0000
0000
0000
0000
0000
0000
0000
0000
0001
0000
0000
0000
0000
0000
0000
0000
0000
0000
0000
0000
1000
0000
0000
0000
0000
0000
0000
0000
0000
0000
0000
0000
,  // measure 55
0010
0000
0100
0001
0010
0100
1000
0001
1000
0000
0010
1000
0010
0100
0001
0010
,  // measure 56
0100
0010
0001
0010
0100
0010
1000
0010
0101
1010
0001
1000
0101
1010
0001
1000
,  // measure 57
0011
1100
0001
1000
0011
1100
0001
1000
0101
1010
0100
0010
0101
1010
0100
0010
,  // measure 58
0001
0000
0000
0000
0000
0000
0000
0000
0000
0000
0000
0000
0000
0000
0000
0000
0000
0000
0000
0000
0000
0000
0000
0000
0010
0000
0000
0000
0000
0000
0000
0000
0100
0000
0000
0000
0000
0000
0000
0000
0010
0000
0000
0000
0000
0000
0000
0000
0100
0000
0000
0000
0000
0000
0000
0000
0000
0000
0000
0000
1000
0000
0000
0000
0000
0000
0000
0000
0000
0000
0000
0000
0001
0000
0000
0000
0000
0000
0000
0000
0000
0000
0000
0000
1000
0000
0000
0000
0000
0000
0000
0000
0000
0000
0000
0000
0010
0000
0000
0000
0000
0000
1000
0000
0000
0000
0000
0000
0010
0000
0000
0000
0000
0000
1000
0000
0000
0000
0000
0000
0010
0000
0000
0000
0000
0000
0000
0000
0000
0000
0000
0000
1000
0000
0000
0000
0000
0000
0000
0000
0000
0000
0000
0000
0100
0000
0000
0000
0000
0000
0000
0000
0000
0000
0000
0000
0100
0000
0000
0000
0000
0000
0000
0000
0000
0000
0000
0000
0001
0000
0000
0000
0000
0000
0000
0000
0000
0000
0000
0000
1000
0000
0000
0000
0000
0000
0000
0000
0000
0000
0000
0000
,  // measure 59
0100
0000
0010
0001
0100
0010
1000
0100
1000
0000
0010
1000
0010
1000
0100
0010
,  // measure 60
0001
0010
0100
0010
1000
0010
0100
0010
0101
1010
0001
1000
0011
1100
0010
0100
,  // measure 61
0001
0100
0001
0100
0001
0100
0001
0100
0001
0100
0001
0100
0001
0100
0001
0100
0001
0010
0001
0010
0001
0010
0001
0010
0001
0010
0001
0010
0001
0010
0001
0010
,  // measure 62
0001
1000
0001
1000
0010
1000
0001
1000
0010
0100
0001
0100
0010
0100
0001
0100
,  // measure 63
0001
1000
0100
1000
0001
1000
0100
1000
0001
1000
0100
1000
0001
1000
0100
0000
,  // measure 64
0010
0001
1000
0001
0010
0001
1000
0001
0010
0100
1000
0100
0010
0100
1000
0100
,  // measure 65
1000
0001
0100
0001
1000
0001
0100
0001
1000
0001
0100
0001
1000
0001
0100
0000
,  // measure 66
0010
1000
0001
1000
0010
1000
0001
1000
0100
0010
0001
0010
0100
0010
0001
1000
,  // measure 67
0010
1000
0100
1000
0010
1000
0100
1000
0010
1000
0100
1000
0010
1000
0100
0000
,  // measure 68
0010
0001
0100
0001
0010
0001
0100
0001
0010
0001
1000
0001
0010
0001
1000
0001
,  // measure 69
1000
0001
0100
0001
1000
0001
0100
0001
1000
0001
0100
0001
1000
0001
0100
0000
,  // measure 70
0210
0010
0010
0010
0010
0010
0320
0230
,  // measure 71
0010
0010
0320
0230
0010
0010
0320
2030
,  // measure 72
0001
0001
0001
0001
0001
0001
3002
2003
,  // measure 73
0001
0000
0001
0000
3002
0000
2003
0000
0001
0000
0001
0000
3002
0003
1001
0000
,  // measure 74
0001
2000
3100
0001
2000
3100
0001
2000
3100
0001
0020
1030
0001
2000
3100
0001
2000
3100
0001
2000
3100
0001
0020
1030
,  // measure 75
0001
0000
2000
0000
3100
0000
0001
0000
2000
0000
3100
0000
0001
0000
2000
0000
3100
0000
0001
0000
0020
0000
1030
0000
0100
0000
0000
0010
0000
0000
0001
0000
0000
1000
0000
0000
0010
0000
0000
0100
0000
0000
0001
0000
0000
0000
0000
0000
,  // measure 76
1000
0002
0103
1000
0002
0103
1000
0002
0103
1000
0020
0031
1000
0002
0103
1000
0002
0103
1000
0002
0103
1000
0020
0031
,  // measure 77
1000
0000
0002
0000
0103
0000
1000
0000
0002
0000
0103
0000
1000
0000
0002
0000
0103
0000
1000
0000
0020
0000
0031
0000
0100
0000
0000
0010
0000
0000
1000
0000
0000
0100
0000
0000
0010
0000
0000
0001
0000
0000
1000
0000
0000
0000
0000
0000
,  // measure 78
0001
2000
3100
0001
2000
3100
0001
2000
3100
0001
0020
1030
0001
2000
3100
0001
2000
3100
0001
2000
3100
0001
0020
1030
,  // measure 79
0001
0000
2000
0000
3100
0000
0001
0000
2000
0000
3100
0000
0001
0000
2000
0000
3100
0000
0001
0000
0020
0000
1030
0000
0100
0000
0000
0010
0000
0000
0001
0000
0000
0100
0000
0000
0010
0000
0000
1000
0000
0000
0001
0000
0000
0000
0000
0000
,  // measure 80
1000
0002
0103
1000
0002
0103
1000
0002
0103
1000
0020
0031
1000
0002
0103
1000
0002
0103
1000
0002
0103
1000
0020
0031
,  // measure 81
1000
0000
0002
0000
0103
0000
1000
0000
0002
0000
0103
0000
1000
0000
0002
0000
0103
0000
1000
0000
0020
0000
0031
0000
0100
0000
0000
0010
0000
0000
1000
0000
0000
0100
0000
0000
0010
0000
0000
0001
0000
0000
1000
0000
0000
0000
0000
0000
,  // measure 82
0010
0100
0010
0100
0010
0100
0001
1000
0010
0100
0010
0100
0010
0100
0001
1000
,  // measure 83
0010
0100
0010
0100
0010
0100
0001
1000
0010
0100
0010
0100
0010
0100
0001
1000
,  // measure 84
0101
1010
0101
1010
0101
1010
0011
1100
0101
1010
0101
1010
0101
1010
0011
1100
,  // measure 85
0101
1010
0101
1010
0101
1010
0011
1100
0101
1010
0101
1010
0101
1010
0011
1100
,  // measure 86
0010
0100
0010
0100
0010
0100
0001
1000
0010
0100
0010
0100
0010
0100
0001
1000
,  // measure 87
0010
0100
0010
0100
0010
0100
0001
1000
0010
0100
0010
0100
0010
0100
0001
1000
,  // measure 88
0101
1010
0101
1010
0101
1010
0011
1100
0101
1010
0101
1010
0101
1010
0011
1100
,  // measure 89
0101
1010
0101
1010
0101
1010
0011
1100
0001
1000
0001
1000
0001
1000
0001
1000
,  // measure 90
0140
0000
1000
0001
0100
0000
1000
0100
,  // measure 91
0100
0001
1000
0001
0100
0001
1000
0100
,  // measure 92
0431
0000
1000
0001
0001
0000
1000
0001
,  // measure 93
0001
0010
1000
0010
0001
1000
0010
0001
,  // measure 94
1340
0000
1000
0001
0100
0000
1000
0100
,  // measure 95
0100
0001
1000
0001
0100
0001
1000
0100
,  // measure 96
0431
0000
1000
0001
0001
0000
1000
0001
,  // measure 97
0001
0010
1000
0010
0001
0010
1000
0301
,  // measure 98
1001
L00L
1001
L00L
2002
0000
3003
L00L
1001
L00L
1001
L00L
2002
0000
3003
L00L
,  // measure 99
1001
L00L
1001
L00L
2002
0000
3003
L00L
1001
L00L
1001
L00L
2002
0000
3003
L00L
,  // measure 100
1001
L00L
1001
L00L
2002
0000
3003
L00L
1001
L00L
1001
L00L
2002
0000
3003
L00L
,  // measure 101
1001
L00L
1001
L00L
2002
0000
3003
L00L
1001
L00L
1001
L00L
2002
0000
3003
L00L
,  // measure 102
1001
L00L
1001
L00L
2002
0000
3003
L00L
0001
0010
1000
0001
0100
1000
0001
0100
,  // measure 103
1001
L00L
1001
L00L
2002
0000
3003
L00L
0001
0100
1000
0001
0010
1000
0001
0100
,  // measure 104
1001
L00L
1001
L00L
2002
0000
3003
L00L
1000
0010
0001
1000
0100
0001
1000
0010
,  // measure 105
1001
L00L
1001
L00L
2002
0000
3003
L00L
1000
0100
0001
1000
0010
0001
1000
0100
,  // measure 106
0110
0LL0
0110
0LL0
0220
0000
0330
0LL0
0010
0001
1000
0100
0001
1000
0010
0100
,  // measure 107
0110
0LL0
0110
0LL0
0220
0000
0330
0LL0
0010
0001
1000
0010
0100
0001
0100
0010
,  // measure 108
0110
0LL0
0110
0LL0
0220
0000
0330
0LL0
0010
1000
0001
0100
1000
0001
0010
0100
,  // measure 109
0110
0LL0
0110
0LL0
0220
0000
0330
0LL0
0010
1000
0001
0100
0010
0100
0001
0010
,  // measure 110
0100
1000
0001
1000
0010
0100
0001
1000
0001
0010
0010
1000
0001
0010
0010
1000
,  // measure 111
0100
0010
0001
1000
0001
0010
0100
1000
0001
0010
0010
1000
0001
0010
0010
1000
,  // measure 112
0100
1000
0010
0100
0001
0010
0100
0010
0001
0010
0010
1000
0001
0010
0010
1000
,  // measure 113
0100
0010
0001
1000
0001
0010
0100
1000
0001
0010
0010
1000
0001
0010
0100
0000
,  // measure 114
1010
0001
0100
0010
1000
0010
0100
0001
1000
0010
0010
0001
1000
0010
0010
0001
,  // measure 115
1010
0100
0010
0001
0010
0100
1000
0001
1000
0010
0010
0001
1000
0010
0010
0001
,  // measure 116
1100
0010
1000
0001
0010
0100
1000
0001
1000
0010
0010
0001
1000
0010
0010
0001
,  // measure 117
1100
0010
0100
0001
1000
0100
0010
0001
1000
0010
0010
0001
1000
0010
0010
0001
,  // measure 118
0100
0L00
0100
0L00
0200
0000
0300
0L00
0100
0L00
0100
0L00
0200
0000
0300
0L00
,  // measure 119
0100
0L00
0100
0L00
0200
0000
0300
0L00
0100
0L00
0100
0L00
0200
0000
0300
0L00
,  // measure 120
0100
0L00
0100
0L00
0200
0000
0300
0L00
0100
0L00
0100
0L00
0200
0000
0300
0L00
,  // measure 121
0100
0L00
0100
0L00
0200
0000
0300
0L00
0100
0L00
0100
0L00
0200
0000
0300
0L00
,  // measure 122
0001
0100
0100
1000
0100
0100
0001
1000
0001
0100
0100
1000
0100
0100
0001
0010
,  // measure 123
0001
0000
0100
0000
0100
0000
1000
0000
0100
0000
0100
0000
0001
0000
1000
0000
0001
0010
0100
1000
0001
0100
0010
1000
0001
0010
0100
1000
0001
0100
0010
0000
,  // measure 124
1000
0100
0100
0001
0100
0100
1000
0001
1000
0100
0100
0001
0100
0100
1000
0010
,  // measure 125
1000
0000
0100
0000
0100
0000
0001
0000
0100
0000
0100
0000
1000
0000
0001
0000
0010
00L0
0100
0L00
1000
L000
0001
000L
0010
00L0
0100
0L00
1000
L000
0000
0000
,  // measure 126
0001
0010
0010
1000
0010
0010
0001
1000
0001
0010
0010
1000
0010
0010
0001
0100
,  // measure 127
0001
0000
0010
0000
0010
0000
1000
0000
0010
0000
0010
0000
0001
0000
1000
0000
0001
0100
0010
1000
0001
0010
0100
1000
0001
0100
0010
1000
0001
0010
0100
0000
,  // measure 128
1000
0010
0010
0001
0010
0010
1000
0001
1000
0010
0010
0001
0010
0010
1000
0100
,  // measure 129
1000
0000
0010
0000
0010
0000
0001
0000
0010
0000
0010
0000
1000
0000
0001
0000
1000
L000
0010
00L0
0100
0L00
0001
000L
1000
L000
0010
00L0
0100
0000
0001
0000
,  // measure 130
MM1M
M4MM
0000
0000
0000
0300
MM1M
M1MM
MMM1
M4MM
0000
0000
0000
0300
1MMM
MMM1
,  // measure 131
MM1M
M4MM
0000
0000
0000
0300
MMM1
M1MM
1MMM
M4MM
0000
0000
0000
0300
MM1M
MMM1
,  // measure 132
1MMM
M4MM
0000
0000
0000
0300
MM1M
M1MM
1MMM
M4MM
0000
0000
0000
0300
MM1M
M1MM
,  // measure 133
1MMM
M1MM
MM1M
M1MM
MMM1
M1MM
MM1M
M1MM
1MMM
M4MM
0000
0000
0000
0300
0100
1000
,  // measure 134
MMM1
M4MM
0000
0000
0000
0300
MM1M
M1MM
MMM1
M4MM
0000
0000
0000
0300
MMM1
1MMM
,  // measure 135
MM1M
M4MM
0000
0000
0000
0300
1MMM
M1MM
MMM1
M4MM
0000
0000
0000
0300
MMM1
1MMM
,  // measure 136
MM1M
M4MM
0000
0000
0000
0300
MM1M
M1MM
1MMM
M4MM
0000
0000
0000
0300
MM1M
M1MM
,  // measure 137
MMM1
M1MM
MM1M
M1MM
1MMM
M1MM
MM1M
M1MM
MMM1
M4MM
0000
0000
0000
0000
0300
0000
,  // measure 138
0010
1000
0001
1000
0010
1000
0001
1000
0010
1000
0001
1000
0010
1000
0001
1000
,  // measure 139
0010
1000
0100
1000
0010
1000
0100
1000
0010
1000
0100
1000
0010
1000
0100
1000
,  // measure 140
0001
1000
0100
1000
0001
1000
0100
1000
0001
1000
0100
1000
0001
1000
0100
1000
,  // measure 141
0010
0100
0010
1000
0100
0010
0100
1000
0001
0100
0001
1000
0001
0010
0001
0000
,  // measure 142
0010
0001
1000
0001
0010
0001
1000
0001
0010
0001
1000
0001
0010
0001
1000
0001
,  // measure 143
0010
0001
0100
0001
0010
0001
0100
0001
0010
0001
0100
0001
0010
0001
0100
0001
,  // measure 144
1000
0001
0100
0001
1000
0001
0100
0001
1000
0001
0100
0001
1000
0001
0100
0001
,  // measure 145
0010
0100
0010
0001
0100
0010
0100
0001
1000
0100
1000
0001
1000
0010
1000
0000
,  // measure 146
0010
0010
0001
1000
0010
0010
0001
1000
0100
0100
0001
1000
0100
0100
0001
1000
,  // measure 147
0010
0010
0001
1000
0010
0010
0001
1000
0100
0100
0001
1000
0100
0100
0001
1000
,  // measure 148
0010
0010
0100
0100
0001
0001
1000
1000
0010
0010
0100
0100
0001
0001
1000
1000
,  // measure 149
0001
0001
0010
0010
0100
0100
1000
1000
0001
0001
0010
0010
0100
0100
1000
0000
,  // measure 150
1100
MMMM
0110
MMMM
0011
MMMM
1100
MMMM
0110
MMMM
0011
MMMM
1001
MMMM
0101
MMMM
,  // measure 151
0110
MMMM
1010
MMMM
1001
MMMM
0101
MMMM
0110
MMMM
1010
MMMM
1001
MMMM
0101
MMMM
,  // measure 152
0011
MMMM
1100
MMMM
1010
MMMM
0101
MMMM
0011
MMMM
1100
MMMM
1010
MMMM
0101
MMMM
,  // measure 153
1001
MMMM
0110
MMMM
1001
MMMM
1001
MMMM
1010
MMMM
0101
MMMM
0011
MMMM
1100
MMMM
,  // measure 154
2002
0000
0000
0000
0000
0000
0000
3003
,  // measure 155
4000
3000
1000
0100
4000
3000
4000
3000
4000
3000
1000
0100
4000
3000
4000
3000
,  // measure 156
0004
0003
1000
0100
4000
3000
4000
3000
4000
3000
1000
0100
4000
3000
4000
3000
,  // measure 157
4000
3000
1000
0100
4000
3000
4000
3000
4000
3000
1000
0100
4000
3000
4000
3000
,  // measure 158
0004
0003
1000
0100
4000
3000
4000
3000
4000
3000
1000
0100
4000
3000
4000
3000
,  // measure 159
1000
0100
0010
0000
0100
0000
0010
0000
0400
0000
0300
0000
0400
0000
0300
0000
0400
0000
0300
0000
0110
0000
0010
0000
0400
0000
0300
0000
0400
0000
0300
0000
,  // measure 160
1000
0100
0010
0000
0100
0000
0010
0000
0400
0000
0300
0000
0400
0000
0300
0000
0400
0000
0300
0000
0110
0000
0010
0000
0400
0000
0300
0000
0110
0000
0100
0000
,  // measure 161
1000
0100
0010
0000
0100
0000
0010
0000
0400
0000
0300
0000
0400
0000
0300
0000
0400
0000
0300
0000
0110
0000
0010
0000
0400
0000
0300
0000
0400
0000
0300
0000
,  // measure 162
1000
0100
0010
0000
0100
0000
0010
0000
0400
0000
0300
0000
0400
0000
0300
0000
0400
0000
0300
0000
0110
0000
0010
0000
0400
0000
0300
0000
0110
0000
0100
0000
,  // measure 163
1000
0001
0100
0000
0001
0000
0100
0000
0004
0000
0003
0000
0004
0000
0003
0000
0004
0000
0003
0000
0001
0000
0100
0000
0004
0000
0003
0000
0004
0000
0003
0000
,  // measure 164
4000
0000
3000
0000
0001
0000
0100
0000
0004
0000
0003
0000
0004
0000
0003
0000
0004
0000
0003
0000
0001
0000
0100
0000
0004
0000
0003
0000
0001
1000
0001
0000
,  // measure 165
4000
3000
0001
0100
0004
0003
0004
0003
0004
0003
0001
0100
0004
0003
0004
0003
,  // measure 166
4000
0000
3000
0000
0001
0000
0100
0000
0004
0000
0003
0000
0004
0000
0003
0000
0004
0000
0003
0000
0001
0000
0100
0000
0004
0000
0003
0000
0001
1000
0001
0000
,  // measure 167
1000
0010
1000
0000
0010
0000
0100
0000
0010
0000
0100
0000
0001
0010
0001
0000
1000
0010
1000
0000
0010
0000
0100
0000
0010
0100
0010
0000
0100
0010
0100
0000
,  // measure 168
0010
1000
0010
0000
0100
0000
0010
0000
0100
0000
0010
0000
1000
0001
1000
0000
0010
1000
0010
0000
0100
0000
0010
0000
0100
0010
0100
0000
0010
0100
0010
0000
,  // measure 169
1000
0010
1000
0000
0010
0000
0100
0000
0010
0000
0100
0000
0001
1000
0001
0000
1000
0010
1000
0000
0010
0000
0100
0000
0010
0100
0010
0000
0100
0010
0100
0000
,  // measure 170
0010
1000
0010
0000
0100
0000
0010
0000
0100
0010
0100
0000
0001
0010
0001
0000
1000
0010
1000
0000
0010
0000
0100
0000
0010
0100
0010
0000
0100
0010
0100
0000
,  // measure 171
0001
0010
0001
0000
0100
0000
0010
0000
0100
0000
0010
0000
1000
0100
1000
0000
0010
0100
0001
0000
0010
0000
0001
0000
0010
0000
0001
0000
1000
0010
1000
0000
,  // measure 172
0100
0010
0001
0000
1000
0000
0100
0000
1000
0000
0100
0000
1000
0010
1000
0000
0010
0100
0001
0000
1000
0000
0001
0000
1000
0000
0100
0000
1000
0000
0001
0000
,  // measure 173
0010
0100
0010
0000
0001
0000
1000
0000
0001
0000
1000
0000
0010
0100
0010
0000
1000
0001
1000
0000
0100
0000
0010
0000
0100
0000
0010
0000
0001
0010
0001
0000
,  // measure 174
1000
0100
1000
0000
0010
0000
0100
0000
0010
0000
0100
0000
0001
0100
0001
0000
1000
0000
0010
0000
0100
0000
0001
0000
1000
0000
0100
0000
0010
0000
0001
0000
,  // measure 175
1000
0010
1000
0000
0100
0000
0010
0000
0100
0000
0010
0000
0001
0100
0001
0000
0010
0001
0010
0000
0100
0000
1000
0000
0100
0000
1000
0000
0010
0100
0010
0000
,  // measure 176
0100
0001
0100
0000
0001
0000
0010
0000
0001
0000
0010
0000
0100
1000
0100
0000
0010
0001
1000
0000
0010
0000
0100
0000
0001
0000
0100
0000
0010
0000
1000
0000
,  // measure 177
0100
1000
0100
0000
0010
0000
0100
0000
0010
0000
0001
0000
0010
0001
0010
0000
0100
0010
0100
0000
1000
0000
0100
0000
1000
0000
0001
0000
0100
0001
0100
0000
,  // measure 178
0010
1000
0010
0000
1000
0000
0010
0000
0100
0000
0001
0000
1000
0100
1000
0000
0010
0000
0100
0000
0001
0000
0010
0000
0001
0000
0100
0000
0010
0000
1000
0000
,  // measure 179
0001
0010
0100
1000
0001
0010
0100
1000
,  // measure 180
0001
0010
0100
1000
0001
0010
0100
1000
,  // measure 181
0001
0100
0010
1000
0100
0010
1000
0010
0001
0100
0010
1000
0100
0010
1000
0010
,  // measure 182
0001
0100
0010
1000
0100
0010
1000
0010
0001
0100
0010
1000
0100
0010
0001
0000
,  // measure 183
1000
0010
0100
0001
1000
0010
0100
0001
,  // measure 184
1000
0010
0100
0001
1000
0010
0100
0001
,  // measure 185
1000
0100
0010
0001
0100
0010
0001
0010
1000
0100
0010
0001
0100
0010
0001
0010
,  // measure 186
1000
0100
0010
0001
0100
0010
0001
0010
1000
0100
0010
0001
0100
0010
1000
0000
,  // measure 187
0001
0100
0010
1000
0010
0100
1000
0100
0001
1000
0100
0001
,  // measure 188
0100
0000
0000
0000
0000
0000
0000
0000
1000
0000
0000
0000
0000
0000
0000
0000
0010
0000
0000
0000
0000
0000
0000
0000
0100
0000
0000
0000
0000
0000
0000
0000
0001
0000
0000
0000
0000
0000
0000
0000
0010
0000
0000
0000
0000
0000
0000
0000
0001
0000
0000
0000
0000
0000
0000
0000
0100
0000
0000
0000
0000
0000
0000
0000
0010
0000
0000
0000
0000
0000
0000
0000
1000
0000
0000
0000
0000
0000
0000
0000
0100
0000
0000
0000
0000
0000
0000
0000
1000
0000
0000
0000
0000
0000
0000
0000
0001
0000
0000
0000
0000
0000
0000
0000
1000
0000
0000
0000
0000
0000
0000
0000
0100
0000
0000
0000
0000
0000
0000
0000
0010
0000
0000
0000
0000
0000
0000
0000
0001
0000
0000
0000
0000
0000
0000
0000
0010
0000
0000
0000
0000
0000
0000
0000
0100
0000
0000
0000
0000
0000
0000
0000
1000
0000
0000
0000
0000
0000
0000
0000
0001
0000
0000
0000
0000
0000
0000
0000
1000
0000
0000
0000
0000
0000
0010
0000
0000
0000
0000
0000
0100
0000
0000
0000
0000
0000
0010
0000
0000
0000
0000
0000
,  // measure 189
1000
0100
0010
0001
0010
0100
0001
0100
1000
0001
0100
1000
,  // measure 190
0100
0000
0000
0000
0000
0000
0000
0000
0001
0000
0000
0000
0000
0000
0000
0000
0010
0000
0000
0000
0000
0000
0000
0000
0100
0000
0000
0000
0000
0000
0000
0000
1000
0000
0000
0000
0000
0000
0000
0000
0010
0000
0000
0000
0000
0000
0000
0000
1000
0000
0000
0000
0000
0000
0000
0000
0100
0000
0000
0000
0000
0000
0000
0000
0010
0000
0000
0000
0000
0000
0000
0000
0001
0000
0000
0000
0000
0000
0000
0000
1000
0000
0000
0000
0000
0000
0000
0000
0001
0000
0000
0000
0000
0000
0000
0000
0100
0000
0000
0000
0000
0000
0000
0000
0010
0000
0000
0000
0000
0000
0000
0000
1000
0000
0000
0000
0000
0000
0000
0000
0100
0000
0000
0000
0000
0000
0000
0000
1000
0000
0000
0000
0000
0000
0000
0000
0010
0000
0000
0000
0000
0000
0000
0000
0100
0000
0000
0000
0000
0000
0000
0000
0001
0000
0000
0000
0000
0000
0000
0000
0010
0000
0000
0000
0000
0000
0000
0000
0100
0000
0000
0000
0000
0000
1000
0000
0000
0000
0000
0000
0001
0000
0000
0000
0000
0000
1000
0000
0000
0000
0000
0000
,  // measure 191
0100
0001
0100
0010
0001
0100
1000
0100
0001
0010
0100
1000
,  // measure 192
0001
0000
0000
0000
0000
0000
0000
0000
0010
0000
0000
0000
0000
0000
0000
0000
0100
0000
0000
0000
0000
0000
0000
0000
0010
0000
0000
0000
0000
0000
0000
0000
0100
0000
0000
0000
0000
0000
0000
0000
1000
0000
0000
0000
0000
0000
0000
0000
0001
0000
0000
0000
0000
0000
0000
0000
0100
0000
0000
0000
0000
0000
0000
0000
0001
0000
0000
0000
0000
0000
0000
0000
1000
0000
0000
0000
0000
0000
0000
0000
0010
0000
0000
0000
0000
0000
0000
0000
0100
0000
0000
0000
0000
0000
0000
0000
0001
0000
0000
0000
0000
0000
0000
0000
1000
0000
0000
0000
0000
0000
0000
0000
0100
0000
0000
0000
0000
0000
0000
0000
1000
0000
0000
0000
0000
0000
0000
0000
0010
0000
0000
0000
0000
0000
0000
0000
0100
0000
0000
0000
0000
0000
0000
0000
0001
0000
0000
0000
0000
0000
0000
0000
0010
0000
0000
0000
0000
0000
0000
0000
0001
0000
0000
0000
0000
0000
0000
0000
1000
0000
0000
0000
0000
0000
0100
0000
0000
0000
0000
0000
0010
0000
0000
0000
0000
0000
0001
0000
0000
0000
0000
0000
,  // measure 193
1000
0010
0100
0001
0010
0001
1000
0100
0010
1000
0100
0010
,  // measure 194
0001
0000
0000
0000
0000
0000
0000
0000
0010
0000
0000
0000
0000
0000
0000
0000
0100
0000
0000
0000
0000
0000
0000
0000
1000
0000
0000
0000
0000
0000
0000
0000
0100
0000
0000
0000
0000
0000
0000
0000
0010
0000
0000
0000
0000
0000
0000
0000
0001
0000
0000
0000
0000
0000
0000
0000
1000
0000
0000
0000
0000
0000
0000
0000
0010
0000
0000
0000
0000
0000
0000
0000
1000
0000
0000
0000
0000
0000
0000
0000
0001
0000
0000
0000
0000
0000
0000
0000
0010
0000
0000
0000
0000
0000
0000
0000
0001
0000
0000
0000
0000
0000
0000
0000
0100
0000
0000
0000
0000
0000
0000
0000
0010
0000
0000
0000
0000
0000
0000
0000
1000
0000
0000
0000
0000
0000
0000
0000
0001
0000
0000
0000
0000
0000
0000
0000
1000
0000
0000
0000
0000
0000
0000
0000
0001
0000
0000
0000
0000
0000
0000
0000
0100
0000
0000
0000
0000
0000
0000
0000
0010
0000
0000
0000
0000
0000
0000
0000
1000
0000
0000
0000
0000
0000
0001
0000
0000
0000
0000
0000
1000
0000
0000
0000
0000
0000
0100
0000
0000
0000
0000
0000
,  // measure 195
0010
0001
0001
0001
0001
0001
0010
0001
,  // measure 196
0010
0001
0001
0001
0001
0001
0010
0001
,  // measure 197
0010
0001
0001
0001
0001
0001
0010
0001
,  // measure 198
0010
0000
0001
0000
0001
0000
0001
0000
1000
0010
1000
0001
0010
0001
1000
0010
,  // measure 199
1000
0100
0100
0100
0100
0100
1000
0100
,  // measure 200
1000
0100
0100
0100
0100
0100
1000
0100
,  // measure 201
1000
0100
0100
0100
0100
0100
1000
0100
,  // measure 202
1000
0100
0100
0100
0100
0100
1000
0100
,  // measure 203
0010
0100
0100
0100
0010
0100
0100
0010
,  // measure 204
0001
0100
0100
0100
0001
0100
0100
0001
,  // measure 205
1000
0100
0100
0100
1000
0100
0100
1000
,  // measure 206
0001
0100
0100
0100
0001
0100
0100
0001
,  // measure 207
1002
0000
01M0
1000
01M0
0000
11M0
0000
11M0
0000
1MM0
0000
1M10
0000
1MM0
0000
,  // measure 208
1M10
0000
01M0
1000
01M0
0000
11M0
0000
11M0
0000
1MM0
0000
1M10
0000
1MM3
0000
,  // measure 209
2001
01M1
01M1
01M1
01M1
0MM1
0M11
0MM1
,  // measure 210
0M11
01M1
01M1
01M1
01M1
0MM1
0M11
31M1
,  // measure 211
1002
0000
01M0
1000
01M0
0000
11M0
0000
11M0
0000
1MM0
0000
1M10
0000
1MM0
0000
,  // measure 212
1M10
0000
01M0
1000
01M0
0000
11M0
0000
11M0
0000
1MM0
0000
1M10
0000
1MM3
0000
,  // measure 213
2001
01M1
01M1
01M1
01M1
0MM1
0M11
0MM1
,  // measure 214
0M11
01M1
01M1
01M1
01M1
0MM1
0M11
31M1
,  // measure 215
1000
0010
0010
0010
0010
0010
0010
0010
0010
0010
0001
0010
1000
0010
0010
0010
,  // measure 216
1000
0010
0010
0010
0010
0010
0010
0010
0010
0010
0001
0010
1000
0010
0010
0000
,  // measure 217
0001
0100
0100
0100
0100
0100
0100
0100
0100
0100
1000
0100
0001
0100
0100
0100
,  // measure 218
0001
0100
0100
0100
0100
0100
0100
0100
0100
0100
1000
0100
0001
0100
0100
0000
,  // measure 219
1010
0001
0010
0100
1010
0001
0100
0010
1010
0001
0010
0100
1010
0001
0100
0010
,  // measure 220
1100
0010
0100
0001
1100
0001
0100
0010
1100
0010
0100
0001
1010
0101
1100
0000
,  // measure 221
0011
0100
0010
1000
0011
1000
0100
0010
0101
0010
0100
1000
0101
1000
0010
0100
,  // measure 222
0011
0100
0010
1000
0011
1000
0100
0010
0101
0010
0100
1000
0101
0010
0001
0000
,  // measure 223
1010
0100
0010
0100
0010
0100
0010
0100
0011
0100
0011
0100
1010
0001
1100
0001
,  // measure 224
1010
0100
0011
0100
1010
0100
0010
0100
0010
0001
1000
0000
0010
0100
0001
1000
,  // measure 225
0011
0100
0010
0100
1010
0100
0010
0100
0011
1000
0100
0010
0100
1000
0101
1000
,  // measure 226
0011
0100
0010
0100
1010
0100
0010
0100
0011
0100
0011
0100
1010
0100
0001
0000
,  // measure 227
1002
0000
01M0
1000
01M0
0000
11M0
0000
11M0
0000
1MM0
0000
1M10
0000
1MM0
0000
,  // measure 228
1M10
0000
01M0
1000
01M0
0000
11M0
0000
11M0
0000
1MM0
0000
1M10
0000
10M3
0000
,  // measure 229
2001
0000
01M0
0001
01M0
0000
01M1
0000
01M1
0000
0MM1
0000
0M11
0000
0MM1
0000
,  // measure 230
0M11
0000
01M0
0001
01M0
0000
01M1
0000
01M1
0000
0MM1
0000
0M11
0000
3M02
0000
,  // measure 231
0013
0001
1000
0001
0010
0001
1000
0001
0010
0100
1000
0100
0010
0001
1000
0001
,  // measure 232
0010
0001
1000
0001
0010
0001
1000
0001
0010
0100
1000
0100
0010
0001
1000
0001
,  // measure 233
2000
0000
0000
0000
,  // measure 234
0000
0000
0000
0000
0000
0000
0000
3000
,  // measure 235
0010
1000
0001
1000
0010
1000
0001
1000
0010
0100
0001
0100
0010
1000
0001
1000
,  // measure 236
0010
1000
0001
1000
0010
1000
0001
1000
0010
0100
0001
0100
0010
1000
0001
0000
,  // measure 237
0010
0001
1000
0001
0010
0001
1000
0001
0100
0001
0010
0001
0100
0001
1000
0001
,  // measure 238
0010
0001
1000
0001
0010
0001
1000
0001
0100
0001
0010
0001
1000
0001
0100
0000
,  // measure 239
0010
1000
0001
1000
0010
1000
0001
1000
0010
0100
0001
0100
0010
1000
0001
1000
,  // measure 240
0010
1000
0001
1000
0010
1000
0001
1000
0010
0100
0001
0100
0010
1000
0001
0000
,  // measure 241
0010
0001
1000
0001
0010
0001
1000
0001
0100
0001
0010
0001
0100
0001
0010
0001
,  // measure 242
0010
0001
1000
0001
0010
0001
1000
0001
0100
0001
1000
0001
1000
0001
0010
0000
,  // measure 243
0001
0100
0010
0001
0010
0100
0001
0100
0010
0001
0010
0100
0001
0100
0001
0010
0100
0010
0001
0100
0001
0010
0100
0010
,  // measure 244
0001
0100
0010
0001
0010
0100
0001
0100
0010
0001
0010
0100
0001
0100
0001
0010
0100
0010
0001
0100
0001
0010
0100
0010
,  // measure 245
0004
4000
0000
0000
0000
0000
0000
0000
0000
0000
0000
0000
0000
0000
0000
0000
0000
0000
0000
0000
0000
0000
0000
3003
,  // measure 246
0440
0000
0000
0000
0000
0000
0000
0000
0000
0000
0000
0000
0000
0000
0000
0000
0000
0000
0000
0000
0000
0000
0000
0330
,  // measure 247
1000
0100
0010
1000
0010
0100
1000
0100
0010
1000
0010
0100
1000
0100
1000
0010
0100
0010
1000
0100
1000
0010
0100
0010
,  // measure 248
1000
0100
0010
1000
0010
0100
1000
0100
0010
1000
0010
0100
1000
0100
1000
0010
0100
0010
1000
0100
1000
0010
0100
0010
,  // measure 249
4000
0004
0000
0000
0000
0000
0000
0000
0000
0000
0000
0000
0000
0000
0000
0000
0000
0000
0000
0000
0000
0000
0000
3003
,  // measure 250
0440
0000
0000
0000
0000
0000
0000
0000
0000
0000
0000
0000
0000
0000
0000
0000
0000
0000
0000
0000
0000
0000
0000
0330
,  // measure 251
0010
0001
1000
0001
0010
0001
1000
0001
0010
0100
1000
0100
0010
0001
1000
0001
,  // measure 252
0010
0001
1000
0001
0010
0001
1000
0001
0010
0100
1000
0100
0010
0001
1000
0000
,  // measure 253
0010
1000
0100
1000
0010
1000
0100
1000
0001
1000
0010
1000
0001
1000
0100
1000
,  // measure 254
0010
0100
0001
0100
0010
0100
0001
0100
0010
0100
1000
0100
0010
0100
0001
0000
,  // measure 255
0010
0001
1000
0001
0010
0001
1000
0001
0010
0100
1000
0100
0010
0001
1000
0001
,  // measure 256
0010
0001
1000
0001
0010
0001
1000
0001
0010
0100
1000
0100
0010
0001
1000
0000
,  // measure 257
0010
1000
0100
1000
0010
1000
0100
1000
0001
1000
0010
1000
0001
1000
0100
1000
,  // measure 258
0010
0100
0001
0100
0010
0100
0001
0100
0010
0100
1000
0100
0010
0100
0001
0000
,  // measure 259
1000
0000
0000
0010
0000
0000
1000
0000
0000
0010
0000
0000
1000
0000
0000
0010
0000
0000
1000
0000
0100
0000
0010
0000
0001
0000
0000
0010
0000
0000
0001
0000
0000
0010
0000
0000
0001
0000
0000
0010
0000
0000
0001
0000
0100
0000
0010
0000
,  // measure 260
1000
0000
0000
0010
0000
0000
1000
0000
0000
0010
0000
0000
1000
0000
0000
0010
0000
0000
1000
0000
0100
0000
0010
0000
0001
0000
0000
0010
0000
0000
0001
0000
0000
0010
0000
0000
0001
0000
0000
0010
0000
0000
0001
0000
0100
0000
0001
0000
,  // measure 261
1010
0010
1010
0010
1010
0010
1010
0010
1010
0001
1010
0001
1010
0100
1010
0100
,  // measure 262
1100
0010
1100
0010
1100
0010
1100
0010
1100
0001
1100
0001
1100
0100
1100
0000
,  // measure 263
0001
0000
0000
0010
0000
0000
0001
0000
0000
0010
0000
0000
0001
0000
0000
0010
0000
0000
0001
0000
0100
0000
0010
0000
1000
0000
0000
0010
0000
0000
1000
0000
0000
0010
0000
0000
1000
0000
0000
0010
0000
0000
1000
0000
0100
0000
0010
0000
,  // measure 264
0001
0000
0000
0010
0000
0000
0001
0000
0000
0010
0000
0000
0001
0000
0000
0010
0000
0000
0001
0000
0100
0000
0010
0000
1000
0000
0000
0010
0000
0000
1000
0000
0000
0010
0000
0000
1000
0000
0000
0010
0000
0000
1000
0000
0100
0000
1000
0000
,  // measure 265
0011
0010
0011
0010
0011
0010
0011
0010
0011
1000
0011
1000
0011
0100
0011
0100
,  // measure 266
0101
0010
0101
0010
0101
0010
0101
0010
0101
1000
0101
1000
0101
0100
0001
0000
,  // measure 267
1000
0100
0010
0001
1000
0100
0010
0001
,  // measure 268
1100
0110
0011
1001
0101
0110
1010
1001
,  // measure 269
0001
0100
0010
1000
0001
0100
0010
1000
,  // measure 270
0011
0110
1100
1001
1010
0110
0101
1001
,  // measure 271
1000
0100
0010
0001
1000
0100
0010
0001
,  // measure 272
1100
0110
0011
1001
0101
0110
1010
1001
,  // measure 273
0001
0100
0010
1000
0001
0100
0010
1000
,  // measure 274
0011
0110
1100
1001
1010
0110
0101
1001
,  // measure 275
1000
0100
0010
0001
0100
0010
1000
0100
0010
0001
0100
0010
1000
0100
0010
0001
0100
0010
1000
0100
0010
0001
0100
0010
,  // measure 276
1000
0010
0100
0001
0010
0100
1000
0010
0100
0001
0010
0100
2000
0000
0000
0000
0000
0000
0000
0000
0000
0000
0000
0000
,  // measure 277
3000
0000
0000
0000
,  // measure 278
0000
0000
0000
0000
,  // measure 279
0001
0010
0000
1000
0000
0000
0001
0000
0000
1000
0000
0000
0001
0100
0000
1000
0000
0000
0001
0000
0000
1000
0000
0000
0001
0010
0000
1000
0000
0000
0010
1000
0000
1000
0000
0000
0001
0010
0000
1000
0000
0000
0100
0000
0000
0000
0000
0000
,  // measure 280
1000
0010
0000
0001
0000
0000
1000
0000
0000
0001
0000
0000
1000
0100
0000
0001
0000
0000
1000
0000
0000
0001
0000
0000
1000
0010
0000
0001
0000
0000
0010
0001
0000
0001
0000
0000
1000
0010
0000
0001
0000
0000
0100
0000
0000
0000
0000
0000
,  // measure 281
0010
1000
0000
0100
0000
0000
0010
0000
0000
0100
0000
0000
0010
0001
0000
0100
0000
0000
0010
0000
0000
0100
0000
0000
0010
1000
0000
0100
0000
0000
0010
0001
0000
0100
0000
0000
0010
1000
0000
0100
0000
0000
0001
0000
0000
0000
0000
0000
,  // measure 282
0010
0001
0000
0100
0000
0000
0010
0000
0000
0100
0000
0000
0010
1000
0000
0100
0000
0000
0010
0000
0000
0100
0000
0000
0010
0001
0000
0100
0000
0000
0010
1000
0000
0100
0000
0000
0010
0001
0000
0100
0000
0000
1000
0000
0000
0000
0000
0000
,  // measure 283
0001
0100
0000
0010
0000
0000
0100
0000
0000
0010
0000
0000
1000
0100
0000
0010
0000
0000
0100
0000
0000
0010
0000
0000
0001
0100
0000
0010
0000
0000
1000
0100
0000
0010
0000
0000
0001
0100
0000
1000
0000
0000
0001
0000
0000
0000
0000
0000
,  // measure 284
1000
0100
0000
0010
0000
0000
0100
0000
0000
0010
0000
0000
0001
0100
0000
0010
0000
0000
0100
0000
0000
0010
0000
0000
1000
0100
0000
0010
0000
0000
0001
0100
0000
0010
0000
0000
1000
0100
0000
0001
0000
0000
1000
0000
0000
0000
0000
0000
,  // measure 285
0001
0100
0000
0010
0000
0000
0100
0000
0000
1000
0000
0000
0001
0100
0000
0010
0000
0000
0100
0000
0000
1000
0000
0000
0001
0010
0000
0100
0000
0000
0010
1000
0000
0100
0000
0000
0001
0010
0000
1000
0000
0000
0001
0000
0000
0000
0000
0000
,  // measure 286
1000
0100
0000
0010
0000
0000
0100
0000
0000
0001
0000
0000
1000
0100
0000
0010
0000
0000
0100
0000
0000
0001
0000
0000
1000
0010
0000
0100
0000
0000
0010
0001
0000
0100
0000
0000
1000
0010
0000
0001
0000
0000
1000
0000
0000
0000
0000
0000
,  // measure 287
0001
0000
0000
0000
0000
0000
0000
0000
0010
0000
0000
0000
0000
0000
0000
0000
0100
0000
0000
0000
0000
0000
0000
0000
0010
0000
0000
0000
0000
0000
0000
0000
0100
0000
0000
0000
0000
0000
0000
0000
1000
0000
0000
0000
0000
0000
0000
0000
0001
0000
0000
0000
0000
0000
0000
0000
0010
0000
0000
0000
0000
0000
0000
0000
0100
0000
0000
0000
0000
0000
0000
0000
0010
0000
0000
0000
0000
0000
0000
0000
0100
0000
0000
0000
0000
0000
0000
0000
1000
0000
0000
0000
0000
0000
0000
0000
0100
0000
0000
0000
0000
0000
0000
0000
0010
0000
0000
0000
0000
0000
0000
0000
0001
0000
0000
0000
0000
0000
0000
0000
1000
0000
0000
0000
0000
0000
0000
0000
0100
0000
0000
0000
0000
0000
0000
0000
0010
0000
0000
0000
0000
0000
0000
0000
0001
0000
0000
0000
0000
0000
0000
0000
1000
0000
0000
0000
0000
0000
0000
0000
0100
0000
0000
0000
0000
0000
0000
0000
0010
0000
0000
0000
0000
0000
0001
0000
0000
0000
0000
0000
1000
0000
0000
0000
0000
0000
0001
0000
0000
0000
0000
0000
,  // measure 288
1000
0000
0000
0000
0000
0000
0000
0000
0010
0000
0000
0000
0000
0000
0000
0000
0100
0000
0000
0000
0000
0000
0000
0000
0010
0000
0000
0000
0000
0000
0000
0000
0100
0000
0000
0000
0000
0000
0000
0000
0001
0000
0000
0000
0000
0000
0000
0000
1000
0000
0000
0000
0000
0000
0000
0000
0010
0000
0000
0000
0000
0000
0000
0000
0100
0000
0000
0000
0000
0000
0000
0000
0010
0000
0000
0000
0000
0000
0000
0000
0100
0000
0000
0000
0000
0000
0000
0000
0001
0000
0000
0000
0000
0000
0000
0000
0100
0000
0000
0000
0000
0000
0000
0000
0010
0000
0000
0000
0000
0000
0000
0000
1000
0000
0000
0000
0000
0000
0000
0000
0001
0000
0000
0000
0000
0000
0000
0000
0100
0000
0000
0000
0000
0000
0000
0000
0010
0000
0000
0000
0000
0000
0000
0000
1000
0000
0000
0000
0000
0000
0000
0000
0001
0000
0000
0000
0000
0000
0000
0000
0100
0000
0000
0000
0000
0000
0000
0000
0010
0000
0000
0000
0000
0000
1000
0000
0000
0000
0000
0000
0001
0000
0000
0000
1000
0000
0000
0000
0001
0000
0000
0000
,  // measure 289
1000
0010
0100
0001
1000
0010
0100
0001
1000
0010
0100
0001
1000
0100
0010
0001
1000
0100
0010
0001
1000
0100
0010
0001
,  // measure 290
0200
0000
0300
0000
,  // measure 291
0140
1000
0100
1000
0100
1000
0100
1030
0410
0001
0010
0001
0010
0001
0010
0301
,  // measure 292
0140
0001
0100
0001
0100
0001
0100
0031
0410
1000
0010
1000
0010
1000
0010
1300
,  // measure 293
1040
0001
1000
0001
1000
0001
1000
0031
1400
0001
1000
0001
1000
0001
1000
0301
,  // measure 294
0140
1000
0100
1000
0100
1000
0100
1030
0410
0001
0010
0001
0010
0001
0010
0301
,  // measure 295
1000
1000
1000
0010
0001
0001
0001
0100
,  // measure 296
1000
1000
1000
0010
0100
0100
0100
0100
,  // measure 297
0010
0010
0010
0010
0100
0100
0100
0100
,  // measure 298
0001
0001
0001
0001
1000
0001
1000
0000
,  // measure 299
0010
0010
0010
0010
0010
0010
0001
0001
0001
1000
1000
1000
0010
0010
0010
0010
0010
0010
0001
0001
0001
1000
1000
1000
,  // measure 300
0010
0010
0010
0010
0010
0010
0001
0001
0001
0100
0100
0100
0010
0010
0010
0010
0010
0010
0010
0010
0010
0010
0010
0000
,  // measure 301
1000
1000
1000
1000
1000
1000
0100
0100
0100
0001
0001
0001
1000
1000
1000
1000
1000
1000
0100
0100
0100
0001
0001
0001
,  // measure 302
1000
1000
1000
1000
1000
1000
0100
0100
0100
0010
0010
0010
0100
0100
0100
0100
0100
0100
0100
0100
0100
0100
0100
0000
,  // measure 303
0001
0100
1000
0100
0001
0000
0010
0000
1000
0000
0010
0000
0001
0000
1000
0000
0001
0100
1000
0100
0001
0000
0010
0000
1000
0000
0010
0000
0001
0000
0000
0000
,  // measure 304
1000
0100
0001
0100
1000
0000
0100
0000
0010
0000
0001
0000
0010
0000
0100
0000
1000
0000
0001
0000
1000
0000
0100
0000
0010
0000
0001
0000
0010
0000
0100
0000
,  // measure 305
1000
0010
0001
0010
1000
0000
0100
0000
0001
0000
0100
0000
1000
0000
0010
0000
1000
0010
0001
0010
1000
0000
0100
0000
0001
0000
0100
0000
1000
0000
0010
0000
,  // measure 306
1000
0010
0001
0010
1000
0000
0100
0000
1000
0000
0001
0000
0100
0000
0010
0000
2000
0000
0000
0000
0000
0000
0000
0000
0000
0000
0000
0000
3000
0000
0000
0000
,  // measure 307
0001
0000
0000
0000
0000
0000
0000
0000
0010
0000
0000
0000
0000
0000
0000
0000
0100
0000
0000
0000
0000
0000
0000
0000
1000
0000
0000
0000
0000
0000
0000
0000
0010
0000
0000
0000
0000
0000
0000
0000
0100
0000
0000
0000
0000
0000
0000
0000
0001
0000
0000
0000
0000
0000
0000
0000
0010
0000
0000
0000
0000
0000
0000
0000
0100
0000
0000
0000
0000
0000
0000
0000
1000
0000
0000
0000
0000
0000
0000
0000
0010
0000
0000
0000
0000
0000
0000
0000
0100
0000
0000
0000
0000
0000
0000
0000
0001
0000
0000
0000
0000
0000
0000
0000
0010
0000
0000
0000
0000
0000
0000
0000
0100
0000
0000
0000
0000
0000
0000
0000
1000
0000
0000
0000
0000
0000
0000
0000
0010
0000
0000
0000
0000
0000
0000
0000
0100
0000
0000
0000
0000
0000
0000
0000
0001
0000
0000
0000
0000
0000
1000
0000
0000
0000
0000
0000
0001
0000
0000
0000
0000
0000
0000
0000
0000
0000
0000
0000
0010
0000
0000
0000
0000
0000
0000
0000
0000
0000
0000
0000
0100
0000
0000
0000
0000
0000
0000
0000
0000
0000
0000
0000
,  // measure 308
1000
0000
0000
0000
0000
0000
0000
0000
0010
0000
0000
0000
0000
0000
0000
0000
0100
0000
0000
0000
0000
0000
0000
0000
0001
0000
0000
0000
0000
0000
0000
0000
0010
0000
0000
0000
0000
0000
0000
0000
0100
0000
0000
0000
0000
0000
0000
0000
1000
0000
0000
0000
0000
0000
0000
0000
0010
0000
0000
0000
0000
0000
0000
0000
0100
0000
0000
0000
0000
0000
0000
0000
0001
0000
0000
0000
0000
0000
0000
0000
0010
0000
0000
0000
0000
0000
0000
0000
0100
0000
0000
0000
0000
0000
0000
0000
1000
0000
0000
0000
0000
0000
0000
0000
0010
0000
0000
0000
0000
0000
0000
0000
0100
0000
0000
0000
0000
0000
0000
0000
0001
0000
0000
0000
0000
0000
0000
0000
0010
0000
0000
0000
0000
0000
0000
0000
0100
0000
0000
0000
0000
0000
0000
0000
1000
0000
0000
0000
0000
0000
0001
0000
0000
0000
0000
0000
1000
0000
0000
0000
0000
0000
0000
0000
0000
0000
0000
0000
0010
0000
0000
0000
0000
0000
0000
0000
0000
0000
0000
0000
0100
0000
0000
0000
0000
0000
0000
0000
0000
0000
0000
0000
,  // measure 309
0001
0000
0000
0000
0000
0000
0000
0000
0010
0000
0000
0000
0000
0000
0000
0000
0100
0000
0000
0000
0000
0000
0000
0000
1000
0000
0000
0000
0000
0000
0000
0000
0010
0000
0000
0000
0000
0000
0000
0000
0100
0000
0000
0000
0000
0000
0000
0000
0001
0000
0000
0000
0000
0000
0000
0000
0010
0000
0000
0000
0000
0000
0000
0000
0100
0000
0000
0000
0000
0000
0000
0000
1000
0000
0000
0000
0000
0000
0000
0000
0010
0000
0000
0000
0000
0000
0000
0000
0100
0000
0000
0000
0000
0000
0000
0000
0001
0000
0000
0000
0000
0000
0000
0000
0010
0000
0000
0000
0000
0000
0000
0000
0100
0000
0000
0000
0000
0000
0000
0000
1000
0000
0000
0000
0000
0000
0000
0000
0010
0000
0000
0000
0000
0000
0000
0000
0100
0000
0000
0000
0000
0000
0000
0000
0001
0000
0000
0000
0000
0000
1000
0000
0000
0000
0000
0000
0001
0000
0000
0000
0000
0000
0000
0000
0000
0000
0000
0000
0010
0000
0000
0000
0000
0000
0000
0000
0000
0000
0000
0000
0100
0000
0000
0000
0000
0000
0000
0000
0000
0000
0000
0000
,  // measure 310
1000
0000
0000
0000
0000
0000
0000
0000
0010
0000
0000
0000
0000
0000
0000
0000
0100
0000
0000
0000
0000
0000
0000
0000
0001
0000
0000
0000
0000
0000
0000
0000
0010
0000
0000
0000
0000
0000
0000
0000
0100
0000
0000
0000
0000
0000
0000
0000
1000
0000
0000
0000
0000
0000
0000
0000
0010
0000
0000
0000
0000
0000
0000
0000
0100
0000
0000
0000
0000
0000
0000
0000
0001
0000
0000
0000
0000
0000
0000
0000
0010
0000
0000
0000
0000
0000
0000
0000
0100
0000
0000
0000
0000
0000
0000
0000
1000
0000
0000
0000
0000
0000
0000
0000
0010
0000
0000
0000
0000
0000
0000
0000
0100
0000
0000
0000
0000
0000
0000
0000
0001
0000
0000
0000
0000
0000
0000
0000
0010
0000
0000
0000
0000
0000
0000
0000
0100
0000
0000
0000
0000
0000
0000
0000
1000
0000
0000
0000
0000
0000
0001
0000
0000
0000
0000
0000
1000
0000
0000
0000
0000
0000
0000
0000
0000
0000
0000
0000
0100
0000
0000
0000
0000
0000
0000
0000
0000
0000
0000
0000
0000
0000
0000
0000
0000
0000
0000
0000
0000
0000
0000
0000
,  // measure 311
1000
0010
1000
0010
0001
0010
0100
0001
1000
0010
1000
0010
0001
0010
0100
0001
,  // measure 312
1000
0010
1000
0010
0001
0010
0100
0001
0010
0100
0010
0001
0010
0100
1000
1000
,  // measure 313
0001
0010
0001
0010
1000
0010
0100
1000
0001
0010
0001
0010
1000
0010
0100
1000
,  // measure 314
0001
0010
0001
0010
1000
0010
0100
1000
0010
0100
0010
1000
0010
0100
0001
0001
,  // measure 315
1000
0100
1000
0100
0001
0100
0010
0001
1000
0100
1000
0100
0001
0100
0010
0001
,  // measure 316
1000
0100
1000
0100
0001
0100
0010
0001
0100
0010
0100
0001
0100
0010
1000
1000
,  // measure 317
0001
0100
0001
0100
1000
0100
0010
1000
0001
0100
0001
0100
1000
0100
0010
1000
,  // measure 318
0001
0100
0001
0100
0010
0100
0010
1000
0001
0100
0001
0100
0010
1000
0001
0000
,  // measure 319
1000
0100
0000
0011
0000
0000
1000
0100
0000
0011
0000
0000
0001
0000
0000
0011
0000
0000
0100
0000
0000
0001
0000
0000
1000
0100
0000
0011
0000
0000
1000
0100
0000
0011
0000
0000
0001
0000
0000
0011
0000
0000
0100
0000
0000
0001
0000
0000
,  // measure 320
1000
0100
0000
0011
0000
0000
1000
0100
0000
0011
0000
0000
0001
0000
0000
0011
0000
0000
0100
0000
0000
0001
0000
0000
0010
0000
0000
0100
0000
0000
0010
0000
0000
0001
0000
0000
0010
0000
0000
0100
0000
0000
1000
0000
0000
1000
0000
0000
,  // measure 321
0001
0100
0000
1010
0000
0000
0001
0100
0000
1010
0000
0000
1000
0000
0000
1010
0000
0000
0100
0000
0000
1000
0000
0000
0001
0100
0000
1010
0000
0000
0001
0100
0000
1010
0000
0000
1000
0000
0000
1010
0000
0000
0100
0000
0000
1000
0000
0000
,  // measure 322
0001
0100
0000
1010
0000
0000
0001
0100
0000
1010
0000
0000
1000
0000
0000
1010
0000
0000
0100
0000
0000
1000
0000
0000
0010
0000
0000
0100
0000
0000
0010
0000
0000
1000
0000
0000
0010
0000
0000
0100
0000
0000
0001
0000
0000
0001
0000
0000
,  // measure 323
1000
0010
0000
0101
0000
0000
1000
0010
0000
0101
0000
0000
0001
0000
0000
0101
0000
0000
0010
0000
0000
0001
0000
0000
1000
0010
0000
0101
0000
0000
1000
0010
0000
0101
0000
0000
0001
0000
0000
0101
0000
0000
0010
0000
0000
0001
0000
0000
,  // measure 324
1000
0010
0000
0101
0000
0000
1000
0010
0000
0101
0000
0000
0001
0000
0000
0101
0000
0000
0010
0000
0000
0001
0000
0000
0100
0000
0000
0010
0000
0000
0100
0000
0000
0001
0000
0000
0100
0000
0000
0010
0000
0000
1000
0000
0000
1000
0000
0000
,  // measure 325
0001
0010
0000
1100
0000
0000
0001
0010
0000
1100
0000
0000
1000
0000
0000
1100
0000
0000
0010
0000
0000
1000
0000
0000
0001
0010
0000
1100
0000
0000
0001
0010
0000
1100
0000
0000
1000
0000
0000
1100
0000
0000
0010
0000
0000
1000
0000
0000
,  // measure 326
0001
0010
0000
1100
0000
0000
0001
0010
0000
1100
0000
0000
0010
0000
0000
1100
0000
0000
0010
0000
0000
1000
0000
0000
0001
0010
0000
1100
0000
0000
0001
0010
0000
1100
0000
0000
0010
0000
0000
1100
0000
0000
0001
0000
0000
0000
0000
0000
,  // measure 327
1000
0010
0100
0001
1000
0010
0100
0001
1000
0010
0100
0001
1000
0010
0100
0001
,  // measure 328
1010
0101
1100
0011
1010
0101
1100
0011
1010
0101
1100
0011
1010
0101
1100
0000
,  // measure 329
0001
0010
0100
1000
0001
0010
0100
1000
0001
0010
0100
1000
0001
0010
0100
1000
,  // measure 330
0011
1100
0101
1010
0011
1100
0101
1010
0011
1100
0101
1010
0011
1100
0101
0000
,  // measure 331
1000
0010
0100
0001
1000
0010
0100
0001
1000
0010
0100
0001
1000
0010
0100
0001
,  // measure 332
1010
0101
0011
1100
1010
0101
0011
1100
1010
0101
0011
1100
1010
0101
1100
0000
,  // measure 333
0001
0010
0100
1000
0001
0010
0100
1000
0001
0010
0100
1000
0001
0010
0100
1000
,  // measure 334
0011
1010
0101
1100
0011
1010
0101
1100
0011
1010
0101
1100
0011
1010
0101
0000
,  // measure 335
1000
0000
1000
L101
1L0L
L101
1L0L
L101
,  // measure 336
1L0L
0000
1000
L101
1L0L
L101
1L0L
L101
,  // measure 337
0L1L
0000
0010
10L1
L01L
10L1
L01L
10L1
,  // measure 338
L01L
0000
0010
10L1
L01L
10L1
L01L
10L1
,  // measure 339
L001
0000
0001
101L
L0L1
101L
L0L1
101L
,  // measure 340
L0L1
0000
0001
101L
L0L1
101L
L0L1
101L
,  // measure 341
L1L0
0000
0100
1L01
L10L
1L01
L10L
1L01
,  // measure 342
L10L
0000
0100
1L01
L10L
1L01
L10L
1L01
,  // measure 343
0001
0010
0100
0001
0100
1000
0001
0010
0100
0001
0100
1000
0001
0010
0100
0001
0100
1000
0001
0010
0100
0001
0100
1000
,  // measure 344
0001
0010
0100
0001
0100
1000
0001
0010
0100
0001
0100
1000
0001
0010
0100
0001
0100
1000
0001
0010
0100
0001
0100
1000
,  // measure 345
0001
0010
0100
0001
0100
1000
0001
0010
0100
0001
0100
1000
0001
0010
0100
0001
0100
1000
0001
0010
0100
0001
0100
1000
,  // measure 346
0001
0000
0000
0000
0000
0000
0000
0000
0010
0000
0000
0000
0000
0000
0000
0000
0100
0000
0000
0000
0000
0000
0000
0000
0001
0000
0000
0000
0000
0000
0000
0000
0100
0000
0000
0000
0000
0000
0000
0000
1000
0000
0000
0000
0000
0000
0000
0000
0001
0000
0000
0000
0000
0000
0000
0000
0010
0000
0000
0000
0000
0000
0000
0000
0100
0000
0000
0000
0000
0000
0000
0000
0001
0000
0000
0000
0000
0000
0000
0000
0100
0000
0000
0000
0000
0000
0000
0000
1000
0000
0000
0000
0000
0000
0000
0000
0001
0000
0000
0000
0000
0000
0000
0000
0010
0000
0000
0000
0000
0000
0000
0000
0100
0000
0000
0000
0000
0000
0000
0000
0001
0000
0000
0000
0000
0000
0000
0000
0100
0000
0000
0000
0000
0000
0000
0000
1000
0000
0000
0000
0000
0000
0000
0000
0001
0000
0000
0000
0000
0000
0010
0000
0000
0000
0000
0000
0100
0000
0000
0000
0000
0000
1000
0000
0000
0000
0000
0000
0001
0000
0000
0000
0000
0000
0000
0000
0000
0000
0000
0000
0000
0000
0000
0000
0000
0000
0000
0000
0000
0000
0000
0000
,  // measure 347
1000
0000
0000
0000
0000
0000
0000
0000
0010
0000
0000
0000
0000
0000
0000
0000
0100
0000
0000
0000
0000
0000
0000
0000
1000
0000
0000
0000
0000
0000
0000
0000
0100
0000
0000
0000
0000
0000
0000
0000
0001
0000
0000
0000
0000
0000
0000
0000
1000
0000
0000
0000
0000
0000
0000
0000
0010
0000
0000
0000
0000
0000
0000
0000
0100
0000
0000
0000
0000
0000
0000
0000
1000
0000
0000
0000
0000
0000
0000
0000
0100
0000
0000
0000
0000
0000
0000
0000
0001
0000
0000
0000
0000
0000
0000
0000
1000
0000
0000
0000
0000
0000
0000
0000
0010
0000
0000
0000
0000
0000
0000
0000
0100
0000
0000
0000
0000
0000
0000
0000
1000
0000
0000
0000
0000
0000
0000
0000
0100
0000
0000
0000
0000
0000
0000
0000
0001
0000
0000
0000
0000
0000
0000
0000
1000
0000
0000
0000
0000
0000
0010
0000
0000
0000
0000
0000
1000
0000
0000
0000
0000
0000
0010
0000
0000
0000
0000
0000
0100
0000
0000
0000
0000
0000
0000
0000
0000
0000
0000
0000
0001
0000
0000
0000
0000
0000
0000
0000
0000
0000
0000
0000
,  // measure 348
1000
0000
0000
0000
0000
0000
0000
0000
0010
0000
0000
0000
0000
0000
0000
0000
0100
0000
0000
0000
0000
0000
0000
0000
1000
0000
0000
0000
0000
0000
0000
0000
0100
0000
0000
0000
0000
0000
0000
0000
0001
0000
0000
0000
0000
0000
0000
0000
1000
0000
0000
0000
0000
0000
0000
0000
0010
0000
0000
0000
0000
0000
0000
0000
0100
0000
0000
0000
0000
0000
0000
0000
1000
0000
0000
0000
0000
0000
0000
0000
0100
0000
0000
0000
0000
0000
0000
0000
0001
0000
0000
0000
0000
0000
0000
0000
1000
0000
0000
0000
0000
0000
0000
0000
0010
0000
0000
0000
0000
0000
0000
0000
0100
0000
0000
0000
0000
0000
0000
0000
1000
0000
0000
0000
0000
0000
0000
0000
0100
0000
0000
0000
0000
0000
0000
0000
0001
0000
0000
0000
0000
0000
0000
0000
1000
0000
0000
0000
0000
0000
0010
0000
0000
0000
0000
0000
1000
0000
0000
0000
0000
0000
0010
0000
0000
0000
0000
0000
0100
0000
0000
0000
0000
0000
0000
0000
0000
0000
0000
0000
0001
0000
0000
0000
0000
0000
0000
0000
0000
0000
0000
0000
,  // measure 349
1000
0000
0000
0000
0000
0000
0000
0000
0010
0000
0000
0000
0000
0000
0000
0000
0100
0000
0000
0000
0000
0000
0000
0000
1000
0000
0000
0000
0000
0000
0000
0000
0100
0000
0000
0000
0000
0000
0000
0000
0001
0000
0000
0000
0000
0000
0000
0000
1000
0000
0000
0000
0000
0000
0000
0000
0010
0000
0000
0000
0000
0000
0000
0000
0100
0000
0000
0000
0000
0000
0000
0000
1000
0000
0000
0000
0000
0000
0000
0000
0100
0000
0000
0000
0000
0000
0000
0000
0001
0000
0000
0000
0000
0000
0000
0000
1000
0000
0000
0000
0000
0000
0000
0000
0010
0000
0000
0000
0000
0000
0000
0000
0100
0000
0000
0000
0000
0000
0000
0000
1000
0000
0000
0000
0000
0000
0000
0000
0100
0000
0000
0000
0000
0000
0000
0000
0001
0000
0000
0000
0000
0000
0000
0000
1000
0000
0000
0000
0000
0000
0010
0000
0000
0000
0000
0000
0100
0000
0000
0000
0000
0000
0001
0000
0000
0000
0000
0000
1000
0000
0000
0000
0000
0000
0000
0000
0000
0000
0000
0000
0001
0000
0000
0000
0000
0000
0000
0000
0000
0000
0000
0000
,  // measure 350
0010
1000
0100
0001
0010
1000
0100
0001
0010
1000
0100
0001
0010
1000
0100
0001
0010
1000
0100
0001
0010
1000
0100
0001
0010
1000
0100
0001
0010
1000
0000
0000
,  // measure 351
1001
1001
0110
0110
1001
1001
0110
0110
,  // measure 352
1001
1001
0110
0110
1001
1001
0110
0110
,  // measure 353
1001
1001
0110
0110
1001
1001
0110
0110
,  // measure 354
1001
1001
0110
0110
1001
1001
0110
0110
,  // measure 355
0101
0000
0101
0000
0101
0000
0101
0000
1010
0101
1010
0101
1010
0000
0101
0000
,  // measure 356
1100
0000
1100
0000
1100
0000
1100
0000
0011
1100
0011
1100
0011
0000
1100
0000
,  // measure 357
0101
0000
0101
0000
0101
0000
0101
0000
1010
0101
1010
0101
1010
0000
0101
0000
,  // measure 358
1100
0000
1100
0000
1100
0000
1100
0000
0011
1100
0011
1100
0011
0000
1100
0000
,  // measure 359
1001
0000
1001
0000
1001
0000
1001
0000
0011
1010
0011
1100
0101
1100
0101
0000
,  // measure 360
1001
0000
1001
0000
1001
0000
1001
0000
1010
0011
1010
0101
1100
0101
1100
0000
,  // measure 361
1001
0000
1001
0000
1001
0000
1001
0000
0011
1010
0011
1100
0101
1100
0101
0000
,  // measure 362
1001
0000
1001
0000
1001
0000
1001
0000
1010
0011
1010
0101
1100
0101
1100
0000
,  // measure 363
1011
0000
1101
0000
1011
0000
1101
0000
0011
1100
0011
1100
0011
0000
1101
0000
,  // measure 364
1011
1101
1011
1101
0011
0011
0110
1100
,  // measure 365
1011
0000
1101
0000
1011
0000
1101
0000
0011
1100
0011
1100
0011
0000
1101
0000
,  // measure 366
1011
1101
1011
1101
1010
1010
0110
0101
,  // measure 367
1000
1000
1000
1000
1000
1000
1000
1000
,  // measure 368
1000
1000
1000
1000
0001
0001
0001
0100
,  // measure 369
0010
0010
0010
0010
1000
1000
0001
0100
,  // measure 370
0010
0010
0010
0010
1000
1000
0001
0100
,  // measure 371
0001
0001
0001
0001
0001
0001
0001
0001
,  // measure 372
0001
0001
0001
0001
1000
1000
1000
0100
,  // measure 373
0010
0010
0010
0010
0001
0001
1000
0100
,  // measure 374
0010
0010
0010
0010
0001
0001
1000
0100
,  // measure 375
0111
0000
1110
0000
0111
0000
1110
0000
0111
0000
1000
0100
0001
0100
0010
0000
,  // measure 376
1110
0000
0111
0000
1110
0000
0111
0000
1110
0000
0001
0100
1000
0100
0010
0000
,  // measure 377
0111
0000
1110
0000
0111
0000
1110
0000
0111
0000
1000
0100
0001
0100
0010
0000
,  // measure 378
1110
0000
0111
0000
1110
0000
0111
0000
1110
0000
0001
0100
1000
0100
0010
0000
,  // measure 379
0111
0000
1000
0100
0001
0100
0010
0000
0111
0000
1000
0100
0001
0100
0010
0000
,  // measure 380
0111
0000
1000
0100
0001
0100
0010
0000
0111
0000
1000
0001
1000
0000
0111
0000
,  // measure 381
1110
0111
1110
0111
1110
0111
1110
0111
,  // measure 382
1110
0111
1110
0111
1110
0111
2222
0000
,  // measure 383
0000
0000
3333
0000
0010
0000
0000
0000
0100
0100
0010
0100
0200
0000
0000
0000
,  // measure 384
0300
0000
0000
2222
,  // measure 385
0000
0000
3333
0000
0010
0000
0000
0000
0100
0100
0010
0100
0200
0000
0000
0000
,  // measure 386
0300
0000
0000
0000
;
