#VERSION:0.83;
#TITLE:So Damn Tough;
#SUBTITLE:;
#ARTIST:Crazy Astronaut;
#TITLETRANSLIT:;
#SUBTITLETRANSLIT:;
#ARTISTTRANSLIT:;
#GENRE:;
#ORIGIN:;
#CREDIT:;
#BANNER:;
#BACKGROUND:;
#PREVIEWVID:;
#JACKET:;
#CDIMAGE:;
#DISCIMAGE:;
#LYRICSPATH:;
#CDTITLE:;
#MUSIC:so-damn-tough.ogg;
#OFFSET:0.000000;
#SAMPLESTART:21.955793;
#SAMPLELENGTH:21.942858;
#SELECTABLE:YES;
#DISPLAYBPM:175.000000;
#BPMS:0.000=175.000,
156.000=87.500,
158.000=175.000,
250.000=87.500,
252.000=175.000;
#STOPS:;
#DELAYS:;
#WARPS:;
#TIMESIGNATURES:0.000=4=4;
#TICKCOUNTS:0.000=4;
#COMBOS:0.000=1;
#SPEEDS:0.000=1.000=0.000=0;
#SCROLLS:0.000=1.000,
218.000=1.250,
218.500=1.500,
219.000=1.750,
219.500=2.000,
220.000=2.500,
220.500=3.000,
221.000=4.000,
221.500=1.000,
250.000=2.000,
250.250=1.500,
250.500=1.250,
250.750=1.000,
251.000=0.750,
251.250=0.500,
251.500=0.250,
251.750=0.000,
252.000=1.000,
498.000=0.000,
498.250=1.000,
498.500=0.000,
498.750=1.000,
530.000=4.000,
530.500=3.000,
531.000=2.000,
531.500=1.000,
562.000=2.000,
562.500=1.750,
563.000=1.500,
563.500=1.250,
564.000=1.000,
592.000=0.800,
592.500=0.600,
593.000=0.400,
593.500=0.200,
594.000=0.500,
594.500=0.750,
595.000=1.500,
596.000=1.000,
624.000=0.900,
624.750=0.800,
625.500=0.700,
626.000=0.800,
626.750=0.900,
627.750=1.000;
#FAKES:;
#LABELS:0.000=Song Start,
32.000=start,
64.000=dubstep 1,
88.000=build 1,
112.000=build 2,
128.000=stream 1,
156.000=fill 1,
158.000=stream 2,
182.000=fill 2,
190.000=stream 3,
218.000=fill 3,
222.000=stream 4,
250.000=fill 4,
251.750=0 scroll factor LOL,
252.000=stream 5,
284.000=change beat 1,
316.000=build 3,
332.000=chill 1,
348.000=chill 2,
364.000=rise 1,
396.000=rise 2,
412.000=build 4,
428.000=fill 5,
436.000=drop 1,
464.000=fill 6,
468.000=drop 2,
496.000=fill 7,
500.000=drop 3,
528.000=fill 8,
532.000=drop 4,
560.000=fill 9,
564.000=drop 5,
592.000=fill 10,
596.000=drop 6,
624.000=fill 11,
628.000=drop 7,
660.000=fill 12,
664.000=drop 8 (tech),
724.000=last fill,
728.000=ending stream,
792.000=final goodbye,
852.000=so damn tough,
864.000=end;
#BGCHANGES:;
#KEYSOUNDS:;
#ATTACKS:
;

//---------------dance-single - ----------------
#NOTEDATA:;
#CHARTNAME:Some Tech;
#STEPSTYPE:dance-single;
#DESCRIPTION:;
#CHARTSTYLE:Pad;
#DIFFICULTY:Challenge;
#METER:15;
#RADARVALUES:1.245207,1.481060,0.217409,0.521783,1.846308,2606.000000,2519.000000,65.000000,156.000000,117.000000,30.000000,42.000000,0.000000,0.000000,1.245207,1.481060,0.217409,0.521783,1.846308,2606.000000,2519.000000,65.000000,156.000000,117.000000,30.000000,42.000000,0.000000,0.000000;
#CREDIT:Elik;
#DISPLAYBPM:175.000000;
#NOTES:
// measure 0
0000
0000
0000
0000
,  // measure 1
0000
0000
0000
0000
,  // measure 2
0000
0000
0000
0000
,  // measure 3
0000
0000
0000
0000
,  // measure 4
2002
0000
0000
0000
,  // measure 5
0000
0000
0000
0000
,  // measure 6
3003
0000
0000
0000
,  // measure 7
2000
3200
0320
0030
,  // measure 8
0001
0000
1000
0000
0010
0100
0001
1000
0000
0000
0100
0000
0000
0010
0001
1000
,  // measure 9
0010
0000
0100
0000
0001
1000
0100
0010
0000
0000
0001
0000
0000
1000
0010
0100
,  // measure 10
0001
0000
1000
0000
0100
0010
0001
1000
0000
0000
0010
0000
0000
0100
0001
1000
,  // measure 11
0100
0000
0010
0000
0001
1000
0010
0100
0000
0000
0001
0000
1100
0001
1100
0001
,  // measure 12
1100
0000
0001
0000
0010
0100
0010
0001
0000
0000
1000
0000
0010
0100
0001
1000
,  // measure 13
0100
0000
0010
0000
0001
1000
0010
0100
0000
0000
0010
0000
1000
0001
0010
0100
,  // measure 14
1000
0000
0001
0000
0100
0010
1000
0001
0000
0000
0010
0000
0100
1000
0001
0100
,  // measure 15
2002
0000
0000
0000
0000
0000
0000
3003
1000
0100
0010
0001
1000
0010
0100
0001
,  // measure 16
0202
0300
0000
0000
4003
0000
0000
0000
3100
M000
0100
0000
0001
0000
0010
0000
,  // measure 17
0100
00M0
0100
0000
0001
0000
0010
0000
0100
00M0
0100
0000
0001
0000
0010
0000
,  // measure 18
2200
0300
0011
0000
3004
1000
1000
1003
,  // measure 19
4001
0000
0000
0000
0001
0000
0000
0000
0010
0000
0000
0000
0001
0000
3000
0000
0010
M000
0010
0000
0001
0000
1000
0000
0010
M000
0010
0000
0001
0000
0000
0000
,  // measure 20
2020
3000
0000
0000
0430
0000
0300
0000
0022
0003
0000
0000
0430
0000
0300
0000
,  // measure 21
2020
3000
0000
0000
1030
0100
0010
0001
0024
0000
0000
0000
0000
0000
0033
0000
,  // measure 22
1021
0030
1021
0030
,  // measure 23
1201
0300
1201
0300
,  // measure 24
1121
0030
1211
0300
,  // measure 25
1112
0003
2111
3000
,  // measure 26
2121
3030
1212
0303
,  // measure 27
2112
3003
2211
3300
,  // measure 28
0022
0000
2200
0033
0022
3300
2200
0033
,  // measure 29
0022
3300
2200
0033
0022
3300
2200
0033
,  // measure 30
3310
1000
0001
0010
0100
1000
0001
0010
,  // measure 31
0100
1000
0001
0010
0100
1000
0001
0010
0100
2000
0002
0000
0000
0000
3003
0000
,  // measure 32
1000
0100
1000
0100
0010
0001
0010
0001
1000
0100
1000
0100
0010
0001
0010
0001
,  // measure 33
1000
0010
1000
0010
0100
0001
0100
0001
1000
0010
1000
0010
0100
0001
0100
0001
,  // measure 34
0010
0100
0010
0100
1000
0001
1000
0001
0100
0010
0100
0010
1000
0001
1000
0001
,  // measure 35
1000
0010
1000
0010
0100
0001
0100
0001
0010
0001
0010
0001
1000
0100
1000
0100
,  // measure 36
0010
0001
0100
0010
1000
0010
0100
0001
1000
0100
1000
0100
0010
0100
0010
0100
,  // measure 37
1000
0001
1000
0001
0100
0010
0100
0010
1000
0001
1000
0001
0100
0010
0100
0010
,  // measure 38
1000
0001
1000
0001
0100
0010
0100
0010
1000
0001
1000
0001
0100
0010
0100
001M
,  // measure 39
1000
0001
1000
0001
0100
0010
0100
0010
1000
0001
1000
0001
0100
0010
0100
001M
1000
0000
0001
0000
0010
0000
0100
0000
1000
0000
0010
0000
0100
0000
0010
0000
,  // measure 40
1000
0100
0010
0001
0010
0100
0010
0001
0010
0100
1000
0010
0100
0001
0100
0010
,  // measure 41
0100
0001
1000
0010
1000
0100
0010
0100
1000
0001
0100
0001
1000
0100
1000
0001
,  // measure 42
0100
0001
1000
0100
1000
0001
0100
0001
1000
0100
1000
0001
0100
0010
0100
0001
,  // measure 43
1000
0001
0010
0100
0010
0001
1000
0010
0100
0001
1000
0100
0010
0001
1000
0010
,  // measure 44
0100
0001
1000
0100
0010
0001
1000
0010
0100
0001
1000
0010
0100
0001
1000
0010
,  // measure 45
0100
0001
1000
0010
0100
0001
1000
0010
0400
0000
0001
0000
0010
0000
0001
0000
,  // measure 46
0010
0001
0010
0001
0301
0100
0010
1000
,  // measure 47
0001
0100
0010
0100
0001
1000
0100
0010
0100
1000
0010
0100
0010
1000
0100
0010
,  // measure 48
0001
1000
0010
0100
0010
0100
0001
1000
0001
1000
0100
0010
0001
1000
0010
0100
,  // measure 49
0010
1000
0001
0010
0100
1000
0001
0010
0100
1000
0010
0100
0001
0010
0100
1000
,  // measure 50
0010
0100
0010
0100
0001
1000
0010
1000
0100
0010
0001
0100
0001
1000
0100
0010
,  // measure 51
0001
0100
0001
0010
0100
1000
0010
1000
0100
0010
0001
1000
0010
0100
0010
0100
,  // measure 52
0001
1000
0100
0010
0100
1000
0010
0100
0010
1000
0100
0010
0001
0100
0010
0100
,  // measure 53
0001
0010
0100
1000
0010
0100
0010
1000
0100
0010
0001
0100
0010
0100
0001
0010
,  // measure 54
0100
1000
0010
1000
0100
0010
0001
0100
M002
0000
M000
0000
M000
0000
M000
0000
,  // measure 55
M000
0000
M000
0000
M000
0000
M000
0000
M000
M000
M000
M000
0000
0000
0000
0000
0103
0000
0001
0000
0100
0000
0001
0000
0100
0000
0010
0000
1000
0000
0001
0000
,  // measure 56
0010
0100
0010
0001
1000
0010
0100
0001
1000
0100
0010
0100
1000
0001
0100
0010
,  // measure 57
0100
0001
1000
0100
0010
0001
1000
0010
0100
0010
1000
0001
0010
0100
0010
0001
,  // measure 58
1000
0010
0100
0010
1000
0001
0010
0100
1000
0010
0100
0001
1000
0100
0010
0100
,  // measure 59
1000
0001
0100
0010
0100
0001
1000
0100
0010
0100
1000
0001
0100
0010
1000
0001
,  // measure 60
0010
0100
1000
0010
0100
0010
1000
0100
0010
0001
1000
0010
0100
0001
0010
M100
,  // measure 61
0010
0001
0100
0010
1000
0001
0010
0100
1000
0010
010M
0010
1000
0100
0010
0001
,  // measure 62
1000
0000
0010
0000
0100
0000
M001
0000
0010
0000
0100
0000
1000
0000
0010
0000
1M00
0M00
0M01
0M00
1M00
0M00
0M01
0M00
2M00
0M00
0M02
0M00
0M00
0M00
3M03
0000
,  // measure 63
1000
0001
1000
0001
1000
0100
0010
0001
1000
0010
0100
0010
1000
0001
0010
0100
,  // measure 64
1000
0001
0100
0001
1000
0010
0100
0001
1000
0001
0010
0100
1000
0010
0100
0001
,  // measure 65
1000
0100
0010
0001
1000
0001
0100
0010
1000
0001
0010
0100
1000
0100
0010
0001
,  // measure 66
1000
0010
0100
0001
0100
0010
1000
0100
0010
0100
1000
0001
0100
0010
0100
0001
,  // measure 67
1000
0100
0010
0100
1000
0001
0100
0010
0100
0001
1000
0100
0010
0100
1000
0001
,  // measure 68
0100
0010
0100
0001
1000
0100
0010
0100
1000
0100
0010
0100
1000
0001
0100
0010
,  // measure 69
0100
0001
0100
0010
0100
0001
0010
0100
0010
0001
0010
0100
1000
0010
0100
0010
,  // measure 70
1000
0010
0100
0010
1000
0010
0100
0001
1000
0100
0010
0100
1000
0001
0100
0010
,  // measure 71
1000
0000
0001
0000
0100
000M
0100
0000
1000
0000
0100
M000
0100
0000
0001
0000
,  // measure 72
0010
0000
0000
1000
0000
0000
0010
0000
0000
0001
0000
0000
1000
0000
0100
0000
0001
0000
1000
0000
0010
0000
0100
0000
,  // measure 73
1000
0000
0001
0000
0010
000M
0010
0000
1000
0000
0010
M000
0010
0000
0001
0000
,  // measure 74
2000
3010
0100
0010
0222
0000
0000
0333
,  // measure 75
0001
0100
0001
0010
1000
0010
0001
1000
,  // measure 76
0200
0001
1000
0320
0M00
1030
0010
0001
,  // measure 77
2000
0000
0000
3004
0000
0000
0103
0010
1000
0010
0100
0001
,  // measure 78
1000
0100
0010
4004
0000
0000
3003
0000
,  // measure 79
M10M
M01M
M10M
4004
0000
0000
3003
0000
,  // measure 80
M01M
M10M
M01M
4004
0000
0000
3003
0000
,  // measure 81
200M
01M0
010M
01M0
010M
01M0
010M
01M0
,  // measure 82
310M
0010
0100
1000
0100
0010
0100
1000
0100
0010
0100
1000
0001
0010
0100
1000
,  // measure 83
0001
010M
0001
1000
M100
1000
0001
010M
,  // measure 84
0001
1000
M100
1000
0001
010M
0001
1000
,  // measure 85
0100
M0MM
0100
0000
0001
0000
010M
0000
0001
0000
1000
0000
M100
0000
1000
0000
,  // measure 86
0001
0000
0100
M0MM
0100
0000
1000
0000
0100
0000
0010
0000
0001
0000
0001
0000
,  // measure 87
2000
0001
0100
0001
0010
0001
0100
3001
,  // measure 88
0002
1000
0100
1000
0010
1000
0100
2003
,  // measure 89
3200
0010
1000
0010
0001
0010
1000
0310
,  // measure 90
0020
0100
1000
0100
0001
0100
1000
0230
,  // measure 91
1300
0100
0010
0100
1000
0000
0010
0000
0100
0010
1000
0010
0100
0000
0001
0000
,  // measure 92
0010
0100
1000
0100
0010
0000
0001
0000
0100
0010
1000
0100
0010
0000
0001
0000
,  // measure 93
1000
0010
0100
0010
0001
0000
0010
0000
0100
0010
1000
0001
0010
0000
0100
0000
,  // measure 94
1000
0100
0010
0100
0001
0000
0100
0000
0010
0100
1000
0001
0100
0000
0010
0000
,  // measure 95
0100
0010
1000
0001
0010
0000
0100
0000
0010
0100
1000
0001
0010
0000
0100
0000
,  // measure 96
1000
0001
0100
1000
0100
0000
0010
0000
1000
0100
0001
0100
0010
0000
0001
0000
,  // measure 97
0010
0100
0001
0100
0010
0000
0001
0000
1000
0010
0100
1000
0100
0000
0010
0000
,  // measure 98
1000
0010
0001
0010
1000
0000
0001
0000
0010
1000
0010
0001
1000
0000
0010
0000
,  // measure 99
1000
0000
0004
0003
0000
0000
0004
0003
0004
0003
0000
0000
4400
3300
0000
0000
,  // measure 100
0000
0000
4000
3000
0000
0000
0004
0003
0000
0000
0400
0300
0004
0003
0000
0000
,  // measure 101
0404
0303
0000
0000
0400
0301
0400
0301
0400
0301
0000
0000
0000
0000
0000
0000
,  // measure 102
0004
0103
0004
0103
0004
0103
0004
0103
0004
0103
0004
0000
0000
0000
0000
0000
,  // measure 103
0103
0001
0100
0001
0100
0001
0100
0001
,  // measure 104
1000
0100
1000
0100
1000
0100
1000
0100
,  // measure 105
0010
0001
1000
0001
0010
0100
1000
0001
0100
0010
0100
0001
1000
0100
0010
0002
,  // measure 106
2000
0000
0000
0000
0000
0000
0000
3003
,  // measure 107
0404
0000
0000
0003
,  // measure 108
0302
0203
0320
0000
,  // measure 109
1030
0010
1000
0001
0010
0001
0010
0100
1000
0100
1000
0001
0100
0001
1000
0010
,  // measure 110
1000
0001
0010
0100
0010
0001
1000
0001
1000
0010
0100
0010
1000
0001
0100
0010
,  // measure 111
1000
0001
1000
0001
0010
0100
0010
0001
1000
0010
0100
0010
0100
0001
1000
0001
,  // measure 112
0010
0100
0010
0100
1000
0001
1000
0001
0010
0001
1000
0010
1000
0010
1000
0001
,  // measure 113
0010
0100
0010
0001
1000
0010
1000
0001
0010
0001
0010
0100
0010
0100
1000
0100
,  // measure 114
0010
0001
0100
0010
1000
0100
0010
0100
1000
0010
0100
0001
0010
0100
0010
0001
,  // measure 115
1000
0010
0100
0010
1000
0001
0010
0100
1000
0010
1000
0100
0010
0001
0100
0001
,  // measure 116
0010
0100
0000
0100
0000
0100
0010
0001
0000
1000
0001
0100
0010
2000
0001
0000
,  // measure 117
3001
1000
0001
0100
0010
1000
0010
0100
0001
1000
0100
0010
0100
1000
0001
0100
,  // measure 118
0010
0100
0001
1000
0100
0010
0100
0010
0001
1000
0010
1000
0100
0010
0100
1000
,  // measure 119
0010
0100
0001
1000
0100
0010
0100
1000
0001
0100
0010
0100
0001
0010
0100
1000
,  // measure 120
0100
1000
0010
0100
0001
0010
0001
0100
0010
1000
0100
0010
0001
0100
0001
0010
,  // measure 121
0100
1000
0010
0100
0001
0010
0100
0010
0001
0100
0010
1000
0100
0010
0001
0100
,  // measure 122
0010
1000
0100
0010
0001
0100
0001
0010
0100
1000
0010
1000
0100
1000
0001
0100
,  // measure 123
0010
1000
0001
0100
0010
1000
0100
1000
0010
1000
0100
0010
0001
0100
0001
0010
,  // measure 124
0100
1000
0100
1000
010M
010M
220M
3000
,  // measure 125
1300
0100
0010
0001
1000
0001
0100
0001
0010
0001
0100
0001
1000
0100
0010
0001
,  // measure 126
2002
3003
0000
2200
3300
0000
0022
0033
0000
2020
3030
0000
0202
0303
2020
3030
,  // measure 127
0010
1000
0010
1000
0001
0010
0100
1000
0010
1000
0100
0010
0001
0100
0001
0010
,  // measure 128
0100
1000
0001
1000
0010
0100
0010
0100
0001
1000
0100
0010
0001
1000
0010
0100
,  // measure 129
0002
0103
0010
1000
0200
0310
0100
1000
0001
0100
0010
1000
0100
0010
0001
1000
,  // measure 130
2002
3003
0000
0202
0303
0000
0022
0033
0000
2200
3300
0000
2020
3030
0202
0303
,  // measure 131
0100
0001
1000
0001
0100
0001
1000
0001
0010
0001
1000
0100
0010
0100
1000
0001
,  // measure 132
0100
0001
0010
0100
1000
0100
0010
0001
M020
0000
M000
0000
M000
0000
M000
0000
,  // measure 133
M031
0010
0001
1000
0010
0100
0001
1000
0100
0010
0001
0010
0100
1000
0001
1000
,  // measure 134
2002
3003
0000
0220
0330
0000
2020
3030
0000
0202
0303
0000
0022
0033
2200
3300
,  // measure 135
0100
1000
0001
0010
0100
1000
0010
0100
0001
1000
0001
0010
0100
1000
0001
0100
,  // measure 136
0010
1000
0001
0010
0100
1000
0010
0100
0001
1000
0001
0010
0100
1000
0001
0100
,  // measure 137
0010
0100
0001
0100
0010
1000
0001
1000
0100
1000
0010
1000
0100
0010
0001
1000
,  // measure 138
0010
0100
0001
0010
0100
0010
0001
0100
0010
1000
0100
0010
0001
0100
0001
0010
,  // measure 139
0001
0100
0001
1000
0010
0100
0001
1000
0010
1000
0100
1000
0010
0100
0001
0010
,  // measure 140
0002
0000
0000
2003
0000
0000
3002
0000
2MM3
0000
00M0
0000
0M00
0000
00M0
0000
,  // measure 141
3M01
1000
0001
1000
0010
0100
0010
0100
0001
0100
0001
0100
0010
1000
0010
1000
,  // measure 142
0001
0010
0001
0010
0100
1000
0100
1000
0100
0010
0100
0010
0001
1000
0001
1000
,  // measure 143
0010
0100
0010
0100
0001
1000
0001
1000
0010
0100
0010
0100
0001
0100
0001
0100
,  // measure 144
0010
1000
0010
1000
0001
0010
0001
0010
0100
1000
0100
1000
0100
0010
0100
0010
,  // measure 145
0001
0010
0100
0010
0001
0010
0100
0010
0001
1000
0001
0100
0001
1000
0001
0010
,  // measure 146
0001
1000
0001
0100
0010
1000
0010
0100
0001
1000
0100
0010
0100
1000
0001
0010
,  // measure 147
0001
1000
0010
0100
0010
1000
0001
0100
0001
1000
0100
0010
0100
1000
0001
0010
,  // measure 148
M002
0000
0020
0003
0200
0030
2000
0300
0002
3000
0020
0003
0430
0000
0000
0000
,  // measure 149
1300
0100
0010
0100
1000
0001
0100
0010
0100
0001
1000
0100
0010
0001
0100
0001
,  // measure 150
0010
0100
1000
0010
1000
0001
0100
0010
1000
0100
0010
0001
0100
0001
0010
0100
,  // measure 151
1000
0100
1000
0100
0010
0001
0010
0001
1000
0010
1000
0010
0100
0001
0010
0001
,  // measure 152
0100
0001
0100
0010
1000
0010
1000
0001
0010
0001
0010
0100
0010
0100
0010
0001
,  // measure 153
1000
0100
0010
0001
1000
0010
0100
0001
1000
0100
0010
0001
1000
0001
0010
0001
,  // measure 154
1000
0100
0010
0001
1000
0001
0100
0010
1000
0100
0010
0001
0010
0100
1000
0010
,  // measure 155
1000
0100
0010
0001
0100
0010
0100
0010
1000
0100
0010
0001
0010
0100
0010
0100
,  // measure 156
2000
0000
0000
0002
0M00
3000
20M0
0003
3M02
2003
30M2
2003
3M02
2003
30M2
2003
,  // measure 157
3M01
1000
0010
0100
0001
0010
0100
1000
0010
1000
0100
0010
0001
1000
0010
0100
,  // measure 158
0001
0010
0001
0100
0010
1000
0100
0010
0100
1000
0001
0010
0100
1000
0010
1000
,  // measure 159
0100
0010
0001
0100
0010
0100
0001
1000
0010
1000
0100
0010
0001
0010
0100
1000
,  // measure 160
0010
0100
0010
0100
0001
0010
0100
0010
0001
0100
0010
1000
0001
0010
0100
0010
,  // measure 161
0001
0100
0010
1000
0100
0010
0001
0100
0010
1000
0100
1000
0010
0100
0001
0010
,  // measure 162
0100
1000
0010
0100
0001
0010
0001
0100
0010
1000
0100
0010
0100
1000
0001
0100
,  // measure 163
0010
1000
0010
0100
0010
0100
0001
0010
0100
0010
0001
0100
0010
1000
0100
1000
,  // measure 164
0010
0100
0010
1000
0100
0010
0001
0010
0100
1000
0010
1000
0100
0010
0001
1000
,  // measure 165
0002
0000
0000
0000
0000
0000
0000
0000
1003
0100
0010
0001
1000
0010
0100
0001
,  // measure 166
1000
0100
1000
0010
1000
0100
1000
0010
0100
0001
0010
0001
0100
0001
0010
0001
,  // measure 167
0100
0000
0001
0000
0100
00M0
0100
0000
1000
0000
0001
0000
0100
00M0
0100
0000
1000
0000
0100
0000
0010
0000
0100
0000
1000
0000
0100
0000
1000
0000
0001
0000
,  // measure 168
1000
0001
0100
0001
0010
0001
0100
0001
0010
0100
1000
0010
1000
0100
1000
0010
,  // measure 169
1000
0010
0100
0010
0001
0010
0100
0001
1000
0100
0010
1000
0010
0100
0010
0001
,  // measure 170
0010
0100
0010
0001
1000
0010
0100
0001
0100
0010
1000
0001
0010
0100
0010
0001
,  // measure 171
1000
0000
0010
M000
0010
0000
0001
0000
1000
0000
0010
M000
0010
0000
0001
0000
1000
0000
0010
0000
0100
0000
0010
0000
0100
0000
0001
0000
0100
0000
0001
0000
,  // measure 172
1000
0100
0010
0001
0100
0001
0010
0100
1000
0010
1000
0100
0010
0001
0100
0001
,  // measure 173
0010
0100
0010
1000
0010
0100
0010
0001
0040
0000
0032
0003
2000
0000
0002
0003
,  // measure 174
3001
1000
0010
0100
0001
1000
0010
0100
0001
0010
0100
0010
0001
0100
0001
1000
,  // measure 175
M1MM
0100
M1MM
0100
M001
0100
0001
0100
0001
0100
0010
1000
0010
1000
0001
0010
,  // measure 176
0100
1000
0010
0100
0001
0010
0100
1000
0010
0100
0001
0010
0100
1000
0010
0100
,  // measure 177
0010
0100
0010
0001
0010
0100
0010
0001
0010
0100
0001
1000
0100
0010
0001
1000
,  // measure 178
0100
1000
0010
0100
0001
0100
0010
1000
0100
1000
0010
0100
0001
0010
0001
1000
,  // measure 179
0100
0010
0100
0001
0100
0010
0100
1000
0001
0100
0010
1000
0100
0010
0001
1000
,  // measure 180
0010
0100
0001
1000
0100
0010
0001
1000
0010
0100
0001
1000
0100
0010
0001
1000
,  // measure 181
0002
0203
0302
2003
3200
2300
3200
2300
,  // measure 182
3001
1000
0100
0010
0100
1000
0001
0100
0010
0100
0001
1000
0100
0010
0100
1000
,  // measure 183
0001
0100
0010
0100
0001
1000
0100
0010
0100
1000
0001
0100
0010
0100
0001
1000
,  // measure 184
0100
0010
0100
1000
0001
0100
0010
0100
0001
1000
0100
0010
0100
1000
0001
0100
,  // measure 185
0010
0100
0001
1000
0100
0010
0100
1000
0001
0100
0010
0100
0001
1000
0100
0010
,  // measure 186
0100
1000
0001
0100
0010
0100
0001
1000
0100
0010
0001
1000
0010
0100
0001
1000
,  // measure 187
0001
0100
0010
1000
0100
0010
0100
1000
0010
0100
0001
0100
0010
1000
0100
0010
,  // measure 188
0100
1000
0010
0100
0001
0100
0010
1000
0100
0010
0100
1000
0010
0100
0001
0100
,  // measure 189
0010
1000
0100
0010
0100
1000
0010
0100
0001
0100
0010
1000
0100
0010
0100
1000
,  // measure 190
0010
0100
0001
0100
0010
1000
0100
0010
0100
1000
0010
0100
0001
0100
0010
1000
,  // measure 191
0001
1000
0100
0010
0001
0100
0001
0010
0100
1000
0001
1000
0100
0010
0001
0100
,  // measure 192
0001
0010
0100
1000
0001
1000
0100
0010
0001
0100
0001
0010
0100
1000
0001
1000
,  // measure 193
0100
0010
0001
0100
0001
0010
0100
1000
0001
1000
0100
0010
0001
0100
0001
0010
,  // measure 194
0100
1000
0001
1000
0100
0010
0001
0100
0001
0010
0100
1000
0001
1000
0100
0010
,  // measure 195
0001
0100
0001
0010
0100
1000
0001
1000
0100
0010
0001
0100
0001
0010
0100
1000
,  // measure 196
0001
0100
0010
1000
0100
0010
0001
1000
0010
0100
0001
1000
0100
0010
0001
1000
,  // measure 197
0010
0100
0001
1000
0100
0010
0001
1000
0010
0100
0001
1000
0100
0010
0001
1000
,  // measure 198
0100
0010
0001
0010
0100
0000
0010
0000
0001
1000
0010
0100
0010
0000
0100
0000
,  // measure 199
0010
0100
0001
1000
0010
0000
0100
0000
0010
1000
0010
0100
0001
0000
1000
0000
,  // measure 200
0100
0010
0100
1000
0001
0000
0100
0000
0010
1000
0001
0010
0100
0000
0010
0000
,  // measure 201
0001
1000
0010
0100
0001
0000
0100
0000
0010
1000
0010
0100
0001
0000
1000
0000
,  // measure 202
0100
0010
0001
1000
0100
0000
0010
0000
0100
1000
0001
0010
0100
0000
1000
0000
,  // measure 203
0001
0100
0010
1000
0001
0000
1000
0000
0010
0100
0001
1000
0010
0000
0100
0000
,  // measure 204
0001
0100
0000
0100
0000
0100
0001
1000
,  // measure 205
0004
0000
0000
0000
,  // measure 206
1013
0001
0000
0100
0000
0100
0001
0010
,  // measure 207
0400
0000
0000
2320
0000
0000
0000
3030
,  // measure 208
0010
0100
0000
0100
0000
0100
1000
0100
,  // measure 209
0010
0002
0000
2200
0000
3303
0000
0000
,  // measure 210
1001
0001
0000
0100
0000
0100
0010
0100
,  // measure 211
00M1
2000
0000
0404
00M0
0000
0000
0000
,  // measure 212
00M0
0000
0000
00M0
0000
0000
0000
3303
,  // measure 213
12M1
0000
0000
0000
,  // measure 214
03M0
0000
0000
0000
,  // measure 215
00M0
0000
0000
0000
,  // measure 216
00M0
0000
0000
0000
;
