#VERSION:0.83;
#TITLE:Shake It;
#SUBTITLE:;
#ARTIST:Metro Station;
#TITLETRANSLIT:;
#SUBTITLETRANSLIT:;
#ARTISTTRANSLIT:;
#GENRE:;
#ORIGIN:;
#CREDIT:;
#BANNER:shake-bn.png;
#BACKGROUND:shake-bg.png;
#PREVIEWVID:;
#JACKET:;
#CDIMAGE:;
#DISCIMAGE:;
#LYRICSPATH:;
#CDTITLE:;
#MUSIC:shake.ogg;
#OFFSET:0.020000;
#SAMPLESTART:43.974998;
#SAMPLELENGTH:12.000000;
#SELECTABLE:YES;
#BPMS:0.000=150.017;
#STOPS:;
#DELAYS:;
#WARPS:;
#TIMESIGNATURES:0.000=4=4;
#TICKCOUNTS:0.000=4;
#COMBOS:0.000=1;
#SPEEDS:0.000=1.000=0.000=0;
#SCROLLS:0.000=1.000;
#FAKES:;
#LABELS:0.000=Song Start;
#BGCHANGES:;
#KEYSOUNDS:;
#ATTACKS:
;

//---------------dance-single - ----------------
#NOTEDATA:;
#CHARTNAME:;
#STEPSTYPE:dance-single;
#DESCRIPTION:;
#CHARTSTYLE:Pad;
#DIFFICULTY:Beginner;
#METER:3;
#RADARVALUES:0.182069,0.207965,0.068891,0.000000,0.000000,111.000000,105.000000,6.000000,0.000000,0.000000,0.000000,0.000000,0.000000,0.000000,0.182069,0.207965,0.068891,0.000000,0.000000,111.000000,105.000000,6.000000,0.000000,0.000000,0.000000,0.000000,0.000000,0.000000;
#CREDIT:Mozata;
#NOTES:
0000
0000
0000
0000
,
0000
0000
0000
0000
,
0000
0000
0000
0000
,
0000
0000
0000
0000
,
0001
0000
0001
0000
,
0001
0000
0001
0000
,
0010
0000
0010
0000
,
1000
0000
0010
0000
,
0001
0000
0001
0000
,
0001
0000
0001
0000
,
0100
0000
0100
0000
,
1000
0000
1000
1000
,
0000
1000
0000
0100
,
0000
0001
0000
0100
,
0000
1000
0000
1000
,
0000
0000
0010
0010
,
0000
0001
0000
0010
,
0000
0100
0000
1000
,
0000
0001
0000
0010
,
0000
0000
0100
0100
,
0000
1000
0000
0010
,
0000
1000
0000
0010
,
0000
0100
0000
0001
,
0000
0000
0100
0100
,
0000
0100
0100
0000
,
0010
0000
0010
0000
,
0000
0100
0100
0000
,
0010
0000
0000
0000
,
0010
0010
0010
0000
,
1000
1000
1000
0000
,
0001
0001
0001
0000
,
0100
0100
0100
0000
,
0010
0010
0010
0000
,
0001
0001
0001
0000
,
0000
1000
1000
0000
,
1000
0000
1000
1000
,
0000
0001
0000
1001
,
0000
1000
0000
1001
,
0000
0001
0001
0000
,
0001
0000
0001
0001
,
0000
1000
0000
1001
,
0000
0001
0000
1001
,
0000
1000
1000
0000
,
1000
0000
1000
1000
,
0000
0100
0000
0010
,
0000
0100
0000
0010
,
0000
1000
0000
0001
,
0000
1000
0000
0001
,
0000
1000
0000
1001
,
0000
0001
0000
1001
,
0000
1000
0000
0001
,
0000
0100
0000
0010
;

//---------------dance-single - ----------------
#NOTEDATA:;
#CHARTNAME:;
#STEPSTYPE:dance-single;
#DESCRIPTION:;
#CHARTSTYLE:Pad;
#DIFFICULTY:Easy;
#METER:5;
#RADARVALUES:0.298528,0.415930,0.275564,0.022964,0.000000,182.000000,158.000000,24.000000,2.000000,0.000000,0.000000,0.000000,0.000000,0.000000,0.298528,0.415930,0.275564,0.022964,0.000000,182.000000,158.000000,24.000000,2.000000,0.000000,0.000000,0.000000,0.000000,0.000000;
#CREDIT:Mozata;
#NOTES:
0000
0000
0000
0000
,
0000
0000
0000
0000
,
0000
0000
0000
0000
,
0000
0000
0000
0000
,
0001
0000
0100
0000
0000
0100
0000
0000
,
0100
0000
0010
1000
,
0000
0000
0001
0000
0000
0001
0000
0000
,
0001
0000
0010
0002
,
0003
0000
0100
0000
0000
0100
0000
0000
,
0100
0000
0110
0110
,
0000
0000
0001
0000
0000
0001
0000
0000
,
0001
0000
0010
0100
,
1000
0001
0000
0001
,
1000
0010
0100
0001
,
0000
0001
0000
1000
,
0100
1000
0010
0100
,
0001
0001
0000
1000
,
0001
1000
0010
1000
,
0000
0001
0100
0001
,
0010
0100
2000
3000
,
0000
1000
0001
0010
,
0001
1000
0010
1000
,
0100
0000
0010
1000
,
0100
0000
0100
0100
,
0000
0000
0001
0000
0001
0000
0000
0010
,
0000
0000
1000
1000
,
0000
0000
1000
0000
1000
0000
0000
0010
,
0000
0001
1001
0110
,
1001
0001
0001
1001
,
0110
0100
0100
0110
,
1001
0001
0001
1001
,
0110
0100
0100
0110
,
0010
1000
0100
0010
,
0001
0010
0100
1000
,
0000
0000
1001
0000
1001
0000
0000
1001
,
0000
1001
0000
0000
1001
0000
1001
0000
,
0001
0001
0100
0100
,
0010
0010
1000
1000
,
0100
0100
0010
0010
,
0001
0001
1000
1000
,
0010
0010
1000
1000
,
0001
0001
0100
0100
,
0010
0010
1000
1000
,
0100
0100
0010
0010
,
1001
0000
0100
0000
0100
0000
0000
0100
,
0000
0100
0000
0000
0110
0000
0100
0000
,
0000
0000
0001
0000
1000
0000
0000
0001
,
0000
1000
0000
0000
0001
0000
1000
0000
,
0000
0000
0010
0000
1000
0000
0000
0100
,
0000
0001
0000
0000
0010
0000
1000
0000
,
0000
0000
1001
0000
0110
0000
0000
0100
,
0000
0010
0000
0000
0110
0000
1001
0000
;

//---------------dance-single - ----------------
#NOTEDATA:;
#CHARTNAME:;
#STEPSTYPE:dance-single;
#DESCRIPTION:;
#CHARTSTYLE:Pad;
#DIFFICULTY:Medium;
#METER:7;
#RADARVALUES:0.347736,0.447792,0.241119,0.080373,0.000000,212.000000,191.000000,21.000000,7.000000,0.000000,0.000000,0.000000,0.000000,0.000000,0.347736,0.447792,0.241119,0.080373,0.000000,212.000000,191.000000,21.000000,7.000000,0.000000,0.000000,0.000000,0.000000,0.000000;
#CREDIT:Mozata;
#NOTES:
0000
0000
0000
0000
,
0000
0000
0000
0000
,
0000
0000
0000
0000
,
0000
0000
0000
0000
,
0100
0000
0101
0000
0000
0100
0000
0000
,
0101
0000
0000
0000
0010
1000
0010
0000
,
1000
0000
1100
0000
0000
0100
0000
0000
,
1100
0000
0000
0000
0010
0001
0020
0000
,
0130
0000
0110
0000
0000
0001
0000
0000
,
0110
0000
0000
0000
1000
0001
1000
0000
,
0001
0000
0101
0000
0000
0100
0000
0000
,
0101
0000
0000
0000
0001
0010
0200
0000
,
1300
0010
0001
0010
,
1000
0100
1000
0020
,
1000
0000
0100
0000
,
1000
0030
0010
0010
,
0001
0100
1000
0100
,
0001
0001
0100
2000
,
0001
0000
0001
0000
,
0100
3000
1000
1000
,
0010
1000
0001
0100
,
0001
1000
0010
1000
,
0002
0000
1000
0000
,
0010
0000
1003
0010
,
0100
0001
1000
0100
,
1000
0001
0010
0001
,
2000
0000
0010
0000
,
0001
0000
3100
1000
,
1100
0001
1000
1000
,
0101
1000
0001
0001
,
1010
0001
1000
1000
,
0011
1000
0001
0001
,
0110
1000
1000
0100
,
0110
0000
0001
0000
0001
0000
0100
0100
,
0000
0001
1000
0000
1000
0000
0001
1000
,
0000
1000
0000
0001
1000
0000
1000
0000
,
0000
0010
0100
0000
0100
0000
0001
0100
,
0000
0100
0000
0010
0100
0000
0100
0000
,
0000
0100
0010
0000
0010
0000
1000
0010
,
0000
0010
0000
0100
0010
0000
0010
0000
,
0000
1000
0100
0000
0100
0000
0010
0001
,
0000
0001
0000
0100
0010
0000
1000
0000
,
0000
0001
0010
0000
0100
0000
1000
0100
,
0000
0010
0000
0001
0010
0000
0100
0000
,
1001
0000
0100
0010
0100
0000
0100
0000
,
1001
0000
0010
0100
0010
0000
0010
0000
,
1100
0000
1000
0100
1000
0000
1000
0000
,
0011
0000
0001
0010
0001
0000
0001
0000
,
0101
0000
0100
0010
1000
0000
1000
0000
,
1010
0000
1000
0100
0010
0001
1000
0000
,
1001
0000
0001
0100
0010
1000
0010
0000
,
1000
0100
0010
0002
,
0003
0000
0000
0000
;

//---------------dance-single - ----------------
#NOTEDATA:;
#CHARTNAME:;
#STEPSTYPE:dance-single;
#DESCRIPTION:;
#CHARTSTYLE:Pad;
#DIFFICULTY:Hard;
#METER:9;
#RADARVALUES:0.439591,0.534767,0.528165,0.183710,0.000000,268.000000,222.000000,46.000000,16.000000,0.000000,0.000000,0.000000,0.000000,0.000000,0.439591,0.534767,0.528165,0.183710,0.000000,268.000000,222.000000,46.000000,16.000000,0.000000,0.000000,0.000000,0.000000,0.000000;
#CREDIT:Mozata;
#NOTES:
// measure 0
0000
0000
0000
0000
,  // measure 1
0000
0000
0000
0000
,  // measure 2
0000
0000
0000
0000
,  // measure 3
0000
0000
0000
0000
,  // measure 4
0010
0100
0110
0000
0000
1001
0000
0000
,  // measure 5
0110
0000
0000
1000
0010
0100
0002
0000
,  // measure 6
1003
0000
0101
0000
0000
0011
0000
0000
,  // measure 7
1010
0000
0000
1000
1100
0000
1002
0000
,  // measure 8
0000
0000
0103
0000
0000
1010
0000
0000
,  // measure 9
1001
0000
0000
1000
0001
0010
0200
0000
,  // measure 10
0000
0000
1300
0000
0000
0011
0000
0000
,  // measure 11
1100
0000
0000
0010
0001
0100
0010
0000
,  // measure 12
0000
1000
0010
1000
0010
0000
1000
0001
,  // measure 13
0010
0001
1000
0010
0100
0000
0001
0000
,  // measure 14
1200
0020
0000
0000
,  // measure 15
0000
0000
0000
0330
0000
0100
0100
0000
,  // measure 16
0000
0010
0001
0010
0001
0000
1000
0001
,  // measure 17
0000
0100
0001
0100
0010
0000
1000
0000
,  // measure 18
0201
0020
0000
0000
,  // measure 19
0000
0000
0000
0330
0000
0010
0010
0000
,  // measure 20
0000
1000
0100
0010
0001
0010
0100
1000
,  // measure 21
0000
1000
0100
0001
0100
0000
1000
0000
,  // measure 22
0001
0220
0000
0000
,  // measure 23
0000
0000
0000
0330
0000
0100
0100
0000
,  // measure 24
0000
0010
1000
0010
0100
0001
0100
0010
,  // measure 25
0000
0000
0000
1000
0100
0000
0010
0000
,  // measure 26
0000
0001
0010
0001
1000
0100
1000
0001
,  // measure 27
0000
0000
0000
0010
0100
0010
0001
0000
,  // measure 28
0012
1000
1003
1010
,  // measure 29
2100
0000
3001
0000
0101
0100
0100
0000
,  // measure 30
1020
0100
0130
0101
,  // measure 31
0021
0000
0130
0000
1001
0001
0001
0000
,  // measure 32
1020
1000
1030
0101
,  // measure 33
2001
0000
0010
0000
3010
0000
0010
0100
,  // measure 34
0000
1000
1001
0000
0100
0000
0001
1001
,  // measure 35
0000
0010
0000
0010
1010
0000
0001
0000
,  // measure 36
0000
1000
1001
0000
0100
0000
0001
1001
,  // measure 37
0000
0010
0000
0010
1010
0000
0001
0000
,  // measure 38
0000
0001
0011
0000
0100
0000
1000
1100
,  // measure 39
0000
1000
0000
0001
1001
0000
0100
0000
,  // measure 40
0000
0010
1010
0000
0100
0000
0001
0101
,  // measure 41
0000
0100
0000
0010
0110
0000
1000
0000
,  // measure 42
0000
1000
1001
0000
0001
0000
0010
0110
,  // measure 43
0000
0100
0000
1000
1001
0000
0100
0000
,  // measure 44
0001
0100
0001
0100
0001
0100
0001
0100
,  // measure 45
0010
1000
0010
1000
0010
1000
0010
1000
,  // measure 46
0100
1000
0100
1000
0100
1000
0100
1000
,  // measure 47
0001
0010
0001
0010
0001
0010
0011
0000
,  // measure 48
0001
0010
0100
0000
0110
0000
1000
1001
,  // measure 49
0000
0100
0000
0001
0010
0100
1000
0000
,  // measure 50
0010
1000
0100
0000
1100
0000
0010
0001
,  // measure 51
0000
0101
0000
0010
2000
0000
3001
0000
;
