#VERSION:0.83;
#TITLE:September;
#SUBTITLE:;
#ARTIST:Earth Wind & Fire;
#TITLETRANSLIT:;
#SUBTITLETRANSLIT:;
#ARTISTTRANSLIT:;
#GENRE:;
#ORIGIN:;
#CREDIT:;
#BANNER:sep-bn.png;
#BACKGROUND:sep-bg.png;
#PREVIEWVID:;
#JACKET:;
#CDIMAGE:;
#DISCIMAGE:;
#LYRICSPATH:;
#CDTITLE:;
#MUSIC:september.ogg;
#OFFSET:0.000000;
#SAMPLESTART:50.300999;
#SAMPLELENGTH:12.000000;
#SELECTABLE:YES;
#BPMS:0.000=120.000,
16.000=122.000,
23.000=126.000,
28.000=124.000,
40.000=125.000,
60.000=124.500,
80.000=125.500,
104.000=123.500,
118.000=125.000,
120.000=126.000,
136.000=130.500,
143.000=127.000,
158.000=129.500,
161.000=126.000,
170.000=128.250,
188.000=128.000,
222.000=131.000,
230.000=128.000;
#STOPS:;
#DELAYS:;
#WARPS:;
#TIMESIGNATURES:0.000=4=4;
#TICKCOUNTS:0.000=4;
#COMBOS:0.000=1;
#SPEEDS:0.000=1.000=0.000=0;
#SCROLLS:0.000=1.000;
#FAKES:;
#LABELS:0.000=Song Start;
#BGCHANGES:;
#KEYSOUNDS:;
#ATTACKS:
;

//---------------dance-single - ----------------
#NOTEDATA:;
#CHARTNAME:;
#STEPSTYPE:dance-single;
#DESCRIPTION:;
#CHARTSTYLE:Pad;
#DIFFICULTY:Beginner;
#METER:1;
#RADARVALUES:0.105179,0.145981,0.042313,0.059239,0.000000,87.000000,82.000000,5.000000,7.000000,0.000000,0.000000,0.000000,0.000000,0.000000,0.105179,0.145981,0.042313,0.059239,0.000000,87.000000,82.000000,5.000000,7.000000,0.000000,0.000000,0.000000,0.000000,0.000000;
#CREDIT:Mozata;
#DISPLAYBPM:120.000000:134.000000;
#NOTES:
0000
0000
0000
0000
,
0000
0000
0000
0000
,
1000
0000
1000
0000
,
0001
0000
0001
0000
,
0100
0000
0100
0000
,
0010
0000
0010
0000
,
0010
0000
0100
0000
,
0010
0000
0100
0000
,
0001
0000
1000
0000
,
0001
0000
0000
0000
,
0001
0000
0000
0000
,
0001
0000
1000
0000
,
1000
0000
0000
0000
,
1000
0000
0100
0000
,
0010
0000
0000
0000
,
0001
0000
0010
0000
,
0100
0000
0000
0000
,
0000
0000
1001
0000
,
1000
0000
0000
0000
,
1000
0000
0010
0000
,
0001
0000
0000
0000
,
0001
0000
0010
0000
,
1000
0000
0000
0000
,
1000
0000
0100
0000
,
0001
0000
0000
0000
,
0000
0100
0100
0100
,
0100
0000
0100
0000
,
0001
0000
1000
0000
,
0010
0000
0010
0000
,
1000
0000
0001
0000
,
0100
0000
0000
0000
,
0010
0000
0100
0000
,
0010
0000
0000
0000
,
0000
0000
1001
0000
,
0002
0000
0003
0000
,
0002
0000
0003
0000
,
2000
0000
3000
0000
,
2000
0000
3000
0000
,
0200
0000
0300
0000
,
0200
0000
0300
0000
,
0020
0000
0000
0000
,
0030
0000
0000
0000
,
1000
0000
1000
0000
,
0010
0000
0000
0000
,
0001
0000
0001
0000
,
0010
0000
0000
0000
,
0100
0000
0100
0000
,
0010
0000
0000
0000
,
1001
0000
0001
0000
,
1000
0000
0000
0000
,
1000
0000
1000
0000
,
0100
0000
0000
0000
,
0001
0000
0001
0000
,
0100
0000
0000
0000
,
0010
0000
0010
0000
,
0100
0000
0000
0000
,
0110
0000
0000
0000
,
0000
0000
1001
0000
;

//---------------dance-single - ----------------
#NOTEDATA:;
#CHARTNAME:;
#STEPSTYPE:dance-single;
#DESCRIPTION:;
#CHARTSTYLE:Pad;
#DIFFICULTY:Easy;
#METER:3;
#RADARVALUES:0.152328,0.243302,0.084627,0.177716,0.000000,126.000000,116.000000,10.000000,21.000000,0.000000,0.000000,0.000000,0.000000,0.000000,0.152328,0.243302,0.084627,0.177716,0.000000,126.000000,116.000000,10.000000,21.000000,0.000000,0.000000,0.000000,0.000000,0.000000;
#CREDIT:Mozata;
#NOTES:
0000
0000
0000
0000
,
0000
0000
0000
0000
,
0000
0000
0000
0000
,
0000
0000
0000
0000
,
0100
0000
0001
0000
,
1000
0000
0010
0000
,
0110
0000
0020
0000
,
0130
0000
0000
0000
0000
0000
0000
0100
,
0000
0000
0000
0000
,
0000
0000
1001
0000
,
0100
0000
0001
0000
,
0100
0000
0010
0000
,
1000
0000
0010
0000
,
0100
0000
0001
0000
,
0001
0000
0010
0000
,
0100
0000
1000
0000
,
2000
0000
0002
0000
,
3003
0000
1001
0000
,
0010
0000
0100
0000
,
0010
0000
1000
0000
,
0100
0000
0010
0000
,
0100
0000
0001
0000
,
1000
0000
0001
0000
,
1000
0000
1000
0001
,
0002
0000
2003
0000
,
3002
0000
1003
0110
,
1001
0000
0000
0000
,
0010
1000
0001
0100
,
0100
0000
0000
0000
,
1000
0100
0010
0001
,
0001
0000
0000
0000
,
0100
0001
0010
1000
,
0200
0000
0020
0000
,
0330
0000
0110
0000
,
2000
3000
0020
0030
,
0000
0001
0020
0030
,
2000
3000
0200
0300
,
0000
0001
0200
0300
,
2000
3000
0002
0003
,
0000
0010
0200
0300
,
0100
0100
1000
1000
,
0001
0001
1000
0001
,
1001
0000
0000
0000
,
0100
0010
1000
0001
,
0001
0000
0000
0000
,
0001
0010
0100
1000
,
1000
0000
0000
0000
,
0100
1000
0100
0001
,
0020
0000
0200
0000
,
0330
0000
0110
0000
,
1001
0000
0000
0000
,
1000
0010
1000
0001
,
1000
0000
0000
0000
,
0001
0100
0001
0010
,
0001
0000
0000
0000
,
0100
1000
0010
0100
,
0002
0000
2000
0000
,
3003
0000
1001
0000
;

//---------------dance-single - ----------------
#NOTEDATA:;
#CHARTNAME:;
#STEPSTYPE:dance-single;
#DESCRIPTION:;
#CHARTSTYLE:Pad;
#DIFFICULTY:Medium;
#METER:5;
#RADARVALUES:0.222447,0.293232,0.101552,0.338507,0.000000,184.000000,172.000000,12.000000,40.000000,0.000000,0.000000,0.000000,0.000000,0.000000,0.222447,0.293232,0.101552,0.338507,0.000000,184.000000,172.000000,12.000000,40.000000,0.000000,0.000000,0.000000,0.000000,0.000000;
#CREDIT:Mozata;
#NOTES:
0000
0000
0000
0000
,
0000
0000
0000
0000
,
0000
0000
0000
0000
,
0000
0000
0000
0000
,
0010
0010
0100
0100
,
1000
1000
0001
0001
,
1001
0000
0100
0000
,
1000
0000
0000
0000
0000
0000
0000
0202
,
0000
0000
0000
0000
,
0303
0000
1010
0000
,
1000
0001
0100
0000
,
0010
1000
0001
0000
,
0001
0100
1000
0000
,
1000
0000
0010
0000
0001
0000
0000
0100
,
0100
0010
0100
0000
,
0100
0000
0010
0000
0002
0000
0000
2003
,
0000
0000
0000
0000
,
3000
0000
1001
0000
,
1000
0100
0010
0000
,
0001
0010
0100
0000
,
1000
0010
0100
0000
,
0001
0100
0010
0000
,
1000
0001
1000
0000
,
0010
0100
0010
0000
,
2000
0000
3001
0000
,
0000
0100
0000
0100
0000
0100
0000
0000
,
0002
0000
0013
0001
0000
0000
0000
0000
,
1000
1000
0100
0100
,
0002
0000
0013
0001
0000
0000
0000
0000
,
0100
0100
1000
1000
,
0002
0000
0013
0001
0000
0000
0000
0000
,
0010
0000
0001
0000
0100
0000
1000
0020
,
0000
0000
0100
0000
,
1030
0000
0101
0000
,
2000
3100
0002
0103
,
0000
2000
3100
0000
0002
0000
0103
0000
,
2000
3010
0002
0013
,
0000
2000
3010
0000
0002
0000
0013
0000
,
0200
1300
0200
0301
,
0000
0020
1030
0000
0020
0000
0031
0000
,
0010
0100
0001
1000
,
0100
1000
0001
0110
,
2000
0000
3100
2000
0000
0000
3100
0020
,
0000
0000
0031
0010
0000
0000
0000
0000
,
0020
0000
1030
0020
0000
0000
0130
0002
,
0000
0000
0103
0010
0000
0000
0000
0000
,
0020
0000
0031
0200
0000
0000
0301
0020
,
0000
0000
0130
1000
0000
0000
1000
0001
,
0000
0110
0000
0000
1001
0000
0000
1001
,
0000
0110
1000
0001
,
0200
0000
0310
0200
0000
0000
0301
0200
,
0000
0000
0310
0100
0000
0000
0000
0000
,
0020
0000
1030
0020
0000
0000
0130
0020
,
0000
0000
1030
0010
0000
0000
0000
0000
,
2000
0000
3001
2000
0000
0000
3010
2000
,
0000
0000
3100
1000
0000
0000
1000
0002
,
0000
0010
0000
0000
0010
0000
0000
0010
,
0000
0013
1001
1001
;

//---------------dance-single - ----------------
#NOTEDATA:;
#CHARTNAME:;
#STEPSTYPE:dance-single;
#DESCRIPTION:;
#CHARTSTYLE:Pad;
#DIFFICULTY:Hard;
#METER:6;
#RADARVALUES:0.323999,0.415411,0.143865,0.406208,0.000000,268.000000,251.000000,17.000000,48.000000,0.000000,0.000000,0.000000,0.000000,0.000000,0.323999,0.415411,0.143865,0.406208,0.000000,268.000000,251.000000,17.000000,48.000000,0.000000,0.000000,0.000000,0.000000,0.000000;
#CREDIT:Mozata;
#NOTES:
// measure 0
0000
0000
0000
0000
,  // measure 1
0000
0000
0000
0000
,  // measure 2
0000
0000
0000
0000
,  // measure 3
0000
0000
0000
0000
,  // measure 4
0000
0000
0000
0000
,  // measure 5
0000
0000
0000
0000
0000
0000
1000
0100
,  // measure 6
0020
0000
0031
0100
0020
0000
1030
0100
,  // measure 7
0020
0000
0000
0000
0030
0000
0000
2002
,  // measure 8
0000
0000
0000
0000
,  // measure 9
0000
3003
1001
0000
,  // measure 10
0200
1000
0000
0010
0000
0001
0300
0000
,  // measure 11
0002
0010
0000
1000
0000
0100
0003
0000
,  // measure 12
2000
0100
0000
0001
0000
0010
3000
0110
,  // measure 13
0000
0102
0000
1000
0000
0010
0003
0000
,  // measure 14
0020
0001
0000
1000
0000
0001
0030
0000
,  // measure 15
0200
1000
0000
0001
0000
1000
0300
0001
,  // measure 16
0001
0000
0000
1000
1000
0000
0000
0001
,  // measure 17
0001
0000
1010
1001
,  // measure 18
0002
0100
0000
0010
0000
1000
0003
0000
,  // measure 19
2000
0010
0000
0100
0000
0001
3000
0000
,  // measure 20
0020
0100
0000
0001
0000
0100
0030
0000
,  // measure 21
0200
1000
0000
0010
0000
1000
0300
0010
,  // measure 22
1000
0001
1000
0010
1000
0100
0000
1000
,  // measure 23
0001
0100
0001
1000
0001
0010
0100
2000
,  // measure 24
0000
0000
0001
0001
0000
0000
0010
0010
,  // measure 25
0000
0100
0000
3100
1000
0100
1000
0000
,  // measure 26
2001
3000
0001
1000
0000
0000
0000
0000
,  // measure 27
0010
1000
0001
0100
0010
0000
0001
0000
,  // measure 28
1002
0003
1000
0001
0000
0000
0000
0000
,  // measure 29
0100
0001
1000
0010
0100
0000
1000
0000
,  // measure 30
0210
0300
0010
0100
0000
0000
0000
0000
,  // measure 31
0010
0100
1000
0001
0010
0000
0001
0200
,  // measure 32
0000
0010
0000
0010
0000
0001
0000
0001
,  // measure 33
0000
1000
0000
1000
0301
0000
1001
0000
,  // measure 34
2000
0000
3100
0010
0002
0000
0103
0010
,  // measure 35
0000
1000
0100
0010
0002
0000
0103
0010
,  // measure 36
2000
0000
3100
0010
0002
0000
0103
0010
,  // measure 37
0000
1000
0100
0010
0002
0000
0103
0010
,  // measure 38
2000
0000
3100
0010
0002
0000
0103
0010
,  // measure 39
0000
1000
0100
0010
0000
0001
0100
0100
,  // measure 40
0001
0001
0010
0010
0100
0100
1000
1000
,  // measure 41
0100
0100
0010
0010
0001
0000
1001
0000
,  // measure 42
1200
0000
1300
0200
0000
0000
0310
0001
,  // measure 43
0100
0001
0010
0100
1000
0000
1000
0000
,  // measure 44
0201
0000
0301
0200
0000
0000
0310
1000
,  // measure 45
0001
1000
0100
1000
0001
0000
0100
0000
,  // measure 46
1020
0000
1030
0020
0000
0000
0130
1000
,  // measure 47
0100
0001
0100
1000
0100
0000
0002
2000
,  // measure 48
0000
0000
0000
0000
,  // measure 49
0000
0000
3003
0000
1000
0001
1001
0000
,  // measure 50
0100
0200
0000
0301
0002
0000
0103
0200
,  // measure 51
0000
1300
2000
0000
3100
1000
0100
0000
,  // measure 52
0010
0020
0000
0031
0002
0000
1003
2000
,  // measure 53
0000
3100
0200
0000
0310
0100
0010
0000
,  // measure 54
1000
2000
0000
3001
0002
0000
1003
2000
,  // measure 55
0000
3010
0020
0000
0130
0001
1000
0000
,  // measure 56
0100
1000
0001
0000
0100
0001
1000
0000
,  // measure 57
0100
1000
0001
0000
0101
0000
1100
0000
;
