#TITLE:Say Less;
#SUBTITLE:(ft. G Eazy);
#ARTIST:Dillon Francis;
#TITLETRANSLIT:;
#SUBTITLETRANSLIT:;
#ARTISTTRANSLIT:;
#GENRE:;
#CREDIT:;
#BANNER:;
#BACKGROUND:;
#LYRICSPATH:;
#CDTITLE:;
#MUSIC:sayless.ogg;
#OFFSET:0.000000;
#SAMPLESTART:56.451000;
#SAMPLELENGTH:12.000000;
#SELECTABLE:YES;
#BPMS:0.000000=136.000000
,93.000000=102.000000
,93.166664=68.000000
,93.333336=34.000000
,93.583336=68.000000
,94.000000=136.000000
,126.000000=272.000000
,205.000000=68.000000
,237.000000=136.000000
,269.000000=272.000000
,301.000000=136.000000
,302.000000=272.000000
;
#STOPS:93.583336=0.250000,
158.020828=0.250000,
176.000000=-1.764706,
187.000000=-1.764706,
319.000000=-1.764706,
330.000000=-1.764706
;
#BGCHANGES:;
#KEYSOUNDS:;
#ATTACKS:;

//---------------dance-single - ----------------
#NOTES:
     dance-single:
     :
     Hard:
     13:
     0.465144,1.233069,0.099595,0.114918,0.329431,425.000000,412.000000,13.000000,15.000000,0.000000,0.000000,0.465144,1.233069,0.099595,0.114918,0.329431,425.000000,412.000000,13.000000,15.000000,0.000000,0.000000:
0000
0000
0000
0000
,
0000
0000
0000
0000
,
0000
0000
0000
0000
,
0000
0000
0000
0000
,
0000
0000
0000
0000
,
0000
0000
0000
0000
,
0000
0000
0000
0000
,
0000
0000
0000
0000
,
1000
0010
0000
0100
0010
0000
1000
0000
0010
0000
0100
0001
0010
0000
0010
0000
,
0001
0010
0000
0100
0010
0000
0001
0000
0010
0000
0100
1000
0010
0000
0010
0000
,
1000
0001
0000
0010
0001
0000
1000
0000
0001
0000
1000
0010
1000
0000
1000
0000
,
0100
1000
0000
0001
1000
0000
0010
0000
1000
0000
0100
0010
0001
0000
0001
0000
,
0100
0001
0000
1000
0001
0000
0100
0000
0010
0000
1000
0100
0010
0000
0010
0000
,
0100
1000
0000
0001
1000
0000
0100
0000
0010
0000
0001
0100
0010
0000
0010
0000
,
1000
0100
0000
1000
0001
0000
0100
0000
0001
0000
1000
0010
1000
0000
1000
0000
,
0001
0100
0000
0001
1000
0000
0100
0000
1000
0000
0001
0010
0100
0000
1000
0000
,
1000
0000
0001
0100
1000
0000
0100
0000
,
0000
0010
0000
1000
0010
0100
0001
0000
,
0001
0000
1000
0100
0001
0000
0100
0000
,
0000
0010
0000
0010
0001
1000
0100
0000
,
0100
0000
0010
0001
1000
0001
0100
0100
,
0010
0010
1000
0001
1000
0010
0010
0100
,
0002
1000
1000
0003
0100
0010
0100
0010
,
0200
0000
0000
0000
0000
0000
0000
0000
0000
0000
0000
0000
0010
0000
0000
0000
0000
0000
0000
0300
0000
0000
0000
0000
1001
0000
0000
0000
0000
0000
0000
0000
0000
0000
0000
0000
0001
0000
0000
0000
0000
0000
0100
0000
0000
0000
0000
0000
,
0010
0000
0001
0000
0000
0010
0000
1000
,
0100
0010
0001
0000
1001
0000
1000
0100
,
0010
0000
1000
0000
0000
0010
0000
0001
,
1000
0010
0100
0000
0110
0000
0100
0001
,
0010
0000
1000
0000
0000
1000
0000
1000
,
0010
0001
0100
0000
0110
0000
0100
0010
,
1000
0100
0021
0001
,
0001
0031
1010
0000
,
1000
0100
0010
0000
,
0100
0000
0000
1000
,
0000
0001
0010
0100
,
1000
0000
1100
0000
,
0001
0100
0010
0000
,
0100
0000
0000
0001
,
0000
1000
0010
0100
,
0001
0000
0000
0000
0000
0000
0000
0000
0000
0000
0000
0000
0000
0000
0000
0000
0000
0000
0000
0000
0000
0000
0000
0000
0000
0000
0000
0000
0000
0000
0000
0000
0000
0000
0000
0000
0000
0000
0000
0000
0000
0000
0000
0000
0000
0000
0000
0000
0000
0000
0000
0000
0000
0000
0000
0000
0000
0000
0000
0000
0000
0000
0000
0000
0000
0000
0000
0000
0000
0000
0000
0000
0000
0000
0000
0000
0000
0000
0000
0000
0000
0000
0000
0000
0000
0000
0000
0000
0000
0000
0000
0000
0000
0000
0000
0000
2002
3003
0000
0000
0000
0000
0000
0000
0000
0000
0000
0000
0000
0000
0000
0000
0000
0000
0000
0000
0000
0000
0000
0000
0000
0000
0000
0000
0000
0000
0000
0000
0000
0000
0000
0000
0000
0000
0000
0000
0000
0000
0000
0000
0000
0000
0000
0000
1000
0000
0000
0000
0000
0000
0000
0000
0000
0000
0000
0000
0000
0000
0000
0000
0000
0000
0000
0000
0000
0000
0000
0000
0000
0000
0000
0000
0000
0000
0000
0000
0000
0000
0000
0000
0000
0000
0000
0000
0000
0000
0000
0000
0000
0000
0000
0000
,
0100
0010
0000
0100
,
0000
0000
1000
0000
,
0001
0010
0100
1000
,
0000
0010
1000
0010
,
0010
1000
0010
1001
,
0001
0000
0000
0000
0000
0000
0010
0000
0000
0000
0100
0001
0010
0000
0000
0000
,
0010
1000
0010
0010
,
1000
0010
1001
0001
,
0000
0000
0010
0000
0000
0000
0100
0001
0010
0000
0000
0000
0010
0000
0000
0000
,
1000
0010
1000
0020
,
0000
0030
1001
1000
,
0000
0000
0000
0000
0000
0000
0010
0000
0000
0000
0100
0001
0010
0000
0001
1000
,
0100
0000
0000
0000
1000
0000
0010
0000
0000
0000
0000
0000
0000
0000
0000
0100
0000
0000
0010
0000
0000
0000
0000
0000
0000
0000
0000
1000
0000
0000
0100
0000
0000
1000
0000
0000
0001
0000
0000
0100
0000
0000
0001
0000
0000
1000
0000
0000
,
0100
0000
0000
0000
0010
0000
0100
0000
0000
0000
0000
0000
0000
0000
0000
0000
0000
0000
1000
0000
0000
0000
0000
0000
0000
0000
0000
0010
0000
0000
0100
0000
0000
0001
0000
0000
0100
0000
0000
0010
0000
0000
0100
0000
0000
0001
0000
0000
,
0010
0000
0000
0000
0001
0000
0100
0000
0000
0000
0000
0000
0000
0000
0000
0010
0000
0000
1000
0000
0000
0000
0000
0000
0000
0000
0000
0100
0000
0000
1000
0000
0000
0010
0000
0000
1000
0000
0000
0100
0000
0000
1000
0000
0000
1000
0000
0000
,
0100
0000
0000
0000
0000
0000
0000
0000
0000
0000
0000
0000
0000
0000
0000
0000
1000
0000
0000
0000
0000
0000
0000
0000
0010
0000
0000
0000
0000
0000
0000
0000
0000
0000
0000
0000
0000
0000
0000
0000
0000
0000
0000
0000
0000
0000
0000
0000
0100
0000
0000
0000
0000
0000
0001
0000
0000
0000
0000
0000
0000
0000
0000
0000
0000
0000
1000
0000
0000
0000
0000
0000
0001
0000
0000
0000
0000
0000
0000
0000
0000
0000
0000
0000
0100
0000
0000
0000
0000
0000
0000
0000
0000
0000
0000
0000
0010
0000
0000
0000
0000
0000
0000
0000
0000
0000
0000
0000
0010
0000
0000
0000
0000
0000
0000
0000
0000
0000
0000
0000
0100
0000
0000
0000
0000
0000
0000
0000
0000
0000
0000
0000
0001
0000
0000
0000
0000
0000
0000
0000
0000
0000
0000
0000
1000
0000
0000
0000
0000
0000
0100
0000
0000
0000
0000
0000
0000
0000
0000
0000
0000
0000
1000
0000
0000
0000
0000
0000
0001
0000
0000
0000
0000
0000
0000
0000
0000
0000
0000
0000
0100
0000
0000
0000
0000
0000
0000
0000
0000
0000
0000
0000
,
0010
0000
0010
0000
0100
0000
0001
0000
1000
0010
0000
1000
0001
0000
1000
0000
0100
0000
0100
0000
1000
0000
0010
0000
0100
0001
0000
1000
0001
0000
0010
0000
,
0100
0000
0100
0000
1000
0000
0001
0000
0010
0100
0000
1000
0100
0000
0010
0000
0001
0000
1000
0000
0001
0000
1000
0000
0010
0100
0000
0001
0100
0000
0010
0000
,
1000
0000
1000
0000
0001
0000
1000
0000
0010
0100
0000
0001
0100
0000
0010
0000
1000
0000
1000
0000
0100
0000
1000
0000
0010
0100
0000
0001
0100
0000
0010
0000
,
1000
1000
0010
0100
0001
0000
0000
0000
0001
0000
0100
0000
0010
0000
0000
0000
,
0100
0000
0000
0100
0000
0001
0010
0100
,
1000
0000
1000
0000
1000
0100
0010
0000
,
0100
0000
0000
0100
0000
1000
0010
0100
,
0001
0000
0001
0000
0001
1000
0010
0000
,
1000
1000
0010
1000
0010
0000
0100
0100
,
0001
0010
0100
0010
0100
0000
1000
0001
,
1000
0000
0002
0023
0032
0023
0032
0023
,
0031
1100
0000
1000
,
0100
0010
0000
0100
,
0000
0000
1000
0000
,
0001
0010
0100
1000
,
0000
0101
0000
0001
,
0100
0010
0000
0100
,
0000
0000
0001
0000
,
1000
0010
0100
0001
,
0000
0000
0100
0010
1000
0000
0100
0000
,
0010
0000
0100
0000
,
0000
1000
0000
0001
,
0010
0100
1000
0000
,
0010
1000
0010
0010
,
1000
0010
1001
0001
,
0000
0000
0000
0010
,
1000
0010
0010
1000
,
0010
1001
0001
0000
,
0000
0000
0010
1000
,
0010
1000
0020
0000
,
0030
1001
2002
0000
,
3003
0000
0000
0000
;

//---------------dance-single - ----------------
#NOTES:
     dance-single:
     :
     Medium:
     9:
     0.285653,0.497020,0.068951,0.183869,0.030645,261.000000,252.000000,9.000000,24.000000,0.000000,0.000000,0.285653,0.497020,0.068951,0.183869,0.030645,261.000000,252.000000,9.000000,24.000000,0.000000,0.000000:
0000
0000
0000
0000
,
0000
0000
0000
0000
,
0000
0000
0000
0000
,
0000
0000
0000
0000
,
0000
0000
0000
0000
,
0000
0000
0000
0000
,
0000
0000
0000
0000
,
0000
0000
0000
0000
,
1000
0000
0000
1000
0000
0000
1000
0000
0100
0000
0010
0000
0010
0000
0000
0000
,
0001
0000
0000
0001
0000
0000
0001
0000
0100
0000
0010
0000
0010
0000
0000
0000
,
1000
0000
0000
1000
0000
0000
1000
0000
0001
0000
0010
0000
0100
0000
1000
0000
,
0001
0000
0000
0001
0000
0000
0001
0000
1000
0000
0010
0000
0100
0000
0000
0000
,
0010
0000
0000
0010
0000
0000
0010
0000
1000
0000
0100
0000
0010
0000
0000
0000
,
0100
0000
0000
0100
0000
0000
0100
0000
1000
0000
0010
0000
0100
0000
0000
0000
,
0001
0000
0000
0001
0000
0000
0001
0000
0010
0000
0100
0000
0010
0000
0001
0000
,
1000
0000
0000
1000
0000
0000
1000
0000
0010
0000
0100
0000
0001
0000
0000
0000
,
1001
0000
1000
0100
1000
0000
0100
0000
,
0000
0010
0000
0001
0010
0100
1000
0000
,
1000
0000
0001
0100
0001
0000
0100
0000
,
0000
0010
0000
1000
0010
0100
0001
0000
,
0001
0000
1000
0010
1000
0000
0010
0000
,
0000
0100
0000
0001
0010
0100
1000
0000
,
1000
0000
0001
0010
0001
0000
0010
0000
,
0200
0000
0000
0000
0000
0000
0000
0000
0000
0000
0000
0000
0000
0000
0000
0000
0000
0000
0000
0300
0000
0000
0000
0000
0110
0000
0000
0000
0000
0000
0000
0000
0000
0000
0000
0000
1000
0000
0000
0000
0000
0000
0000
0000
0000
0000
0000
0000
,
0001
0000
0001
0000
0000
1000
0000
1000
,
0010
0100
0001
0000
0001
0000
0001
0000
,
0100
0000
0100
0000
0000
0010
0000
0010
,
1000
0001
0100
0000
0100
0000
0100
0000
,
0001
0000
0001
0000
0000
1000
0000
0001
,
0010
0100
1000
0000
1000
0000
1000
0000
,
0010
0010
0202
0000
,
0000
0303
0101
0000
,
1000
0100
1000
0000
,
0100
0000
0000
1000
,
0000
0001
0010
0100
,
1000
0000
1000
0000
,
0001
0100
0001
0000
,
0100
0000
0000
0001
,
0000
1000
0010
0100
,
0001
0000
0000
0000
0000
0000
0000
0000
0000
0000
0000
0000
0000
0000
0000
0000
0000
0000
0000
0000
0000
0000
0000
0000
0000
0000
0000
0000
0000
0000
0000
0000
0000
0000
0000
0000
0000
0000
0000
0000
0000
0000
0000
0000
0000
0000
0000
0000
0000
0000
0000
0000
0000
0000
0000
0000
0000
0000
0000
0000
0000
0000
0000
0000
0000
0000
0000
0000
0000
0000
0000
0000
0000
0000
0000
0000
0000
0000
0000
0000
0000
0000
0000
0000
0000
0000
0000
0000
0000
0000
0000
0000
0000
0000
0000
0000
2002
3003
0000
0000
0000
0000
0000
0000
0000
0000
0000
0000
0000
0000
0000
0000
0000
0000
0000
0000
0000
0000
0000
0000
0000
0000
0000
0000
0000
0000
0000
0000
0000
0000
0000
0000
0000
0000
0000
0000
0000
0000
0000
0000
0000
0000
0000
0000
0001
0000
0000
0000
0000
0000
0000
0000
0000
0000
0000
0000
0000
0000
0000
0000
0000
0000
0000
0000
0000
0000
0000
0000
0000
0000
0000
0000
0000
0000
0000
0000
0000
0000
0000
0000
0000
0000
0000
0000
0000
0000
0000
0000
0000
0000
0000
0000
,
0100
0001
0000
0100
,
0000
0000
0001
0000
,
1000
0010
0100
0001
,
0000
2000
0000
3000
,
2000
0000
3000
0002
,
0000
0003
0000
0000
,
2000
0000
3000
2000
,
0000
3000
0002
0000
,
0003
0000
0000
2000
,
0000
3000
0000
0002
,
0000
0003
1000
0001
,
0000
0000
0000
1000
0000
0001
0010
0001
,
1000
0001
0000
0100
0000
0010
1000
1000
,
0010
0100
0000
0001
0000
1000
0100
1000
,
0010
1000
0000
0001
0000
0010
0100
1000
,
1000
0100
0000
1000
0000
0001
0000
0001
,
0000
0001
0000
1000
0000
0010
0000
0010
,
0000
0010
0000
1000
0000
0001
0000
0100
,
0000
0100
0000
0001
0000
1000
0000
0100
,
0000
0010
1001
0000
0002
0000
0003
0000
,
2000
3000
0200
0300
,
2000
3000
0020
0030
,
0200
0300
0002
0003
,
0020
0030
0002
0000
,
0003
1000
0001
1000
0001
0000
0100
0000
,
0100
0000
0001
1000
0001
0000
0010
0000
,
0010
2200
0000
0000
,
3300
1100
0000
1000
,
0100
1000
0000
0100
,
0000
0000
1000
0000
,
0001
0010
0100
1000
,
0000
1000
0000
0001
,
0100
0001
0000
0100
,
0000
0000
0001
0000
,
1000
0010
0100
0001
,
0000
0110
1000
0100
,
1000
0000
0100
0000
,
0000
1000
0000
0001
,
0010
0100
1000
0000
,
2000
0000
3000
2000
,
0000
3000
0002
0000
,
0003
0000
0000
2000
,
0000
3000
2000
0000
,
3000
0002
0000
0003
,
0000
0000
2000
0000
,
3000
0000
0002
0000
,
0003
1000
0100
0000
;

//---------------dance-single - ----------------
#NOTES:
     dance-single:
     :
     Easy:
     6:
     0.177302,0.298212,0.038306,0.191530,0.000000,162.000000,157.000000,5.000000,25.000000,0.000000,0.000000,0.177302,0.298212,0.038306,0.191530,0.000000,162.000000,157.000000,5.000000,25.000000,0.000000,0.000000:
0000
0000
0000
0000
,
0000
0000
0000
0000
,
0000
0000
0000
0000
,
0000
0000
0000
0000
,
0000
0000
0000
0000
,
0000
0000
0000
0000
,
0000
0000
0000
0000
,
0000
0000
0000
0000
,
1000
0000
0000
0010
0000
0000
1000
0000
,
0001
0000
0000
0100
0000
0000
0001
0000
,
1000
0000
0000
0100
0000
0000
1000
0000
,
0001
0000
0000
0010
0000
0000
0001
0000
,
1000
0000
0000
1000
0000
0000
0100
0000
,
0010
0000
0000
0010
0000
0000
0001
0000
,
0100
0000
0000
0100
0000
0000
0010
0000
,
1000
0000
0000
1000
0000
0000
0001
0000
,
1000
1000
0001
0001
,
1000
1000
0010
1000
,
0001
0001
1000
1000
,
0001
0001
0010
0001
,
0100
0100
0010
0010
,
1000
0001
1000
0010
,
0100
0100
0010
0010
,
0200
0000
0000
0000
0000
0000
0000
0000
0000
0000
0000
0000
0000
0000
0000
0000
0000
0000
0000
0300
0000
0000
0000
0000
0001
0000
0000
0000
0000
0000
0000
0000
0000
0000
0000
0000
0010
0000
0000
0000
0000
0000
0000
0000
0000
0000
0000
0000
,
0001
1000
0010
0100
,
0001
0100
0001
0010
,
0001
1000
0100
1000
,
0010
0010
1000
0001
,
0010
0100
1000
0010
,
0100
0001
1000
1000
,
0010
1000
0002
0000
,
0000
0003
1001
0000
,
0001
0000
0100
0000
,
0010
0000
0000
0000
,
0100
0000
0001
0000
,
0010
0000
0100
0000
,
0100
0000
1000
0000
,
0010
0000
0000
0000
,
0010
0000
1000
0000
,
0001
0000
0000
0000
0000
0000
0000
0000
0000
0000
0000
0000
0000
0000
0000
0000
0000
0000
0000
0000
0000
0000
0000
0000
0000
0000
0000
0000
0000
0000
0000
0000
0000
0000
0000
0000
0000
0000
0000
0000
0000
0000
0000
0000
0000
0000
0000
0000
0000
0000
0000
0000
0000
0000
0000
0000
0000
0000
0000
0000
0000
0000
0000
0000
0000
0000
0000
0000
0000
0000
0000
0000
0000
0000
0000
0000
0000
0000
0000
0000
0000
0000
0000
0000
0000
0000
0000
0000
0000
0000
0000
0000
0000
0000
0000
0000
0200
0300
0000
0000
0000
0000
0000
0000
0000
0000
0000
0000
0000
0000
0000
0000
0000
0000
0000
0000
0000
0000
0000
0000
0000
0000
0000
0000
0000
0000
0000
0000
0000
0000
0000
0000
0000
0000
0000
0000
0000
0000
0000
0000
0000
0000
0000
0000
0100
0000
0000
0000
0000
0000
0000
0000
0000
0000
0000
0000
0000
0000
0000
0000
0000
0000
0000
0000
0000
0000
0000
0000
0000
0000
0000
0000
0000
0000
0000
0000
0000
0000
0000
0000
0000
0000
0000
0000
0000
0000
0000
0000
0000
0000
0000
0000
,
0000
0010
0000
0100
,
0000
0000
0000
0001
,
0000
1000
0000
0001
,
0000
2002
0000
0000
,
0000
0000
0000
0000
,
0010
0000
0000
0000
,
0000
0000
0000
0000
,
0000
0000
0100
0000
,
0000
0000
0000
0000
,
0000
0000
0000
3003
,
0000
0000
0000
0100
,
0000
0200
0300
0020
,
0030
2000
3000
0020
,
0030
0200
0300
0002
,
0003
0200
0300
0020
,
0030
2000
3000
0200
,
0300
0020
0030
0002
,
0003
0002
0003
0020
,
0030
0200
0300
2000
,
3000
0000
1000
0000
,
0001
0000
1000
0000
,
1000
0000
0001
0000
,
1000
0000
0010
0000
,
0100
0000
0001
0000
,
0000
0100
0100
0000
,
0000
0001
0001
0000
,
0000
2000
0000
0000
,
3000
1001
0000
0100
,
0000
0010
0000
0100
,
0000
0000
0000
0100
,
0000
0010
0000
1000
,
0000
0001
0000
1000
,
0000
0001
0000
1000
,
0000
0000
0000
0010
,
0000
0100
0000
0010
,
0000
2000
3000
0000
,
0001
0000
0001
0000
,
0000
0000
0100
0000
,
0001
0000
0100
0000
,
2002
0000
0000
0000
,
0000
0000
0000
0000
,
0110
0000
0000
0000
,
0000
0000
0000
0000
,
0000
0000
0110
0000
,
0000
0000
0000
0000
,
0000
0000
0000
0000
0000
0000
0000
3003
,
0000
0000
0110
0000
;

//---------------dance-single - ----------------
#NOTES:
     dance-single:
     :
     Beginner:
     5:
     0.114918,0.231943,0.007661,0.114918,0.000000,105.000000,104.000000,1.000000,15.000000,0.000000,0.000000,0.114918,0.231943,0.007661,0.114918,0.000000,105.000000,104.000000,1.000000,15.000000,0.000000,0.000000:
// measure 0
0000
0000
0000
0000
,  // measure 1
0000
0000
0000
0000
,  // measure 2
0000
0000
0000
0000
,  // measure 3
0000
0000
0000
0000
,  // measure 4
0000
0000
0000
0000
,  // measure 5
0000
0000
0000
0000
,  // measure 6
0000
0000
0000
0000
,  // measure 7
0000
0000
0000
0000
,  // measure 8
0001
0000
0000
0000
,  // measure 9
1000
0000
0000
0000
,  // measure 10
0001
0000
0000
0000
,  // measure 11
1000
0000
0000
0000
,  // measure 12
0010
0000
0000
0000
,  // measure 13
0100
0000
0000
0000
,  // measure 14
0010
0000
0000
0000
,  // measure 15
0100
0000
0000
0000
,  // measure 16
0001
0000
0001
0000
,  // measure 17
1000
0000
1000
0000
,  // measure 18
0001
0000
1000
0000
,  // measure 19
0001
0000
0001
0000
,  // measure 20
1000
0000
1000
0000
,  // measure 21
1000
0000
1000
0000
,  // measure 22
0001
0000
1000
0000
,  // measure 23
0002
0000
0000
0000
0000
0000
0000
0000
0000
0000
0000
0000
0000
0000
0000
0000
0000
0000
0000
0003
0000
0000
0000
0000
0000
0000
0000
0000
0000
0000
0000
0000
0000
0000
0000
0000
0000
0000
0000
0000
0000
0000
0000
0000
0000
0000
0000
0000
,  // measure 24
0010
0000
0010
0000
,  // measure 25
0010
0000
0100
0000
,  // measure 26
0010
0000
0100
0000
,  // measure 27
0010
0000
1000
0000
,  // measure 28
0010
0000
1000
0000
,  // measure 29
0010
0000
0100
0000
,  // measure 30
0100
0000
0200
0000
,  // measure 31
0000
0300
0100
0000
,  // measure 32
0000
0000
0100
0000
,  // measure 33
0000
0000
0010
0000
,  // measure 34
0000
0000
0010
0000
,  // measure 35
0000
0000
1000
0000
,  // measure 36
0000
0000
1000
0000
,  // measure 37
0000
0000
0001
0000
,  // measure 38
0000
0000
0001
0000
,  // measure 39
0000
0000
0001
0000
,  // measure 40
0000
0001
0000
0000
,  // measure 41
0000
1000
0000
0000
,  // measure 42
0000
1000
0000
0000
,  // measure 43
0000
0020
0000
0000
,  // measure 44
0000
0000
0000
0000
,  // measure 45
1000
0000
0000
0000
,  // measure 46
0000
0000
0000
0000
,  // measure 47
0000
0000
0000
0001
,  // measure 48
0000
0000
0000
0000
,  // measure 49
0000
0000
0000
0000
,  // measure 50
0000
0000
0000
0030
,  // measure 51
0000
0010
0000
1000
,  // measure 52
1000
1000
0000
0001
,  // measure 53
0001
0001
0000
0100
,  // measure 54
0100
0100
0000
0010
,  // measure 55
0010
0010
0000
1000
,  // measure 56
0000
0100
0000
0001
,  // measure 57
0000
0010
0010
0010
,  // measure 58
0000
0100
0100
0100
,  // measure 59
0000
0001
0002
0003
,  // measure 60
0002
0003
0002
0003
,  // measure 61
0002
0003
0002
0003
,  // measure 62
0002
0003
0002
0003
,  // measure 63
0002
0003
0002
0003
,  // measure 64
0000
0001
0001
0000
,  // measure 65
0000
1000
1000
0000
,  // measure 66
0000
2002
0000
0000
,  // measure 67
3003
0001
0000
0001
,  // measure 68
0000
0001
0000
0000
,  // measure 69
0000
1000
0000
0000
,  // measure 70
0000
1000
0000
0000
,  // measure 71
0000
0010
0000
0010
,  // measure 72
0000
0010
0000
0000
,  // measure 73
0000
0100
0000
0000
,  // measure 74
0000
0100
0000
0000
,  // measure 75
0000
0100
0000
0000
,  // measure 76
0100
0000
0000
0000
,  // measure 77
0001
0000
0001
0000
,  // measure 78
0001
0000
0000
0000
,  // measure 79
0020
0000
0000
0000
,  // measure 80
0000
0000
0000
0101
,  // measure 81
0000
0000
0000
0000
,  // measure 82
0000
0000
0000
0000
,  // measure 83
0000
0000
1100
0000
,  // measure 84
0000
0000
0000
0000
,  // measure 85
0000
0000
0000
0000
,  // measure 86
0000
0030
0010
0000
;
