#VERSION:0.83;
#TITLE:STAY;
#SUBTITLE:feat. Justin Bieber;
#ARTIST:The Kid Laroi;
#TITLETRANSLIT:;
#SUBTITLETRANSLIT:;
#ARTISTTRANSLIT:;
#GENRE:;
#ORIGIN:;
#CREDIT:;
#BANNER:bn.png;
#BACKGROUND:bg.png;
#PREVIEWVID:;
#JACKET:;
#CDIMAGE:;
#DISCIMAGE:;
#LYRICSPATH:;
#CDTITLE:;
#MUSIC:STAY(clean) - The Kid Laroi Justin Bieber (DDR edit).ogg;
#OFFSET:0.020000;
#SAMPLESTART:36.686401;
#SAMPLELENGTH:14.117649;
#SELECTABLE:YES;
#BPMS:0.000=170.000;
#STOPS:;
#DELAYS:;
#WARPS:;
#TIMESIGNATURES:0.000=4=4;
#TICKCOUNTS:0.000=4;
#COMBOS:0.000=1;
#SPEEDS:0.000=1.000=0.000=0;
#SCROLLS:0.000=1.000;
#FAKES:;
#LABELS:0.000=Song Start,
16.000=chorus 1,
32.000=chorus 2,
48.000=verse 1,
64.000=verse 1.5,
80.000=verse 2,
96.000=verse 2.5,
112.000=rift 1,
128.000=rift 1.5,
144.000=chorus 3,
160.000=chorus 3.5,
176.000=chorus 4,
192.000=chorus 4.5,
208.000=break 1,
224.000=break 1.5,
240.000=rift 2,
256.000=rift 2.5,
272.000=end;
#BGCHANGES:;
#KEYSOUNDS:;
#ATTACKS:
;

//---------------dance-single - ----------------
#NOTEDATA:;
#CHARTNAME:Hands work!;
#STEPSTYPE:dance-single;
#DESCRIPTION:;
#CHARTSTYLE:Pad;
#DIFFICULTY:Challenge;
#METER:9;
#RADARVALUES:0.536779,0.541691,0.049834,0.617936,0.009967,377.000000,372.000000,5.000000,62.000000,2.000000,24.000000,6.000000,0.000000,0.000000,0.536779,0.541691,0.049834,0.617936,0.009967,377.000000,372.000000,5.000000,62.000000,2.000000,24.000000,6.000000,0.000000,0.000000;
#CREDIT:Zach Bell;
#NOTES:
0000
0000
0000
0000
,
0000
0000
0000
0000
,
0000
0000
0000
0000
,
0000
0000
0000
0000
,
1000
0001
0100
0020
0000
0000
1030
0100
,
0010
0000
0001
0000
0100
0000
0010
0000
1000
0000
0001
0000
0010
0M00
0010
0000
,
1000
0001
0010
0200
0000
0000
0310
0001
,
0100
0000
0010
0000
1000
0000
0100
0000
0010
0000
0001
0000
0100
00M0
0100
0000
,
1000
0001
0100
0002
0000
0000
0103
0010
,
1000
0100
0010
0100
0010
0001
1000
0001
,
0100
0010
0100
2000
0000
3000
0100
0001
,
0010
2000
0000
3000
0020
0000
0000
0030
,
0000
0001
1000
0000
0010
0000
0100
0001
,
0000
1000
0000
0100
0010
0000
0001
0000
,
1000
0001
0010
0000
0100
0000
1000
0001
,
0000
0100
0000
0010
1000
0000
0001
0000
,
0010
0100
1000
0000
0001
0000
0100
0010
,
0000
1000
0000
0001
0010
0000
0100
0000
,
2000
3002
2003
3002
,
0103
0001
1000
0010
1000
0001
0010
0000
,
0100
1000
0100
1000
0100
1000
0100
0010
,
0001
0010
0001
0010
0001
0010
0001
0000
,
1000
0010
1000
0010
1000
0010
1000
0001
,
0100
0001
0100
0001
0100
0001
0100
0000
,
0020
0000
0000
2030
,
0000
0000
3000
0000
,
0002
2003
3002
2003
,
3010
1000
0010
0100
0001
0100
0001
0000
,
0200
0002
1000
0010
0300
0003
1000
0010
,
1000
0001
0010
0100
0001
0100
0010
0001
,
0020
0002
1000
0100
0030
0003
0010
0100
,
1000
0100
0001
0100
0010
0100
1000
0001
,
2000
0020
0100
0001
3000
0030
1000
0001
,
0100
0010
0001
0010
0100
0001
1000
0001
,
0010
0100
0010
2000
0000
3000
0010
0001
,
0100
0000
2000
0000
0000
0000
3000
0000
0200
0000
0000
0000
0000
0000
0000
0300
,
0000
0001
1000
0100
0010
0100
1000
0001
,
0100
0010
0200
0000
0300
0000
0000
0000
,
1001
0000
0001
1000
0010
0100
0010
1000
,
0001
0010
0400
0000
0000
0000
0300
0000
,
0110
0000
1000
0001
0010
0100
0010
0001
,
1000
0010
2000
0000
3000
0000
0000
0000
,
0101
0000
0001
0100
0010
1000
0001
0100
,
0010
1000
0004
0000
0000
0000
0003
0000
,
0000
1000
0001
0020
0000
0130
1000
0100
,
0020
0030
0002
0003
2000
3000
0020
0030
,
0100
0001
1000
0010
0100
0001
0010
0100
,
2000
3000
0020
0030
0200
0300
0002
0003
,
0000
0100
0001
0040
0030
0100
1000
0040
,
0030
0100
0001
0040
0030
0100
1000
0040
,
0000
0000
0230
0000
0300
0001
0100
0001
,
2000
0002
0000
0000
3003
1001
1001
0000
,
2000
0200
0020
0002
0000
3333
1000
0001
,
1000
0100
0010
0001
1000
0010
0100
0001
,
2000
0020
0200
0002
0000
3333
1000
0001
,
1000
0010
0100
0001
0010
0100
1000
0010
,
0200
0002
2000
0020
0000
3333
0001
1000
,
0001
0010
0100
1000
0010
0100
0001
1000
,
0002
0200
0010
1000
0000
0000
0010
1000
,
0010
1000
0003
0300
0001
0100
0001
0100
,
0002
0200
0010
1000
0003
0300
0010
1000
,
0001
0010
0100
1000
0010
0100
0001
1000
,
0200
2000
0001
0010
0300
3000
0001
0010
,
0100
1000
0001
0100
0010
1000
0001
0100
,
0020
2000
0001
0100
0030
3000
0001
0100
,
0010
1000
0001
0010
0100
1000
0010
0100
,
0010
1000
0100
0002
0000
0003
0100
1000
,
0010
0000
0002
0000
0000
0000
0003
0000
0020
0000
0000
0000
0000
0000
0000
0030
;

//---------------dance-single - ----------------
#NOTEDATA:;
#CHARTNAME:Quick feet!;
#STEPSTYPE:dance-single;
#DESCRIPTION:;
#CHARTSTYLE:Pad;
#DIFFICULTY:Hard;
#METER:8;
#RADARVALUES:0.548169,0.541691,0.069767,0.458469,0.000000,385.000000,378.000000,7.000000,46.000000,0.000000,0.000000,6.000000,0.000000,0.000000,0.548169,0.541691,0.069767,0.458469,0.000000,385.000000,378.000000,7.000000,46.000000,0.000000,0.000000,6.000000,0.000000,0.000000;
#CREDIT:Zach Bell;
#NOTES:
// measure 0
0000
0000
0000
0000
,  // measure 1
0000
0000
0000
0000
,  // measure 2
0000
0000
0000
0000
,  // measure 3
0000
0000
0000
0000
,  // measure 4
0001
1000
0100
0020
0000
0000
0031
1000
,  // measure 5
0010
0100
1000
0100
0010
0100
0001
1000
,  // measure 6
0001
0010
0100
0020
0000
0000
0031
0010
,  // measure 7
0100
0010
1000
0010
0100
0010
0001
1000
,  // measure 8
0010
0100
0001
0200
0000
0000
0301
0100
,  // measure 9
0010
0100
1000
0100
0010
0100
0001
1000
,  // measure 10
0100
0010
0100
0002
0000
0003
0100
0010
,  // measure 11
0001
0000
2000
0000
0000
0000
0000
0000
3020
0000
0000
0000
0000
0000
0000
0030
,  // measure 12
1000
0010
0100
0000
0110
0000
0001
1000
,  // measure 13
0000
0001
0000
1000
0010
0100
0010
0100
,  // measure 14
0001
1000
0100
0000
1100
0000
1000
0001
,  // measure 15
0000
0100
0000
0010
0100
0001
1000
0010
,  // measure 16
1000
0001
0010
0000
0011
0000
0001
0010
,  // measure 17
0000
0100
0000
1000
0100
0010
0100
1000
,  // measure 18
0001
0100
0020
0030
1000
0100
0020
0030
,  // measure 19
0001
0100
0010
1000
0100
0010
0002
0003
,  // measure 20
1000
0010
1000
0010
1000
0010
1000
0010
,  // measure 21
0100
0001
0100
0001
0100
0001
0100
0000
,  // measure 22
0001
0010
0001
0010
0001
0010
0001
0010
,  // measure 23
0100
1000
0100
1000
0100
1000
0100
0000
,  // measure 24
0020
0000
0000
0032
,  // measure 25
0000
0000
0003
0000
,  // measure 26
2000
3002
2003
3002
,  // measure 27
0103
0001
0100
0010
1000
0010
1000
0000
,  // measure 28
0020
1000
0100
0001
0030
0000
0010
0100
,  // measure 29
0001
1000
0010
0100
0001
0001
1000
0100
,  // measure 30
0020
0001
0100
1000
0030
0000
0010
0100
,  // measure 31
1000
0001
0100
0010
1000
1000
0010
0100
,  // measure 32
0020
0001
0100
1000
0030
0000
0010
1000
,  // measure 33
0001
0010
0100
0010
0001
1000
0100
0010
,  // measure 34
0001
1000
0010
0002
0000
0003
0010
1000
,  // measure 35
0100
0002
0000
0003
0200
0000
0000
0300
,  // measure 36
0000
1000
0100
0010
0001
1000
0010
0100
,  // measure 37
0001
1000
0200
0000
0300
0000
0000
0000
,  // measure 38
0110
0000
0001
0100
0010
1000
0001
0010
,  // measure 39
0100
0000
1000
0000
0400
0000
0000
0000
0000
0000
0000
0300
0000
0000
0000
0000
,  // measure 40
1001
0000
1000
0001
0100
0010
1000
0001
,  // measure 41
0010
0100
2000
0000
3000
0000
0000
0000
,  // measure 42
1100
0000
1000
0100
0010
0001
1000
0100
,  // measure 43
0010
0001
4000
0000
0000
0000
3000
0000
,  // measure 44
0000
0001
1000
0020
0000
0130
0010
1000
,  // measure 45
0002
0003
2000
3000
0200
0300
0020
0030
,  // measure 46
0000
0001
1000
0010
0100
0001
1000
0100
,  // measure 47
0020
0030
0200
0300
2000
3000
0002
0003
,  // measure 48
0000
0100
0001
0040
0030
0100
1000
0040
,  // measure 49
0030
0100
0001
0040
0030
0100
1000
0040
,  // measure 50
0000
0000
0230
0000
0300
0001
1000
0001
,  // measure 51
2002
0000
0000
0000
3003
0001
1000
0000
,  // measure 52
0200
1000
0010
0001
0300
0000
0100
0010
,  // measure 53
0001
1000
0010
0100
0001
0001
0100
0010
,  // measure 54
0200
0001
0010
1000
0300
0000
0100
0010
,  // measure 55
1000
0001
0010
0100
1000
1000
0001
0100
,  // measure 56
0020
1000
0100
0001
0030
0000
0010
0100
,  // measure 57
0001
1000
0100
0010
0001
0001
1000
0000
,  // measure 58
0020
1000
0001
1000
0000
0030
0020
1000
,  // measure 59
0001
1000
0030
0000
0010
1000
0001
1000
,  // measure 60
0200
0001
1000
0001
0300
0000
0010
0001
,  // measure 61
1000
0010
0100
0001
1000
1000
0010
0100
,  // measure 62
0020
0001
1000
0001
0030
0000
0100
0001
,  // measure 63
1000
0100
0010
0100
1000
1000
0010
1000
,  // measure 64
0020
0001
1000
0001
0030
0000
0100
0001
,  // measure 65
1000
0100
0010
0100
0010
0001
1000
0010
,  // measure 66
0100
0001
0010
2000
0000
3000
0010
0001
,  // measure 67
0100
0000
2000
0000
0000
0000
3000
0000
0200
0000
0000
0000
0000
0000
0000
0300
;

//---------------dance-single - ----------------
#NOTEDATA:;
#CHARTNAME:;
#STEPSTYPE:dance-single;
#DESCRIPTION:;
#CHARTSTYLE:Pad;
#DIFFICULTY:Medium;
#METER:7;
#RADARVALUES:0.496912,0.538202,0.000000,0.498336,0.000000,349.000000,349.000000,0.000000,50.000000,0.000000,0.000000,0.000000,0.000000,0.000000,0.496912,0.538202,0.000000,0.498336,0.000000,349.000000,349.000000,0.000000,50.000000,0.000000,0.000000,0.000000,0.000000,0.000000;
#CREDIT:Zach Bell;
#NOTES:
0000
0000
0000
0000
,
0000
0000
0000
0000
,
0000
0000
0000
0000
,
0000
0000
0000
0000
,
1000
0100
0010
0002
0000
0003
1000
0010
,
0100
0010
0100
0010
0100
0001
1000
0000
,
0100
0010
0001
2000
0000
3000
0001
0100
,
0010
0100
0010
0100
0001
1000
0100
0000
,
0010
0001
1000
0020
0000
0030
0100
0010
,
1000
0010
0100
0010
1000
0001
0010
0100
,
1000
0100
0010
0002
0000
0003
1000
0001
,
0100
0020
0000
0000
2030
0000
0000
3000
,
0000
0001
1000
0000
0010
0000
0100
0001
,
0000
1000
0000
0100
0010
0000
0001
0000
,
1000
0001
0010
0000
0100
0000
1000
0001
,
0000
0100
0000
0010
1000
0000
0001
0000
,
0010
0100
1000
0000
0001
0000
0100
0010
,
0000
1000
0000
0001
0010
0000
0100
0000
,
2000
3002
2003
3002
,
0103
0001
1000
0010
1000
0001
0010
0000
,
0001
1000
0001
1000
0001
1000
0001
1000
,
0001
1000
0001
1000
0001
1000
0001
0000
,
0100
0010
0100
0010
0100
0010
0100
0010
,
0100
0010
0100
0010
0100
0010
0100
0000
,
0002
0000
0000
0203
,
0000
0000
0000
0000
0000
0000
0000
0300
,
0002
0003
2000
3000
0002
0003
2000
3000
,
0001
0010
0100
1000
0001
0010
0100
0000
,
1000
0100
0010
0002
0000
0003
1000
0010
,
1000
0010
1000
0010
1000
0010
1000
0000
,
0001
0010
0100
2000
0000
3000
0001
0010
,
0001
0010
0001
0010
0001
0010
0001
0000
,
1000
0010
0100
0002
0000
0003
1000
0100
,
1000
0100
1000
0100
1000
0100
1000
0001
,
0100
0010
1000
0002
0000
0003
1000
0100
,
1000
0200
0000
0000
0300
0000
0000
0000
,
0000
1000
0100
0010
0001
1000
0010
0100
,
0001
1000
0200
0000
0000
0000
0300
0000
,
0000
0000
0010
0001
1000
0010
0100
0001
,
1000
0100
0020
0000
0000
0000
0000
0000
,
0030
0000
0001
1000
0010
0100
0001
1000
,
0100
0010
0002
0000
0000
0000
0003
0000
,
0000
0000
1000
0010
0100
0001
1000
0100
,
0010
0001
2000
0000
0000
0000
0000
0000
,
3000
0001
1000
0002
0003
0010
0100
0010
,
0002
2003
3002
2003
,
3000
0001
1000
0010
0100
0010
0100
0010
,
2000
3020
0230
0302
,
0003
1000
0100
0020
0030
0001
0010
0200
,
0300
1000
0001
0200
0300
0010
0100
0002
,
0000
0003
0200
0000
0300
0001
0100
0001
,
2000
0000
0000
0000
0000
3000
0000
0000
,
0001
0010
0001
0020
0000
0030
0100
1000
,
0100
1000
0100
1000
0100
1000
0100
0000
,
1000
0100
1000
0200
0000
0300
0010
0001
,
0010
0001
0010
0001
0010
0001
0010
0000
,
0001
1000
0001
0200
0000
0300
0001
0100
,
0001
1000
0001
0100
0001
1000
0001
0000
,
1000
0001
0100
0020
0000
0030
1000
0001
,
0010
0200
0000
0000
0300
0000
0000
0000
,
1000
0010
0100
0002
0000
0003
1000
0100
,
1000
0100
1000
0100
1000
0100
1000
0000
,
0100
0010
0001
2000
0000
3000
0001
0100
,
0001
0100
0001
0100
0001
0100
0001
0000
,
0100
0010
1000
0002
0000
0003
1000
0010
,
1000
0010
1000
0010
1000
0010
1000
0000
,
0001
0010
0100
2000
0000
3000
0001
0100
,
0010
2000
0000
0000
3000
0000
0000
0000
;

//---------------dance-single - ----------------
#NOTEDATA:;
#CHARTNAME:;
#STEPSTYPE:dance-single;
#DESCRIPTION:;
#CHARTSTYLE:Pad;
#DIFFICULTY:Beginner;
#METER:4;
#RADARVALUES:0.242049,0.303860,0.009967,0.308968,0.000000,170.000000,169.000000,1.000000,31.000000,0.000000,0.000000,0.000000,0.000000,0.000000,0.242049,0.303860,0.009967,0.308968,0.000000,170.000000,169.000000,1.000000,31.000000,0.000000,0.000000,0.000000,0.000000,0.000000;
#CREDIT:Zach Bell;
#NOTES:
0000
0000
0000
0000
,
0000
0000
0000
0000
,
0000
0000
0000
0000
,
0000
0000
0000
0000
,
1000
0000
0000
0002
0000
0003
0100
0000
,
0100
0100
0100
0100
,
0001
0000
0000
2000
0000
3000
0100
0000
,
0100
0100
0100
0100
,
1000
0000
0000
0020
0000
0030
1000
0000
,
1000
0001
0001
1000
,
0001
0000
0000
0020
0000
0030
0100
0000
,
0000
0020
0000
0030
0002
0000
0003
0000
,
1000
0000
0001
0000
,
0100
0000
0010
0100
,
0001
0000
1000
0000
,
0100
0000
0010
0100
,
1000
0000
0001
0000
,
0100
0000
0001
0100
,
0002
0003
2000
3000
,
0001
0100
0001
1000
,
0200
0000
0000
0000
,
0000
0000
0000
0300
,
0020
0000
0000
0000
,
0000
0000
0000
0030
,
0002
0000
0000
0000
,
0000
0000
0000
0003
,
2000
3000
0002
0003
,
1000
0000
0100
0000
,
1000
0001
1000
0001
,
1000
0001
1000
0001
,
1000
0010
1000
0010
,
1000
0010
1000
0010
,
0100
0010
0100
0010
,
0100
0010
0100
0010
,
0200
0000
0300
0002
0000
0003
0200
0000
,
0300
0002
0000
0000
0003
0000
0000
0000
,
0000
0100
0001
1000
,
0100
1000
0000
0001
,
0000
0010
0001
1000
,
0010
1000
0000
0001
,
0000
1000
0001
0100
,
0001
1000
0000
0100
,
0000
0010
0001
0010
,
0100
0010
0000
0001
,
1000
0000
0010
0000
,
1000
0001
1000
0001
,
1000
0000
0010
0000
,
0100
0010
0100
0010
,
0100
0000
0001
0000
,
1000
0000
0001
0000
,
1000
0000
0000
0000
,
1001
0000
0000
0000
,
0001
0000
0000
2000
0000
0000
0000
0000
,
3002
0003
0200
0300
,
0010
0000
0000
0200
0000
0000
0000
0000
,
0302
0003
2000
3000
,
0100
0000
0000
0020
0000
0000
0000
0000
,
0230
0300
2000
3000
,
0001
0000
0000
2000
0000
3000
0001
0000
,
0000
0200
0000
0300
0002
0000
0003
0000
,
0100
0001
0100
0001
,
0100
0010
0100
0010
,
1000
0010
1000
0010
,
1000
0001
1000
0001
,
0010
0001
0010
0001
,
0010
0100
0010
0100
,
0010
0000
0000
0002
0000
0003
1000
0000
,
0000
0020
0000
0000
0000
0000
0030
0000
;

//---------------dance-single - ----------------
#NOTEDATA:;
#CHARTNAME:There are spins;
#STEPSTYPE:dance-single;
#DESCRIPTION:;
#CHARTSTYLE:Pad;
#DIFFICULTY:Easy;
#METER:5;
#RADARVALUES:0.264830,0.304981,0.000000,0.388702,0.000000,186.000000,186.000000,0.000000,39.000000,0.000000,0.000000,0.000000,0.000000,0.000000,0.264830,0.304981,0.000000,0.388702,0.000000,186.000000,186.000000,0.000000,39.000000,0.000000,0.000000,0.000000,0.000000,0.000000;
#CREDIT:Zach Bell;
#NOTES:
0000
0000
0000
0000
,
0000
0000
0000
0000
,
0000
0000
0000
0000
,
0000
0000
0000
0000
,
0001
0000
0000
2000
0000
3000
0010
0000
,
0100
0010
0100
0001
,
0010
0000
0000
0002
0000
0003
1000
0000
,
0100
0010
0100
0010
,
0100
0000
0000
2000
0000
3000
0010
0000
,
0100
0001
1000
0001
,
0010
0000
0000
0002
0000
0003
1000
0000
,
0000
0020
0000
0030
0200
0000
0300
0000
,
0001
0100
0010
1000
,
0010
0100
0001
1000
,
0100
0010
0100
1000
,
0001
0010
0100
0010
,
0001
1000
0010
0100
,
0010
1000
0001
1000
,
0020
0000
0230
0000
,
0301
1000
0001
0000
,
0020
0000
0000
0002
,
0030
0000
0000
0000
,
2003
0000
0000
0020
,
3000
0000
0000
0000
,
0230
0000
0000
0020
,
0000
0000
0000
0330
,
1000
0001
1000
0001
,
1000
0100
0010
0001
,
1000
0001
1000
0001
,
0010
0100
0010
0100
,
0001
1000
0001
1000
,
0100
0010
0100
0010
,
1000
0001
1000
0001
,
0010
0100
0010
0100
,
0001
1000
0001
1000
,
0100
0000
0010
0000
0100
0000
0000
0001
,
0000
1000
0001
1000
,
0100
0020
0000
0030
,
0000
0001
0100
0010
,
0100
0002
0000
0003
,
0000
0100
0010
1000
,
0001
0020
0000
0030
,
0000
0100
1000
0100
,
0020
0000
0000
0030
,
0200
0300
2000
3000
,
0001
0100
0010
1000
,
0002
0003
2000
3000
,
0010
0100
0001
1000
,
0000
0100
0000
0010
,
0000
0100
0000
0010
,
0000
0001
0000
0200
,
0000
0000
0300
0000
,
0002
0000
0000
0200
0000
0000
0003
0000
,
0020
0300
2000
0030
,
0002
3000
0000
0020
0000
0000
0000
0000
,
0000
0003
0200
0030
,
2300
0000
0000
0002
0000
0000
3000
0000
,
0200
0003
0020
0300
,
0200
0030
0000
0002
0300
0000
2000
0003
,
0000
0002
3000
0000
0013
0000
0100
0000
,
1000
0001
1000
0001
,
0010
0100
0010
0100
,
0001
1000
0001
1000
,
0100
0010
0100
0010
,
1000
0001
1000
0001
,
0010
0100
0010
0100
,
0001
1000
0001
1000
,
0100
0010
0200
0000
,
0300
0000
0000
0000
;
