#TITLE:Rockefeller Street;
#SUBTITLE:;
#ARTIST:Nightcore;
#TITLETRANSLIT:;
#SUBTITLETRANSLIT:;
#ARTISTTRANSLIT:;
#GENRE:;
#CREDIT:;
#BANNER:rockefeller street-bn.png;
#BACKGROUND:rockefeller street-bg.png;
#LYRICSPATH:;
#CDTITLE:;
#MUSIC:untitled.ogg;
#OFFSET:0.050000;
#SAMPLESTART:100.030006;
#SAMPLELENGTH:12.000000;
#SELECTABLE:YES;
#BPMS:0.000000=81.250000
,56.000000=162.500000
,104.000000=81.250000
,136.000000=162.500000
,200.000000=81.250000
,216.000000=162.500000
;
#STOPS:
;
#BGCHANGES:;
#KEYSOUNDS:;
#ATTACKS:;

//---------------dance-single - ----------------
#NOTES:
     dance-single:
     :
     Beginner:
     1:
     0.156117,0.241681,0.105079,0.042032,0.000000,156.000000,141.000000,15.000000,6.000000,0.000000,0.000000,0.156117,0.241681,0.105079,0.042032,0.000000,156.000000,141.000000,15.000000,6.000000,0.000000,0.000000:
0000
0000
0000
0000
,
0000
0000
0000
0000
,
1000
0000
0000
0000
,
1000
0000
0000
0000
,
0001
0000
0000
0000
,
0001
0000
0000
0000
,
0100
0000
0000
0000
,
0100
0000
0000
0000
,
0010
0000
0000
0000
,
0010
0000
0000
0000
,
1001
0000
0000
0000
,
0110
0000
0000
0000
,
1001
0000
0000
0000
,
0110
0000
0000
0000
,
0001
0001
0001
0000
,
1000
1000
1000
0000
,
0010
0010
0010
0000
,
0100
0100
0100
0000
,
0001
0001
0001
0000
,
1000
1000
1000
0000
,
0010
0010
0010
0000
,
0100
0100
0100
0000
,
0200
0000
0300
0000
,
0002
0003
0002
0003
,
0002
0000
0003
0000
,
2000
3000
2000
3000
,
1000
0000
0000
0000
,
0010
0000
0000
0000
,
0100
0000
0000
0000
,
0001
0000
0000
0000
,
1001
0000
0001
0000
,
0110
0000
0100
0000
,
1001
0000
1000
0000
,
0110
0000
0010
0000
,
1000
1000
1000
0000
,
0001
0001
0001
0000
,
0100
0100
0100
0000
,
0010
0010
0010
0000
,
1000
1000
1000
0000
,
0001
0001
0001
0000
,
0100
0100
0100
0000
,
0010
0010
0010
0000
,
0100
0000
0100
0000
,
0001
0000
0001
0000
,
1000
0000
0010
0000
,
1000
0000
0010
0000
,
0100
0000
0010
0000
,
1000
0000
0010
0000
,
0100
0000
0001
0000
,
1000
0000
0001
0000
,
0010
0000
0100
0000
,
1000
0000
0001
0000
,
0010
0000
0100
0000
,
1000
0000
0001
0000
,
1001
1001
1001
0000
,
1000
1000
1000
0000
,
0010
0010
0010
0000
,
0100
0100
0100
0000
,
0110
0110
0110
0000
,
0001
0001
0001
0000
,
0100
0100
0100
0000
,
0010
0010
0010
0000
,
1000
0000
1000
0000
,
0010
0000
0010
0000
,
0001
0000
0001
0000
,
0100
0000
0100
0000
,
1000
0000
0100
0000
,
0001
0000
0010
0000
,
1000
0000
0001
0000
,
1001
0000
0000
0000
;

//---------------dance-single - ----------------
#NOTES:
     dance-single:
     :
     Easy:
     5:
     0.212159,0.241681,0.112084,0.182137,0.000000,212.000000,196.000000,16.000000,26.000000,0.000000,0.000000,0.212159,0.241681,0.112084,0.182137,0.000000,212.000000,196.000000,16.000000,26.000000,0.000000,0.000000:
// measure 0
0000
0000
0000
0000
,  // measure 1
0000
0000
0000
0000
,  // measure 2
2000
3000
0002
0003
,  // measure 3
0020
0030
0020
0030
,  // measure 4
0002
0003
2000
3000
,  // measure 5
0020
0030
0020
0030
,  // measure 6
2000
3000
0002
0003
,  // measure 7
0200
0300
0200
0300
,  // measure 8
0002
0003
2000
3000
,  // measure 9
0200
0300
0200
0300
,  // measure 10
1001
0000
1000
0001
,  // measure 11
1001
0000
0010
0100
,  // measure 12
0110
0000
1000
0001
,  // measure 13
1001
0000
0000
0000
,  // measure 14
0010
0001
0010
0001
,  // measure 15
1000
0100
1000
0100
,  // measure 16
0010
0100
0010
0100
,  // measure 17
0110
0000
1001
0000
,  // measure 18
0010
1000
0010
1000
,  // measure 19
0001
0100
0001
0100
,  // measure 20
0010
0100
0010
0100
,  // measure 21
0110
0000
0000
0000
,  // measure 22
2000
0000
0000
3000
,  // measure 23
0002
0003
0020
0030
,  // measure 24
0200
0000
0000
0300
,  // measure 25
2000
3000
0020
0030
,  // measure 26
0100
0000
0001
0000
,  // measure 27
1000
0000
0001
0000
,  // measure 28
0010
0000
0001
0000
,  // measure 29
1000
0000
0001
0000
,  // measure 30
1001
0000
0100
0000
,  // measure 31
1001
0000
0010
0000
,  // measure 32
1001
0000
0100
0000
,  // measure 33
1001
0000
0000
0000
,  // measure 34
0010
0001
0010
0001
,  // measure 35
1000
0100
1000
0100
,  // measure 36
0010
0100
0010
0100
,  // measure 37
0110
0000
0000
0000
,  // measure 38
0010
1000
0010
1000
,  // measure 39
0001
0100
0001
0100
,  // measure 40
0010
0100
0010
0100
,  // measure 41
0110
0000
0000
0000
,  // measure 42
0001
0001
0001
0001
,  // measure 43
1000
1000
1000
1000
,  // measure 44
0010
0010
0010
0010
,  // measure 45
0100
0100
0100
0100
,  // measure 46
0001
0001
0001
0001
,  // measure 47
1000
1000
1000
1000
,  // measure 48
0010
0010
0010
0010
,  // measure 49
0100
0000
0100
0000
,  // measure 50
0002
0003
2000
3000
,  // measure 51
0020
0030
0200
0300
,  // measure 52
0001
0001
1000
1000
,  // measure 53
0010
0100
0010
0000
,  // measure 54
0010
0001
0010
0001
,  // measure 55
1000
0100
1000
0100
,  // measure 56
0010
0100
0010
0100
,  // measure 57
0110
0000
0000
0000
,  // measure 58
0010
1000
0010
1000
,  // measure 59
0001
0100
0001
0100
,  // measure 60
0010
0100
0010
0100
,  // measure 61
0110
0000
0000
0000
,  // measure 62
0001
0001
1000
0001
,  // measure 63
1000
1000
0001
1000
,  // measure 64
0010
0010
0100
0010
,  // measure 65
0100
0100
0010
0100
,  // measure 66
0001
0001
1000
0001
,  // measure 67
1000
1000
0001
1000
,  // measure 68
0010
0010
0100
0010
,  // measure 69
0110
0000
0000
0000
;

//---------------dance-single - ----------------
#NOTES:
     dance-single:
     :
     Medium:
     8:
     0.343257,0.386690,0.259194,0.098074,0.000000,343.000000,306.000000,37.000000,14.000000,0.000000,0.000000,0.343257,0.386690,0.259194,0.098074,0.000000,343.000000,306.000000,37.000000,14.000000,0.000000,0.000000:
// measure 0
0000
0000
0000
0000
,  // measure 1
0000
0000
0000
0000
,  // measure 2
2000
0000
0100
3100
,  // measure 3
0020
0000
0001
0031
,  // measure 4
0002
0000
0100
0103
,  // measure 5
0020
0000
1000
1030
,  // measure 6
2000
0000
0001
3001
,  // measure 7
0002
0000
0010
0013
,  // measure 8
0002
0000
1000
1000
,  // measure 9
2003
0000
0010
3010
,  // measure 10
1001
0000
0100
0000
0100
0000
0100
0010
,  // measure 11
0100
0000
0001
0000
0001
0000
0001
1000
,  // measure 12
0001
0000
0010
0000
0010
0000
0010
0100
,  // measure 13
0010
0001
0001
0001
,  // measure 14
1001
0110
1001
1000
,  // measure 15
0010
0100
0001
0001
,  // measure 16
0010
0100
1000
1000
,  // measure 17
1001
0000
1000
0000
0001
1000
0001
0000
,  // measure 18
1001
0110
1001
0001
,  // measure 19
0100
0010
1000
1000
,  // measure 20
0100
0010
0001
0001
,  // measure 21
1001
0000
0001
0000
1000
0001
1000
0000
,  // measure 22
0020
0000
0100
0130
,  // measure 23
2000
3001
0002
0013
,  // measure 24
0002
0000
0100
0103
,  // measure 25
2000
3010
2000
0000
,  // measure 26
3001
0010
0001
0010
,  // measure 27
0100
1000
0100
1000
,  // measure 28
0010
1000
0010
1000
,  // measure 29
0001
0100
0001
0100
,  // measure 30
0110
0000
0100
0010
0100
0000
0100
0010
,  // measure 31
1000
0000
1000
0010
1000
0000
1000
0100
,  // measure 32
0010
0000
0010
0100
0010
0000
0010
0001
,  // measure 33
1000
0000
1000
0001
1000
0000
1000
0000
,  // measure 34
1001
0110
1001
0001
,  // measure 35
0010
0001
0010
0010
,  // measure 36
0001
1000
0010
0010
,  // measure 37
0110
0000
0010
0000
0100
0010
0100
0000
,  // measure 38
0110
1001
0110
0010
,  // measure 39
1000
0000
0001
0000
1000
0001
1000
0000
,  // measure 40
0001
0000
0010
0000
0001
0010
0001
0000
,  // measure 41
1001
0001
1000
0001
,  // measure 42
1000
0100
1000
0100
1000
0000
1000
0000
,  // measure 43
0001
0100
0001
0100
0001
0000
0001
0000
,  // measure 44
1000
0010
1000
0010
1000
0000
1000
0000
,  // measure 45
0001
0010
0001
0010
0001
0000
0001
0000
,  // measure 46
1000
0100
1000
0000
0001
0000
1000
0000
,  // measure 47
0001
0010
0001
0000
1000
0000
0001
0000
,  // measure 48
1000
0010
1000
0000
0010
0000
0100
0000
,  // measure 49
0001
0100
0001
0000
1000
0000
0001
0000
,  // measure 50
0100
0001
1000
0001
,  // measure 51
0010
0000
0001
0000
1000
0000
0001
0100
,  // measure 52
0001
1000
0010
1000
,  // measure 53
0001
1000
0100
1000
,  // measure 54
1001
0110
1001
1001
,  // measure 55
0001
0010
0001
0010
0001
0000
0001
0000
,  // measure 56
1000
0010
1000
0010
1000
0000
1000
0000
,  // measure 57
0001
0100
0001
0000
1000
0100
1000
0000
,  // measure 58
1001
0110
1001
1001
,  // measure 59
0001
0010
0001
0000
1000
0010
1000
0000
,  // measure 60
0001
0100
0001
0000
1000
0100
1000
0000
,  // measure 61
1001
0000
1000
0000
0001
1000
0001
0000
,  // measure 62
1001
0110
1001
1001
,  // measure 63
0100
0001
0100
0001
0100
0000
0100
0000
,  // measure 64
0010
1000
0010
1000
0010
0000
0010
0000
,  // measure 65
0110
0000
0010
0000
1000
0001
1000
0000
,  // measure 66
1001
0110
1001
1001
,  // measure 67
0010
0001
0010
0001
0010
0000
0010
0000
,  // measure 68
0100
1000
0100
1000
0100
0000
0100
0000
,  // measure 69
1001
0000
0000
0000
;

//---------------dance-single - ----------------
#NOTES:
     dance-single:
     :
     Hard:
     12:
     0.461346,0.725044,0.420315,0.049037,0.192644,461.000000,401.000000,60.000000,7.000000,108.000000,0.000000,0.461346,0.725044,0.420315,0.049037,0.192644,461.000000,401.000000,60.000000,7.000000,108.000000,0.000000:
// measure 0
0000
0000
0000
0000
,  // measure 1
0000
0000
0000
0000
,  // measure 2
0100
0000
0000
0000
0000
0000
0000
0000
0001
0000
1000
0000
0001
0000
1000
0100
,  // measure 3
0000
0000
0000
0000
0000
0000
0000
0000
1000
0000
0001
0000
1000
0000
0001
0100
,  // measure 4
0000
0000
0000
0000
0000
0000
0000
0000
0001
0000
1000
0000
0001
0000
1000
0010
,  // measure 5
0000
0000
0000
0000
0000
0000
0000
0000
1000
0000
0001
0000
1000
0000
0001
0010
,  // measure 6
0000
0000
0000
0000
0000
0000
0000
0000
0001
0000
0010
0000
0100
0000
0010
0001
,  // measure 7
0000
0000
0000
0000
0000
0000
0000
0000
1000
0000
0010
0000
0100
0000
0010
1000
,  // measure 8
0000
0000
0000
0000
0000
0000
0000
0000
0001
0000
1000
0000
0100
0000
1000
0001
,  // measure 9
0000
0000
0000
0000
0000
0000
0000
0000
0000
1000
0010
1000
0010
1000
0010
0000
,  // measure 10
1001
0000
1001
0000
0001
0100
0001
0000
0010
0001
0010
0001
0010
0001
0010
0000
,  // measure 11
1001
0000
1001
0000
1000
0010
1000
0000
0010
1000
0001
0100
0010
1000
0001
0000
,  // measure 12
1001
0000
0110
0000
0100
0010
0100
0000
0001
0100
0001
0100
0001
1000
0100
0000
,  // measure 13
1100
0000
0101
0000
0001
0100
0001
0000
1000
0010
1000
0010
1000
0001
0010
0000
,  // measure 14
0011
0000
MM1M
0000
0100
1000
0001
0000
,  // measure 15
1010
0000
MM1M
0000
0100
0001
1000
0000
,  // measure 16
1100
0000
M1MM
0000
0010
0001
1000
0000
,  // measure 17
0101
0000
M1MM
0000
0010
1000
0001
0000
,  // measure 18
1001
0000
0110
0000
0010
1000
0001
0000
,  // measure 19
0011
0000
0110
0000
0100
1000
0001
0000
,  // measure 20
0101
0000
0110
0000
0010
1000
0001
0000
,  // measure 21
0010
0001
0100
0010
1000
0100
0010
0000
,  // measure 22
1002
0000
0010
0000
1003
0010
1000
0000
,  // measure 23
0002
0000
0013
0100
2000
0000
3010
0100
,  // measure 24
0002
0000
0010
0000
1003
0010
0100
0000
,  // measure 25
0002
0000
0103
0010
2000
0000
3100
0010
,  // measure 26
0001
0000
0000
0000
0000
0000
0000
0000
0100
0000
0001
0000
0010
0000
0001
0100
,  // measure 27
0000
0000
0000
0000
0000
0000
0000
0000
0010
0000
1000
0000
0100
0000
1000
0010
,  // measure 28
0000
0000
0000
0000
0000
0000
0000
0000
0100
0000
0001
0000
1000
0000
0100
1000
,  // measure 29
0000
0000
0000
0000
0000
0000
0000
0000
0000
0100
0010
0001
0010
0100
1000
0000
,  // measure 30
1010
0000
0011
0000
0001
0010
0001
0000
1000
0010
1000
0010
1000
0010
1000
0000
,  // measure 31
1010
0000
0101
0000
0001
0100
0001
0000
1000
0100
1000
0100
1000
0100
1000
0000
,  // measure 32
1100
0000
0011
0000
0001
0010
0001
0000
1000
0001
1000
0001
1000
0001
1000
0000
,  // measure 33
1001
0000
0110
0000
0100
0010
0100
0000
0001
1000
0010
0100
0001
1000
0010
0000
,  // measure 34
1010
0000
MMM1
0000
1000
0100
1000
0000
,  // measure 35
0101
0000
1MMM
0000
0001
1000
0001
0000
,  // measure 36
0011
0000
1MMM
0000
0001
0100
0001
0000
,  // measure 37
1100
0000
MM1M
0000
0001
0010
0001
0000
,  // measure 38
0101
0000
1MMM
0000
0010
0100
0001
0000
,  // measure 39
0011
0000
1MMM
0000
0100
0010
0100
0000
,  // measure 40
1100
0000
MMM1
0000
1000
0001
0100
0000
,  // measure 41
0101
0000
MM1M
0000
1000
0100
1000
0000
,  // measure 42
1001
0000
MMM1
0000
0010
0100
1000
0000
,  // measure 43
1001
0000
1MMM
0000
0010
0100
0001
0000
,  // measure 44
0110
0000
1MMM
0000
0001
0010
0100
0000
,  // measure 45
0110
1MMM
0020
0130
,  // measure 46
1001
0000
MMM1
0000
0100
0010
1000
0000
,  // measure 47
1001
0000
1MMM
0000
0100
0010
0001
0000
,  // measure 48
0011
0000
M1MM
0000
1000
0010
1000
0000
,  // measure 49
1010
0000
M1MM
0000
0001
0010
0100
0000
,  // measure 50
1000
0000
0000
0000
0000
1000
0010
0000
0000
0000
0000
0000
0100
0000
0000
0000
0000
0100
0001
0000
0000
0000
0000
0000
,  // measure 51
0010
0000
0000
0000
0000
0100
1000
0000
0000
0000
0000
0000
0010
0000
0000
0000
0000
0100
0001
0000
0000
0000
0000
0000
,  // measure 52
1000
0000
0000
0000
0000
0010
1000
0000
0000
0000
0000
0000
0001
0000
0000
0000
0000
0010
0001
0000
0000
0000
0000
0000
,  // measure 53
1000
0000
0000
0000
0000
0100
1000
0000
0000
0000
0000
0000
0010
0000
0000
0000
0000
0000
0100
0000
0000
0000
0000
0000
,  // measure 54
1001
0000
M1MM
0000
1000
0100
0001
0000
,  // measure 55
1001
0000
M1MM
0000
0001
0100
1000
0000
,  // measure 56
1001
0000
MM1M
0000
0001
0010
1000
0000
,  // measure 57
1010
0010
1010
M1MM
,  // measure 58
0011
0000
1MMM
0000
0001
0010
0001
0000
,  // measure 59
1010
0000
MMM1
0000
1000
0010
1000
0000
,  // measure 60
0101
MM1M
1100
MM1M
,  // measure 61
0101
0000
1MMM
0000
0010
0100
0001
0000
,  // measure 62
1001
0000
MM1M
0000
1000
0010
0100
0000
,  // measure 63
1001
0000
M1MM
0000
0001
0010
0100
0000
,  // measure 64
1100
0000
MM1M
0000
0001
0100
0010
0000
,  // measure 65
0101
0000
MM1M
0000
1000
0100
0010
0000
,  // measure 66
0110
0000
MMM1
0000
1000
0001
1000
0000
,  // measure 67
0110
0000
1MMM
0000
0001
1000
0001
0000
,  // measure 68
1001
0000
MM1M
0000
0100
0010
0100
0010
,  // measure 69
0100
0000
0000
0000
;

//---------------dance-single - ----------------
#NOTES:
     dance-single:
     :
     Challenge:
     17:
     0.636477,1.184238,0.455342,0.084063,0.556918,636.000000,571.000000,65.000000,12.000000,0.000000,0.000000,0.636477,1.184238,0.455342,0.084063,0.556918,636.000000,571.000000,65.000000,12.000000,0.000000,0.000000:
0000
0000
0000
0000
,
0000
0000
0000
0000
,
1000
0000
0000
0000
0001
0000
0000
0000
0100
0000
0001
0000
1000
0000
0001
0100
,
0000
0000
0000
0000
0010
0000
0000
0000
1000
0000
0100
0000
0010
0000
0100
1000
,
0000
0000
0000
0000
0000
0000
0000
0000
0100
0000
1000
0000
0001
0000
1000
0100
,
0000
1000
0000
0000
0000
0000
0000
0000
0001
0000
0100
0000
0010
0000
0100
0001
,
0000
0000
0000
0000
1000
0000
0000
0000
0001
0000
0010
0000
0001
0000
1000
0001
,
0000
0010
0000
0000
0000
0000
0100
0000
1000
0000
0010
0000
0100
0000
0010
1000
,
0000
0000
0000
0000
0000
0000
0000
0000
0010
0000
1000
0000
0001
0000
1000
0010
,
0000
1000
0000
0000
0000
0000
0000
0000
0000
0100
0100
0001
1000
0010
0100
0001
,
1000
0001
1000
0001
1000
0000
0010
0000
0100
0001
0100
0001
0100
0000
0100
0000
1000
0100
1000
0100
1000
0000
0010
0000
1000
0001
1000
0001
1000
0000
0010
0000
,
0100
0010
0100
0010
0100
0000
0001
0000
0010
0100
0010
0100
0010
0000
0100
0000
1000
0100
1000
0100
1000
0000
0001
0000
0100
0001
0100
0001
0100
0000
0010
0000
,
1000
0100
0010
0100
1000
0000
0001
0000
0010
0100
1000
0100
0010
0000
0001
0000
1000
0010
0100
0010
1000
0000
0001
0000
0100
0010
1000
0010
0100
0000
0000
0000
,
0001
0010
0100
0010
0001
0000
1000
0000
0100
0010
0001
0010
0100
0000
1000
0000
0001
0100
0010
1000
0001
0000
0010
0000
0001
0000
0010
0000
0001
0000
0000
0000
,
0011
0000
1010
0000
0011
0010
1010
0000
,
0101
0100
0100
1000
0100
0001
0100
0000
,
1100
0000
1000
0000
0010
0000
0010
0000
0100
0000
0000
0001
0000
0000
0100
0000
,
1000
0010
1010
0000
0010
0100
0101
0000
,
1010
0000
0011
0000
1010
0010
0011
0000
,
1100
0100
0100
0001
0100
1000
0100
0000
,
0101
0000
0001
0000
0010
0000
0010
0000
0100
0000
0000
1000
0000
0000
0100
0000
,
0001
0010
0011
0000
0010
0100
1100
0000
,
1002
0000
0010
0000
1003
0010
0010
0002
,
1000
0000
0013
0010
2000
0000
3010
0010
,
0002
0000
0100
0000
0013
0000
0100
1000
,
0002
0000
0013
0100
2000
0000
3010
0000
,
0100
0000
0000
0000
0001
0000
0000
0000
1000
0000
0100
0000
0001
0000
0100
1000
,
0000
0000
0000
0000
0000
0000
0000
0000
0001
0000
0010
0000
1000
0000
0010
0001
,
0000
0000
0000
0000
0000
0000
0000
0000
1000
0000
0001
0000
0100
0000
1000
0100
,
0000
0001
0000
0000
0000
0000
0000
0000
0000
1000
0010
0001
0010
1000
0100
0010
,
0001
1000
0001
1000
0001
0000
0010
0000
0100
1000
0100
1000
0100
0000
0010
0000
0001
0100
0001
0100
0001
0000
1000
0000
0100
0010
0100
0010
0100
0000
0010
0000
,
0001
0100
0010
0100
0001
0000
1000
0000
0010
0100
0001
0100
0010
0000
1000
0000
0100
0010
0001
0010
0100
0000
1000
0000
0001
0010
0100
0010
0001
0000
1000
0000
,
0001
0010
0001
0010
0001
0000
1000
0000
0100
0010
0100
0010
0100
0000
1000
0000
0010
1000
0010
1000
0010
0000
0100
0000
0001
0100
0001
0100
0001
0000
1000
0000
,
0100
0010
0100
0010
0100
0000
0010
0000
0001
1000
0001
1000
0001
0000
1000
0000
0100
0000
0010
0000
0001
0000
0010
0000
0100
0000
1000
0000
0100
0000
0000
0000
,
1100
0000
1010
0000
1100
1000
1010
0000
,
0101
0001
0010
0010
0100
0001
0010
0000
,
1100
0000
1000
0000
0010
0000
0010
0000
0100
0000
0000
1000
0000
0000
0010
0000
,
0110
0001
1000
0000
0110
1000
0001
0000
,
0101
0000
0011
0000
0101
0001
0011
0000
,
1100
1000
0010
0010
1000
0010
0001
0000
,
0011
0000
1000
0000
0100
0000
0100
0000
1000
0000
0000
0100
0000
0000
0001
0000
,
0101
0010
1100
0000
0101
0010
1100
0000
,
0001
0010
0001
0010
0010
0001
0010
1000
,
0010
0100
0001
0100
0100
0010
1000
0010
,
0001
1000
0001
1000
0020
0000
0130
0000
,
0001
1000
0100
0100
0020
0000
1030
0000
,
0001
1000
0100
0100
0001
0010
0100
0100
,
0001
1000
0010
0010
0001
0001
0100
1000
,
1000
0010
0001
1000
1000
0010
0100
1000
,
0001
1001
1000
1001
,
2000
0000
0000
3010
0000
0100
0001
0000
0000
0100
0000
0000
2000
0000
0000
3100
0000
1000
0100
0000
0000
0010
0000
0000
,
1000
0000
0010
1000
0000
0010
1000
0000
0000
0001
0000
0000
0010
0000
0001
0010
0000
0001
0010
0000
0000
0000
0000
0000
,
0200
0000
0000
0310
0000
0100
1000
0000
0000
0100
0000
0000
0002
0000
0000
0103
0000
0001
0100
0000
0000
1000
0000
0000
,
0010
0000
1000
0010
0000
1000
0010
0000
0000
0100
0000
0000
0001
0000
0000
0000
0000
0000
1000
0000
0000
0000
0000
0000
,
1100
0000
0101
0000
0011
0010
1010
0000
,
1000
0100
0100
0001
0010
0010
1000
0000
,
1100
0000
0100
0000
0010
0000
1000
0000
0010
0000
0000
0100
0000
0000
1000
0000
,
0100
0010
1010
0000
0010
0100
0011
0000
,
1010
0000
0011
0000
0101
0100
1100
0000
,
1000
0010
0001
1000
0001
0010
1000
0000
,
0100
0000
0010
0000
0100
0000
0010
0000
0001
0000
0000
1000
0000
0000
0010
0000
,
0100
1000
1100
0000
0100
0001
1000
0001
,
0011
0100
0010
1000
0010
0100
1000
0000
,
1010
0100
0010
0001
0010
0100
0001
0000
,
1001
0000
1000
0000
0100
0000
0010
0000
1000
0000
0000
0010
0000
0000
0001
0000
,
0011
0010
1010
0000
1010
0010
0011
0000
,
0101
0000
0110
0000
0011
0010
1010
0000
,
1100
0000
0110
0000
1010
0010
0011
0000
,
0110
0000
1000
0000
0001
0000
1000
0000
0010
0000
0000
0010
0000
0000
0010
0000
,
0100
0000
0000
0000
;
