#VERSION:0.83;
#TITLE:Revontulet;
#SUBTITLE:;
#ARTIST:Sonata Arctica;
#TITLETRANSLIT:;
#SUBTITLETRANSLIT:;
#ARTISTTRANSLIT:;
#GENRE:;
#ORIGIN:;
#CREDIT:;
#BANNER:revontulet-bn.png;
#BACKGROUND:revontulet-bg.png;
#PREVIEWVID:;
#JACKET:;
#CDIMAGE:;
#DISCIMAGE:;
#LYRICSPATH:;
#CDTITLE:;
#MUSIC:Sonata-Arctica-Revontulet.ogg;
#OFFSET:0.000000;
#SAMPLESTART:41.792000;
#SAMPLELENGTH:12.000000;
#SELECTABLE:YES;
#BPMS:0.000=54.000,
4.000=177.000,
68.000=134.000,
71.000=137.000,
72.000=268.000,
279.000=176.000,
295.000=177.500;
#STOPS:;
#DELAYS:;
#WARPS:;
#TIMESIGNATURES:0.000=4=4;
#TICKCOUNTS:0.000=4;
#COMBOS:0.000=1;
#SPEEDS:0.000=1.000=0.000=0;
#SCROLLS:0.000=1.000;
#FAKES:;
#LABELS:0.000=Song Start;
#BGCHANGES:;
#KEYSOUNDS:;
#ATTACKS:
;

//---------------dance-single - ----------------
#NOTEDATA:;
#CHARTNAME:;
#STEPSTYPE:dance-single;
#DESCRIPTION:;
#CHARTSTYLE:;
#DIFFICULTY:Hard;
#METER:17;
#RADARVALUES:0.984150,1.331687,0.362582,0.394574,0.506548,646.000000,612.000000,34.000000,37.000000,0.000000,0.000000,0.000000,0.000000,0.000000,0.984150,1.331687,0.362582,0.394574,0.506548,646.000000,612.000000,34.000000,37.000000,0.000000,0.000000,0.000000,0.000000,0.000000;
#CREDIT:;
#OFFSET:0.000000;
#BPMS:0.000000=54.000000
,4.000000=177.500000
,67.750000=133.000000
,72.000000=268.000000
,276.000000=350.000000
,309.000000=357.000000
,344.000000=177.500000
,352.000000=357.000000
;
#STOPS:;
#DELAYS:;
#WARPS:;
#TIMESIGNATURES:0.000000=4=4
;
#TICKCOUNTS:0.000000=4
;
#COMBOS:0.000000=1
;
#SPEEDS:0.000000=1.000000=0.000000=0
;
#SCROLLS:0.000000=1.000000
,344.000000=2.000000
,344.500000=1.900000
,345.000000=1.800000
,345.500000=1.700000
,346.000000=1.600000
,346.500000=1.500000
,347.000000=1.400000
,347.500000=1.300000
,348.000000=1.200000
,350.000000=1.100000
,352.000000=1.000000
;
#FAKES:;
#LABELS:0.000000=Song Start
;
#NOTES:
// measure 0
0000
0000
0000
0000
,  // measure 1
0001
0010
0001
0000
1000
0010
1000
0000
0001
0100
0001
0000
0000
0000
0000
0000
,  // measure 2
1000
0100
1000
0000
0010
0100
0010
0000
0100
0001
0100
0000
0220
0000
0330
0000
,  // measure 3
1000
0100
0010
0000
0100
0010
0001
0000
0010
0100
1000
0000
0000
0000
0000
0000
,  // measure 4
0001
0010
0100
0000
0010
0100
1000
0000
0100
0010
0001
0000
0202
0000
0303
0000
,  // measure 5
1000
0010
0100
0000
0010
0100
0001
0000
1000
0010
0100
0000
0000
0000
0000
0000
,  // measure 6
0001
0100
0010
0000
1000
0010
0100
0000
0001
1000
0010
0000
0220
0000
0330
0000
,  // measure 7
0100
0001
0010
0000
0100
1000
0010
0000
0100
0001
1000
0000
0000
0000
0000
0000
,  // measure 8
0010
1000
0100
0000
0010
0001
0100
0000
1000
0001
1000
0000
2020
0000
3030
0000
,  // measure 9
0010
1000
0001
0000
1000
0001
0100
0000
0001
1000
0100
0000
0010
0000
0100
0000
,  // measure 10
1000
0100
0010
0000
0100
1000
0010
0000
0100
0001
0010
0000
0220
0000
0330
0000
,  // measure 11
0001
0010
0001
0000
1000
0010
0100
0000
0001
0100
0001
0000
1000
0000
0001
0000
,  // measure 12
1000
0100
1000
0000
0010
1000
0010
0000
0100
0010
0100
0000
0202
0000
0303
0000
,  // measure 13
0001
0010
0100
0000
1000
0010
0100
0000
0001
0010
0100
0000
1000
0000
0000
0000
,  // measure 14
0001
0100
0010
0000
1000
0100
0010
0000
0001
0100
0010
0000
2020
0000
3030
0000
,  // measure 15
0001
0010
0001
0000
1000
0010
1000
0000
0001
0100
0001
0000
0010
0000
0100
0000
,  // measure 16
1000
0100
1000
0000
0010
0100
0010
0000
0100
0001
0100
0000
0220
0000
0330
0000
,  // measure 17
0010
1000
0100
1000
0010
0100
0001
0010
0001
0100
0010
1000
1100
0000
0000
0000
,  // measure 18
0100
0010
0100
1000
0100
0010
0100
0001
,  // measure 19
0100
1000
0010
1000
0001
0100
0001
0100
,  // measure 20
0010
0010
1000
1000
,  // measure 21
0100
1000
0100
1000
0010
1000
0200
0000
0000
0310
0000
0000
,  // measure 22
0100
0010
0100
0001
0100
0010
0100
1000
,  // measure 23
0100
0001
1000
0001
0100
1000
0100
0010
,  // measure 24
0001
1000
0001
0001
,  // measure 25
0100
0000
0000
0000
0000
0000
0000
0000
0000
0000
0000
0000
0000
0000
0000
0000
0001
0000
0000
0000
0000
0000
0000
0000
0000
0000
0000
0000
0000
0000
0000
0000
1000
0000
0000
0000
0000
0000
0000
0000
0000
0000
0000
0000
0000
0000
0000
0000
0001
0000
0000
0000
0000
0000
0000
0000
0000
0000
0000
0000
0000
0000
0000
0000
0000
0000
0000
0000
0000
0000
0000
0000
0000
0000
0000
0000
0000
0000
0000
0000
0000
0000
0000
0000
0000
0000
0000
0000
0000
0000
0000
0000
0000
0000
0000
0000
2002
3000
0000
0000
0000
0000
0000
0000
0000
0000
0000
0000
0000
0000
0000
0000
0000
0000
0000
0000
0000
0000
0000
0000
0000
0000
0000
0000
0000
0000
0000
0000
0000
0000
0000
0000
0000
0000
0000
0000
0000
0000
0000
0000
0000
0000
0000
0000
1003
0000
0000
0000
0000
0000
0000
0000
0000
0000
0000
0000
0000
0000
0000
0000
0000
0000
0000
0000
0000
0000
0000
0000
0010
0000
0000
0000
0000
0000
0000
0000
0000
0000
0000
0000
0000
0000
0000
0000
0000
0000
0000
0000
0000
0000
0000
0000
,  // measure 26
1000
0100
1000
0010
1000
0100
1000
0001
,  // measure 27
0010
0100
0010
0100
1000
0100
0010
0000
,  // measure 28
0010
0000
0000
0001
0000
0000
0001
0000
0000
1000
0100
0010
,  // measure 29
0001
0000
0100
0000
0010
0000
2000
0000
0000
0000
0000
0000
3001
0000
0000
0000
0000
0000
0001
0000
0000
0010
0000
0000
,  // measure 30
0001
0100
0001
0010
0001
0100
0001
1000
,  // measure 31
0010
0100
0001
0010
0100
1000
0001
0000
,  // measure 32
0001
0000
0000
1000
0000
0000
1000
0000
0000
0001
0100
0010
,  // measure 33
1000
0000
0010
0000
0100
0000
0002
0000
0000
0000
0000
0000
0013
0000
0000
0000
0000
0000
0000
0000
0000
0110
0000
0000
,  // measure 34
0000
0000
1100
0000
0000
1010
0000
0000
,  // measure 35
0101
0000
0000
0000
1001
0000
0000
1100
,  // measure 36
0000
0110
0011
0101
,  // measure 37
0000
0000
1010
0000
0000
0110
0000
0000
,  // measure 38
0101
0000
0000
1001
0000
0000
0011
0000
,  // measure 39
0000
0000
1100
0000
0000
1010
0000
0000
,  // measure 40
0110
0000
0000
0101
0000
0000
2001
0000
,  // measure 41
0000
0000
3001
0010
0001
0010
0100
0010
,  // measure 42
0100
1000
0100
1000
0001
1000
0001
0100
,  // measure 43
0010
1000
0001
1000
0001
1000
0010
1000
,  // measure 44
0010
0100
0010
0001
0010
1000
0001
0010
,  // measure 45
0100
1000
0100
1000
0001
0100
0001
1000
,  // measure 46
0010
1000
0001
0100
0001
0100
0010
1000
,  // measure 47
0100
1000
0100
0010
0100
0010
0001
0010
,  // measure 48
0001
1000
0100
0000
0100
0000
0110
0000
,  // measure 49
0100
1000
0100
0010
0100
1000
0100
0010
,  // measure 50
0100
0001
0100
1000
0001
0010
0100
1000
,  // measure 51
0001
0001
0100
0100
,  // measure 52
1000
0100
0001
0100
1000
0100
0002
0000
0000
1003
0000
0000
,  // measure 53
0010
1000
0010
0001
0010
0100
0010
1000
,  // measure 54
0100
0001
0100
1000
0001
0010
0100
1000
,  // measure 55
0010
0010
1000
1000
,  // measure 56
0010
0000
0100
0000
0001
0000
0010
0000
0100
0000
1000
0000
0020
0000
0030
0000
0000
0000
1000
0000
0000
0100
0000
0000
,  // measure 57
1000
0001
1000
0100
1000
0001
1000
0010
,  // measure 58
0100
0001
1000
0010
0100
0001
0010
0000
,  // measure 59
0010
0000
0000
0100
0000
0000
0100
0000
0000
1000
0100
0010
,  // measure 60
0001
0000
0100
0000
0010
0000
2000
0000
0000
0000
0000
0000
3001
0000
0000
0000
0000
0000
0100
0000
0000
0001
0000
0000
,  // measure 61
0100
0010
0100
0001
0100
0010
0100
1000
,  // measure 62
0100
0001
1000
0100
0010
0001
1000
0000
,  // measure 63
1000
0000
0000
0001
0000
0000
0001
0000
0000
1000
0010
1000
,  // measure 64
0001
0000
0010
0000
0001
0000
2000
0000
0000
3000
0000
0000
0001
0000
0100
0000
0001
0000
1000
0000
0100
0000
1000
0000
,  // measure 65
0002
0000
0000
0003
0000
0000
0100
0000
1000
0000
0001
0000
0010
0000
1000
0000
0001
0000
0200
0000
0000
0000
0000
0000
,  // measure 66
0000
0000
0000
0000
,  // measure 67
0000
0000
0000
0000
,  // measure 68
0000
0000
0000
0000
,  // measure 69
0310
0000
0000
0000
0010
0000
0000
0000
0010
0000
0000
0000
,  // measure 70
1000
0010
0100
0000
0010
0100
0001
0000
,  // measure 71
1000
0010
1000
0000
0000
0000
0000
0000
,  // measure 72
0001
0100
0010
0000
0100
0010
1000
0000
,  // measure 73
0001
0100
0010
0000
2020
0000
3030
0000
,  // measure 74
1000
0100
0010
0000
0100
0010
0001
0000
,  // measure 75
0010
0100
1000
0000
0000
0000
0000
0000
,  // measure 76
0001
0010
0100
0000
0010
0100
1000
0000
,  // measure 77
0100
0010
0001
0000
0202
0000
0303
0000
,  // measure 78
0010
1000
0100
0000
0010
0001
0100
0000
,  // measure 79
0010
1000
0100
0000
0000
0000
0000
0000
,  // measure 80
1000
0001
0100
0000
0001
1000
0100
0000
,  // measure 81
1000
0001
0010
0000
0022
0000
0033
0000
,  // measure 82
0001
0100
0001
0000
1000
0010
1000
0000
,  // measure 83
0001
0100
0001
0000
0000
0000
0000
0000
,  // measure 84
1000
0100
1000
0000
0010
0100
0010
0000
,  // measure 85
0100
0001
0100
0000
0220
0000
0330
0000
,  // measure 86
0001
0010
0100
1000
0001
0010
0100
1000
,  // measure 87
0001
0000
0010
0000
0100
0000
1000
0000
0001
0000
0100
0000
0010
1000
0001
0000
,  // measure 88
1000
0100
0010
0001
1000
0100
0010
0100
,  // measure 89
1000
0001
0100
1000
0100
0001
1000
0100
,  // measure 90
0010
0001
0010
0100
1000
0010
1000
0001
,  // measure 91
0100
0001
0010
0100
1000
0100
0010
0001
,  // measure 92
0200
0000
0300
0000
;

//---------------dance-single - ----------------
#NOTEDATA:;
#CHARTNAME:;
#STEPSTYPE:dance-single;
#DESCRIPTION:;
#CHARTSTYLE:;
#DIFFICULTY:Medium;
#METER:10;
#RADARVALUES:0.365628,0.437231,0.213283,0.170627,0.000000,240.000000,220.000000,20.000000,16.000000,0.000000,0.000000,0.000000,0.000000,0.000000,0.365628,0.437231,0.213283,0.170627,0.000000,240.000000,220.000000,20.000000,16.000000,0.000000,0.000000,0.000000,0.000000,0.000000;
#CREDIT:;
#NOTES:
0000
0000
0000
0000
,
0001
0010
0100
0000
,
1000
0100
0010
1001
,
1000
0100
0010
0000
,
0001
0010
0100
1001
,
1000
0010
0100
0000
,
0001
0100
0010
0110
,
1000
0100
0010
0000
,
0001
0010
0100
0110
,
0001
0001
1000
0000
,
1000
0100
1000
0110
,
0001
0010
0001
0000
,
0001
0010
0100
1001
,
0010
0100
1000
0000
,
1000
0100
0010
0011
,
0010
0100
1000
0000
,
0001
0010
0100
1001
,
0200
0000
0000
0300
,
0010
0000
0010
0000
,
1000
0000
0001
0000
,
1000
0001
0010
0001
,
1000
0010
2000
3000
,
0010
0000
0010
0000
,
0100
0000
0100
0000
,
0001
0001
1000
1000
,
0010
0100
0020
1030
,
0000
1000
0000
1000
,
0000
0100
0000
0010
,
1000
0010
0001
0010
,
0010
0020
0130
1001
,
0000
0010
0000
0100
,
0000
0010
0000
1000
,
1000
0010
0100
0001
,
0100
0010
1010
0000
,
0000
0001
0000
0000
,
0100
0000
0101
0000
,
0000
0001
0000
0010
,
0000
0011
0000
0000
,
0100
0000
0000
1000
,
0000
1100
0000
0000
,
1000
0000
0000
0001
,
0000
0100
0010
0100
,
0010
1000
0010
1000
,
0010
0100
0010
0100
,
0010
0100
0001
1000
,
0001
0010
0001
0010
,
0100
0010
0100
0010
,
0100
1000
0100
1000
,
0100
1000
2002
3003
,
0010
0000
1000
0000
,
0100
0000
0001
0000
,
1000
0010
1000
0000
,
0001
0100
0020
1030
,
0100
0000
0100
0000
,
1000
0000
0010
0000
,
0100
0001
0100
0000
,
0010
1000
0200
0310
,
0000
0001
0000
0010
,
0000
0100
0000
1000
,
0001
1000
0001
0100
,
0010
0200
0310
0010
,
0000
0010
0000
1000
,
0000
0001
0000
0100
,
0001
1000
0010
2000
,
0000
3000
0200
0000
,
0300
0020
0000
0002
,
0000
0000
0000
0000
,
0000
0000
0000
0000
,
0000
0000
0000
0000
,
0033
0000
0000
0001
,
0001
1000
0000
0100
,
0100
1000
1001
0010
,
0010
0100
0000
0001
,
1000
0001
0110
1000
,
0001
1000
0000
0001
,
0100
0010
1010
1000
,
0100
0010
0000
0001
,
0010
0100
1100
0200
,
0000
0000
0000
0000
,
0000
0300
0000
1001
,
0000
0000
0000
0000
,
0000
0000
0000
2002
,
3003
0000
0000
0000
;

//---------------dance-single - ----------------
#NOTEDATA:;
#CHARTNAME:;
#STEPSTYPE:dance-single;
#DESCRIPTION:;
#CHARTSTYLE:;
#DIFFICULTY:Easy;
#METER:6;
#RADARVALUES:0.303167,0.435898,0.341253,0.127970,0.000000,199.000000,167.000000,32.000000,12.000000,0.000000,0.000000,0.000000,0.000000,0.000000,0.303167,0.435898,0.341253,0.127970,0.000000,199.000000,167.000000,32.000000,12.000000,0.000000,0.000000,0.000000,0.000000,0.000000;
#CREDIT:;
#NOTES:
0000
0000
0000
0000
,
0010
0010
0010
0000
,
0100
0100
0100
1001
,
0010
0010
0010
0000
,
0100
0100
0100
0110
,
0010
0010
0010
0000
,
0100
0100
0100
1001
,
0010
0010
0010
0000
,
0100
0100
0100
0000
,
0001
0001
1000
0000
,
1000
1000
0001
1001
,
0001
0001
1000
0000
,
1000
1000
0001
1001
,
0010
0010
0100
0000
,
0100
0100
0010
0110
,
0010
0010
0100
0000
,
0100
0100
0010
0110
,
0200
0000
0000
0300
,
0001
0000
0001
0000
,
1000
0000
1000
0000
,
1001
0000
1001
0000
,
0200
0000
0310
0000
,
1000
0000
1000
0000
,
0001
0000
0001
0000
,
1001
0000
1001
0000
,
2000
0000
3000
0001
,
0000
0001
0000
1000
,
0000
1000
0000
0110
,
0000
0110
0000
0200
,
0000
0310
0000
1000
,
0000
1000
0000
0001
,
0000
0001
0000
0110
,
0000
0110
0000
0200
,
0000
0300
1001
0000
,
0000
0000
0000
0000
,
0000
0000
1010
0000
,
0000
0000
0000
0000
,
0000
0101
0000
0000
,
0000
0000
0000
0000
,
0000
1010
0000
0000
,
0000
0000
0000
0000
,
0000
0000
0010
0000
,
0010
0000
1000
0000
,
0010
0000
1000
0000
,
1000
0000
0001
0000
,
0000
0100
0000
0100
,
0000
0001
0000
0100
,
0000
0001
0000
0001
,
0000
1000
0000
0000
,
0010
0000
0010
0000
,
0100
0000
0100
0000
,
0110
0000
0110
0000
,
2000
0000
3001
0000
,
0100
0000
0100
0000
,
0010
0000
0010
0000
,
0110
0000
0110
0000
,
0020
0000
0030
0100
,
0000
0100
0000
0010
,
0000
0010
0000
1001
,
0000
1001
0000
0200
,
0000
0310
0000
0100
,
0000
0100
0000
0010
,
0000
0010
0000
0110
,
0000
0110
0000
2000
,
0000
3000
0002
0000
,
0003
2000
0000
0000
,
0000
0000
0000
0000
,
0000
0000
0000
0000
,
0000
0000
0000
0000
,
3000
0000
0000
0010
,
0010
0010
0000
0100
,
0100
0100
1001
0010
,
0010
0010
0000
0100
,
0100
0100
0110
0010
,
0010
0010
0000
0100
,
0100
0100
1001
0001
,
0001
0001
0000
1000
,
1000
1000
1001
0002
,
0000
0000
0000
0000
,
0000
0000
0003
0001
,
0000
0000
0000
0000
,
0000
0000
0000
1010
;
