#VERSION:0.83;
#TITLE:Rainbow Freeze;
#SUBTITLE:;
#ARTIST:Kobaryo;
#TITLETRANSLIT:;
#SUBTITLETRANSLIT:;
#ARTISTTRANSLIT:;
#GENRE:;
#ORIGIN:;
#CREDIT:;
#BANNER:rainbow freeze-bn.png;
#BACKGROUND:rainbow freeze-bg.png;
#PREVIEWVID:;
#JACKET:;
#CDIMAGE:;
#DISCIMAGE:;
#LYRICSPATH:;
#CDTITLE:;
#MUSIC:rainbow freeze.ogg;
#OFFSET:0.095000;
#SAMPLESTART:0.000000;
#SAMPLELENGTH:12.000000;
#SELECTABLE:YES;
#BPMS:0.000=97.150,
36.000=389.000,
100.125=194.300,
164.000=388.000,
172.000=95.000,
173.000=243.750,
176.000=194.300,
308.000=388.000,
437.000=195.000,
438.000=97.500;
#STOPS:34.000=3.745,
304.000=1.220;
#DELAYS:;
#WARPS:;
#TIMESIGNATURES:0.000=4=4;
#TICKCOUNTS:0.000=4;
#COMBOS:0.000=1;
#SPEEDS:0.000=1.000=0.000=0;
#SCROLLS:0.000=1.000,
34.000=0.100,
34.167=0.500,
34.333=0.900,
34.500=1.000,
34.667=1.500,
34.833=2.000,
35.000=2.200,
35.167=2.400,
35.333=2.500,
35.500=2.600,
35.667=2.700,
35.833=2.800,
35.875=2.900,
35.917=3.000,
36.000=1.000;
#FAKES:;
#LABELS:0.000=Song Start;
#BGCHANGES:;
#KEYSOUNDS:;
#ATTACKS:
;

//---------------dance-single - ----------------
#NOTEDATA:;
#CHARTNAME:;
#STEPSTYPE:dance-single;
#DESCRIPTION:;
#CHARTSTYLE:;
#DIFFICULTY:Easy;
#METER:10;
#RADARVALUES:0.489028,0.662943,0.224999,0.112499,0.000000,426.000000,398.000000,28.000000,14.000000,0.000000,0.000000,0.000000,0.000000,0.000000,0.489028,0.662943,0.224999,0.112499,0.000000,426.000000,398.000000,28.000000,14.000000,0.000000,0.000000,0.000000,0.000000,0.000000;
#CREDIT:;
#NOTES:
0000
0000
2000
0000
,
0000
0010
0002
0000
,
0000
3003
0002
0000
,
0000
0010
2000
0000
,
0000
0000
3003
0000
1000
1000
0100
0000
,
0010
0100
1000
0000
0001
0001
0100
0000
,
0010
0100
0001
0000
1000
0010
1000
0000
,
0001
0010
0001
0000
1000
0010
0010
1000
,
0001
0000
0000
0000
0000
0000
0000
0000
0000
0000
0000
0000
0000
0000
0000
0000
0000
0000
0000
0000
0000
0000
0000
0000
0010
0000
0000
0000
0000
0000
0000
0000
0000
0000
0000
0000
0000
0000
0000
0000
0000
0000
0000
0000
0000
0000
0000
0000
0010
0000
0000
0000
0000
0000
0000
0000
0000
0000
0000
0000
0000
0000
0000
0000
0000
0000
0000
0000
0000
0000
0000
0000
0002
0000
0000
0000
0000
0000
0000
0000
0000
0000
0000
0000
0000
0000
0000
0000
0000
0000
0000
0000
0000
0000
0000
0000
2000
3003
0000
0000
0000
0000
0000
0000
0000
0000
0000
0000
0000
0000
0000
0000
0000
0000
0000
0000
0000
0000
0000
0000
0000
0000
0000
0000
0000
0000
0000
0000
0000
0000
0000
0000
0000
0000
0000
0000
0000
0000
0000
0000
0000
0000
0000
0000
0000
0000
0000
0000
0000
0000
0000
0000
0000
0000
0000
0000
0000
0000
0000
0000
0000
0000
0000
0000
0000
0000
0000
0000
0000
0000
0000
0000
0000
0000
0000
0000
0000
0000
0000
0000
0000
0000
0000
0000
0000
0000
0000
0000
0000
0000
0000
0000
,
0010
1000
0001
1000
,
0010
1000
0001
1000
,
0100
1000
0001
1000
,
0100
1000
0001
1000
,
0010
1000
0001
1000
,
0010
1000
0001
1000
,
0100
0010
0001
0010
,
0100
0010
0001
0000
,
0011
0000
0010
0001
,
1000
0001
0010
0001
,
1000
0001
0100
0001
,
1000
0001
0100
0001
,
1000
0001
0010
0001
,
1000
0001
0010
0001
,
0100
0010
1000
0010
,
0100
0010
2000
0000
,
3001
0000
0001
0000
,
0100
0000
0100
0000
,
0010
0000
0010
0000
,
0100
0000
0010
0000
,
2001
0000
3001
0000
,
0100
0000
0100
0000
,
0001
0000
0001
0000
,
1000
0010
1000
0001
,
0011
0000
0011
0000
0000
1001
0000
0000
,
1010
0000
0000
1001
0000
0000
0011
0000
,
1100
0000
1100
0000
0000
1001
0000
0000
,
0101
0000
0000
1001
0000
0000
1100
0000
,
0100
0010
0100
0010
,
0001
1000
0001
1000
,
0010
0100
0010
0100
,
0001
0100
0010
1000
,
2002
0000
0000
0000
,
0000
0000
0000
0000
,
3003
0000
0000
0000
,
0110
0100
0100
0100
,
0001
0100
1000
0100
,
0001
0100
1000
0100
,
0001
0100
1000
0100
,
0110
0010
0010
0010
,
1000
0010
0001
0010
,
1000
0010
0001
0010
,
1000
0010
0001
0010
,
1010
1000
1000
1000
,
0010
1000
0100
1000
,
0010
1000
0100
1000
,
0010
1000
0100
1000
,
1001
0001
0001
0001
,
0010
0001
0100
0001
,
0010
0001
0100
0001
,
0010
0001
1000
0001
,
1000
0001
1000
0000
0010
0000
1000
0000
,
0000
0001
1000
0000
0010
0000
1000
0000
,
0001
1000
0001
0000
0010
0000
0001
0000
,
0000
1000
0001
0000
0010
0000
0001
0000
,
1000
0100
1000
0000
0001
0000
1000
0000
,
0000
0100
1000
0000
0001
0000
1000
0000
,
0001
0100
0001
0000
1000
0000
0001
0000
,
0000
0100
0001
0000
1000
0000
0001
0000
,
0101
0100
0100
0100
,
0101
0100
1000
0100
,
0101
0001
0001
0001
,
0011
0010
1000
0010
,
0011
0001
0001
0001
,
1000
0010
1000
0001
,
1000
0010
1000
0001
,
1000
0100
1000
0001
,
2002
3003
0000
0000
,
1000
0010
1000
0010
,
0100
0010
1000
0001
,
0100
0001
0100
0001
,
0100
0010
0100
0001
,
1000
0001
1000
0001
,
1000
0010
1000
0001
,
1000
0100
1000
0100
,
1000
0001
1000
0100
,
1000
0001
1000
0001
,
0010
0001
0010
0001
,
1000
0001
1000
0001
,
0100
0001
0100
0001
,
1000
0001
1000
0001
,
1000
0010
1000
0010
,
0100
0001
1000
0010
,
0100
0001
1000
0000
,
0110
0000
1000
0001
,
1000
0010
1000
0001
,
0010
0001
1000
0010
,
1000
0001
0010
0001
,
1000
0100
1000
0001
,
0100
0001
1000
0100
,
1000
0001
0100
0001
,
1000
0010
0100
0000
,
0101
0000
1000
0010
,
1000
0100
0010
0001
,
0010
0100
1000
0100
,
1000
0001
1000
0010
,
1000
0001
1000
0001
,
0100
0001
1000
0010
,
1000
0001
0010
0001
,
1000
0100
1000
0000
,
2002
0000
0000
0000
,
3003
0000
0000
0000
;

//---------------dance-single - ----------------
#NOTEDATA:;
#CHARTNAME:;
#STEPSTYPE:dance-single;
#DESCRIPTION:;
#CHARTSTYLE:;
#DIFFICULTY:Medium;
#METER:14;
#RADARVALUES:0.613007,0.928121,0.208928,0.313391,0.096428,534.000000,508.000000,26.000000,39.000000,0.000000,0.000000,0.000000,0.000000,0.000000,0.613007,0.928121,0.208928,0.313391,0.096428,534.000000,508.000000,26.000000,39.000000,0.000000,0.000000,0.000000,0.000000,0.000000;
#CREDIT:;
#NOTES:
0000
0000
2002
0000
,
0000
3000
0020
0003
0200
0000
0000
0000
,
0000
0000
0000
0330
2002
0000
0000
0000
,
0000
0003
0020
3000
0200
0000
0000
0000
,
0000
0000
0000
0000
0330
0000
0000
0000
1001
0000
1000
0100
1000
0000
0010
0000
,
0000
0100
0010
0000
1000
0000
0001
0000
1000
0000
0001
0100
0001
0000
0010
0000
,
0000
0100
0010
0000
0100
0000
1000
0000
0001
0000
1000
0100
1000
0000
0010
0000
,
0000
1000
0001
0000
0010
0000
0001
1000
0010
0000
0100
0010
1000
0000
0001
0000
,
0010
0000
0000
0000
0000
0000
0000
0000
0000
0000
0000
0000
0100
0000
0000
0000
0000
0000
0000
0000
0000
0000
0000
0000
1000
0000
0000
0000
0000
0000
0000
0000
0000
0000
0000
0000
0000
0000
0000
0000
0000
0000
0000
0000
0000
0000
0000
0000
0001
0000
0000
0000
0000
0000
0000
0000
0000
0000
0000
0000
0000
0000
0000
0000
0000
0000
0000
0000
0000
0000
0000
0000
0200
0000
0000
0000
0000
0000
0000
0000
0000
0000
0000
0000
0000
0000
0000
0000
0000
0000
0000
0000
0000
0000
0000
0000
0020
0330
0000
0000
0000
0000
0000
0000
0000
0000
0000
0000
0000
0000
0000
0000
0000
0000
0000
0000
0000
0000
0000
0000
0000
0000
0000
0000
0000
0000
0000
0000
0000
0000
0000
0000
0000
0000
0000
0000
0000
0000
0000
0000
0000
0000
0000
0000
0000
0000
0000
0000
0000
0000
0000
0000
0000
0000
0000
0000
0000
0000
0000
0000
0000
0000
0000
0000
0000
0000
0000
0000
0000
0000
0000
0000
0000
0000
0000
0000
0000
0000
0000
0000
0000
0000
0000
0000
0000
0000
0000
0000
0000
0000
0000
0000
,
1000
0100
0010
0100
,
1000
0100
0010
0100
,
1000
0001
0010
0001
,
1000
0001
0010
0001
,
0100
0010
1000
0010
,
0100
0010
1000
0010
,
0100
0001
1000
0001
,
0100
0000
0001
0000
2000
0000
0000
3000
,
1010
0000
0001
0010
,
0100
0010
0001
0010
,
0100
1000
0001
1000
,
0010
1000
0001
1000
,
0010
0100
0001
0100
,
0010
0100
0001
0100
,
0010
1000
0001
0100
,
0001
1000
0010
0000
,
0202
0000
0000
0003
0002
0000
0000
0003
,
0020
0000
0000
0300
0200
0000
0000
0300
,
2000
0000
0000
0030
0020
0000
0000
0030
,
0002
0000
0000
3000
2000
0000
0000
0003
,
0200
0000
0000
3000
2000
0000
0000
0300
,
0002
0000
0000
0003
0002
0000
0000
3000
,
0200
0000
0000
0300
0200
0000
0000
0003
,
0020
0000
0330
0000
,
0011
0000
1100
0000
0000
1001
0000
0000
,
1010
0000
0000
1010
0000
0002
0103
0000
,
1010
0000
0101
0000
0000
1001
0000
0000
,
1100
0000
0000
0011
0000
2000
3100
0000
,
1000
0010
0001
0010
1000
0010
0001
0010
,
0100
1000
0100
0001
0100
0010
1000
0000
,
2100
0010
0100
3002
,
0100
0010
1003
0001
,
1000
0100
0010
0002
,
2000
0000
0000
3003
,
1001
0000
0000
0000
,
1000
0100
0010
0001
0100
0010
0100
0010
,
1000
0010
0100
0010
0001
0010
0100
0010
,
1000
0100
0010
0100
0001
0100
0010
0100
,
1000
0100
1000
0001
1000
0010
1000
0000
,
0001
0100
0010
1000
0100
0010
0100
0010
,
0001
0010
0100
0010
1000
0010
0100
0010
,
0001
0100
0010
0100
1000
0100
0010
0100
,
0001
0100
0001
1000
0001
0010
0001
0000
,
1000
0100
0001
0100
1000
0001
1000
0001
,
0010
0001
1000
0001
0100
0001
0010
0100
,
1000
0010
1000
0001
1000
0100
1000
0010
,
0100
0001
1000
0001
0010
0001
1000
0000
,
0001
0100
1000
0100
0001
1000
0001
1000
,
0100
1000
0001
1000
0010
1000
0100
0010
,
0001
1000
0001
0100
0001
1000
0001
0010
,
0100
0010
0001
1000
0010
0100
0001
0000
,
1001
0000
0000
0000
1000
0000
0000
0010
0000
0000
0100
0000
0001
0000
0000
0010
,
0000
0000
0001
0000
0100
0000
0000
0010
0000
0000
1000
0000
0100
0000
0000
1000
,
0000
0000
0010
0000
0100
0000
0000
0001
0000
0000
0010
0000
0100
0000
0000
1000
,
0000
0000
0001
0000
1000
0000
0000
0100
0000
0000
1000
0000
0001
0000
0000
0010
,
0000
0000
0100
0000
0010
0000
0000
0001
0000
0000
1000
0000
0010
0000
0000
0100
,
0000
0000
0001
0000
0100
0000
0000
0010
0000
0000
1000
0000
0001
0000
0000
0010
,
0000
0000
0001
0000
1000
0000
0000
0010
0000
0000
1000
0000
0001
0000
0000
0100
,
0000
0000
0010
0000
1000
0000
0000
0001
0000
0000
0010
0000
0100
0000
0000
0000
,
1100
1000
0100
1000
0001
1000
0100
0000
,
0101
0001
0100
0001
1000
0001
0010
0000
,
1010
1000
0010
1000
0001
1000
0010
0000
,
0011
0001
0010
0001
2000
3001
2000
0000
,
3010
0100
0001
0100
0010
0100
0001
1000
,
0100
0010
0001
0010
0100
0010
0001
0010
,
0100
0010
1000
0010
0100
0010
0001
0100
,
0010
0100
1000
0100
0010
0100
0001
0000
,
2002
3003
0000
0000
0000
0000
0000
0000
0000
0000
0000
0000
0000
0000
0000
0000
0000
0000
0000
0000
0000
0000
0000
0000
0000
0000
0000
0000
0000
0000
0000
0000
0000
0000
0000
0000
0000
0000
0000
0000
0000
0000
0000
0000
0000
0000
0000
0000
0000
0000
0000
0000
0000
0000
0000
0000
0000
0000
0000
0000
0000
0000
0000
0000
0000
0000
0000
0000
0000
0000
0000
0000
0000
0000
0000
0000
0000
0000
0000
0000
0000
0000
0000
0000
0000
0000
0000
0000
0000
0000
0000
0000
0000
0000
0000
0000
0000
0000
0000
0000
0000
0000
0000
0000
0000
0000
0000
0000
0000
0000
0000
0000
0000
0000
0000
0000
0000
0000
0000
0000
0000
0000
0000
0000
0000
0000
0000
0000
0000
0000
0000
0000
0000
0000
0000
0000
0000
0000
0000
0000
0000
0000
0000
0000
0000
0000
0000
0000
0000
0000
0000
0000
0000
0000
0000
0000
0000
0000
0000
0000
0000
0000
0000
0000
0000
0000
0000
0000
0000
0000
0000
0000
0000
0000
0000
0000
0000
0000
0000
0000
0000
0000
0000
0000
0000
0000
0000
0000
0000
0000
0000
0000
,
0001
0000
0100
0000
0010
0000
0000
0100
,
0000
0000
0001
0000
1000
0000
0000
0100
,
0000
0000
1000
0000
0001
0000
0000
0010
,
0000
0000
0001
0000
1000
0000
0000
0010
,
0000
0000
1000
0000
0001
0000
0000
0100
,
0000
0000
0001
0000
0010
0000
0000
0100
,
0000
0000
1000
0000
0100
0000
0000
0010
,
0000
0000
0001
0000
1000
0000
0000
0010
,
1000
0000
0001
0000
1000
0000
0000
0010
,
0000
0000
0100
0000
0001
0000
0000
0100
,
0000
0000
0001
0000
1000
0000
0000
0100
,
0000
0000
1000
0000
0100
0000
0000
1000
,
0000
0000
0001
0000
0010
0000
0000
0001
,
0000
0000
1000
0000
0001
0000
0000
0010
,
0000
0000
0001
0000
1000
0000
0000
0100
,
0000
0010
0001
1000
,
1001
1000
0100
1000
,
0100
0010
0100
0001
,
0100
0010
0100
1000
,
0010
0100
0010
0001
,
0010
0100
0010
1000
,
0001
1000
0001
0100
,
0001
1000
0001
0010
,
0001
1000
0001
0000
,
1001
0001
0100
0001
,
0100
0010
0100
0010
,
0100
1000
0100
0010
,
0100
0001
0100
0010
,
1000
0001
0010
0100
,
0010
1000
0010
0100
,
0010
0001
0010
0100
,
1000
0001
1000
0000
,
2002
0000
0000
0000
,
3003
0000
0000
0000
;

//---------------dance-single - ----------------
#NOTEDATA:;
#CHARTNAME:;
#STEPSTYPE:dance-single;
#DESCRIPTION:;
#CHARTSTYLE:;
#DIFFICULTY:Beginner;
#METER:6;
#RADARVALUES:0.211224,0.353570,0.104464,0.120535,0.000000,184.000000,171.000000,13.000000,15.000000,0.000000,0.000000,0.000000,0.000000,0.000000,0.211224,0.353570,0.104464,0.120535,0.000000,184.000000,171.000000,13.000000,15.000000,0.000000,0.000000,0.000000,0.000000,0.000000;
#CREDIT:;
#NOTES:
// measure 0
0000
0000
0020
0000
,  // measure 1
0000
0000
0000
0000
,  // measure 2
0030
0000
0200
0000
,  // measure 3
0000
0000
0000
0000
,  // measure 4
0300
0000
0001
0001
,  // measure 5
0001
0000
1000
1000
,  // measure 6
1000
0000
0001
0001
,  // measure 7
0001
0000
0010
0010
,  // measure 8
0010
0000
0000
0000
0000
0000
0000
0000
0000
0000
0000
0000
0000
0000
0000
0000
0000
0000
0000
0000
0000
0000
0000
0000
0000
0000
0000
0000
0000
0000
0000
0000
0000
0000
0000
0000
0000
0000
0000
0000
0000
0000
0000
0000
0000
0000
0000
0000
0000
0000
0000
0000
0000
0000
0000
0000
0000
0000
0000
0000
0000
0000
0000
0000
0000
0000
0000
0000
0000
0000
0000
0000
0000
0000
0000
0000
0000
0000
0000
0000
0000
0000
0000
0000
0000
0000
0000
0000
0000
0000
0000
0000
0000
0000
0000
0000
2002
3003
0000
0000
0000
0000
0000
0000
0000
0000
0000
0000
0000
0000
0000
0000
0000
0000
0000
0000
0000
0000
0000
0000
0000
0000
0000
0000
0000
0000
0000
0000
0000
0000
0000
0000
0000
0000
0000
0000
0000
0000
0000
0000
0000
0000
0000
0000
0000
0000
0000
0000
0000
0000
0000
0000
0000
0000
0000
0000
0000
0000
0000
0000
0000
0000
0000
0000
0000
0000
0000
0000
0000
0000
0000
0000
0000
0000
0000
0000
0000
0000
0000
0000
0000
0000
0000
0000
0000
0000
0000
0000
0000
0000
0000
0000
,  // measure 9
1000
0000
1000
0000
,  // measure 10
1000
0000
0000
0000
,  // measure 11
0001
0000
0001
0000
,  // measure 12
0001
0000
0000
0000
,  // measure 13
1000
0000
1000
0000
,  // measure 14
1000
0000
0000
0000
,  // measure 15
0001
0000
0001
0000
,  // measure 16
0001
0000
0000
0000
,  // measure 17
1001
0000
0000
0000
,  // measure 18
1000
0000
0000
0000
,  // measure 19
0100
0000
0000
0000
,  // measure 20
0010
0000
0000
0000
,  // measure 21
0001
0000
0000
0000
,  // measure 22
0010
0000
0000
0000
,  // measure 23
0100
0000
0000
0000
,  // measure 24
1000
0000
0000
0000
,  // measure 25
2002
0000
0000
0000
,  // measure 26
0000
0000
0000
0000
,  // measure 27
3003
0000
0000
0000
,  // measure 28
0000
0000
0000
0000
,  // measure 29
0100
0000
0000
0000
,  // measure 30
0000
0000
0000
0000
,  // measure 31
0010
0000
0000
0000
,  // measure 32
0000
0000
0000
0000
,  // measure 33
0010
0010
0000
0000
,  // measure 34
1000
0000
0000
0001
,  // measure 35
0001
0001
0000
0000
,  // measure 36
0100
0000
0000
0000
,  // measure 37
0010
0000
0010
0000
,  // measure 38
1000
0000
1000
0000
,  // measure 39
0001
0000
0001
0000
,  // measure 40
0100
0000
0100
0000
,  // measure 41
0200
0000
0000
0000
,  // measure 42
0000
0000
0000
0000
,  // measure 43
0300
0000
0000
0000
,  // measure 44
0010
0010
0010
0000
,  // measure 45
0100
0100
0100
0000
,  // measure 46
0010
0000
0100
0000
,  // measure 47
0010
0000
0100
0000
,  // measure 48
0001
0001
0001
0000
,  // measure 49
1000
1000
1000
0000
,  // measure 50
0001
0000
1000
0000
,  // measure 51
0001
0000
1000
0000
,  // measure 52
0010
0010
0010
0000
,  // measure 53
0100
0100
0100
0000
,  // measure 54
0010
0000
0100
0000
,  // measure 55
0010
0000
0100
0000
,  // measure 56
0001
0001
0001
0000
,  // measure 57
1000
1000
1000
0000
,  // measure 58
0001
0000
1000
0000
,  // measure 59
0001
0000
1000
0000
,  // measure 60
2002
0000
0000
0000
,  // measure 61
0000
0000
0000
0000
,  // measure 62
3003
0000
0000
0000
,  // measure 63
0000
0000
0000
0000
,  // measure 64
0200
0000
0000
0000
,  // measure 65
0000
0000
0000
0000
,  // measure 66
0020
0000
0000
0000
,  // measure 67
0000
0000
0330
0000
,  // measure 68
1001
0000
0000
0000
,  // measure 69
1001
0000
0000
0000
,  // measure 70
0110
0000
0000
0000
,  // measure 71
0110
0000
0000
0000
,  // measure 72
1001
0000
1000
0000
,  // measure 73
0001
0000
1000
0000
,  // measure 74
0001
0001
0001
0000
,  // measure 75
1000
1000
1000
0000
,  // measure 76
2002
3003
0000
0000
0000
0000
0000
0000
0000
0000
0000
0000
0000
0000
0000
0000
0000
0000
0000
0000
0000
0000
0000
0000
0000
0000
0000
0000
0000
0000
0000
0000
0000
0000
0000
0000
0000
0000
0000
0000
0000
0000
0000
0000
0000
0000
0000
0000
0000
0000
0000
0000
0000
0000
0000
0000
0000
0000
0000
0000
0000
0000
0000
0000
0000
0000
0000
0000
0000
0000
0000
0000
0000
0000
0000
0000
0000
0000
0000
0000
0000
0000
0000
0000
0000
0000
0000
0000
0000
0000
0000
0000
0000
0000
0000
0000
0000
0000
0000
0000
0000
0000
0000
0000
0000
0000
0000
0000
0000
0000
0000
0000
0000
0000
0000
0000
0000
0000
0000
0000
0000
0000
0000
0000
0000
0000
0000
0000
0000
0000
0000
0000
0000
0000
0000
0000
0000
0000
0000
0000
0000
0000
0000
0000
0000
0000
0000
0000
0000
0000
0000
0000
0000
0000
0000
0000
0000
0000
0000
0000
0000
0000
0000
0000
0000
0000
0000
0000
0000
0000
0000
0000
0000
0000
0000
0000
0000
0000
0000
0000
0000
0000
0000
0000
0000
0000
0000
0000
0000
0000
0000
0000
,  // measure 77
1000
0000
1000
0000
,  // measure 78
0001
0000
0001
0000
,  // measure 79
1000
0000
1000
0000
,  // measure 80
0001
0000
0001
0000
,  // measure 81
1000
0000
0001
0000
,  // measure 82
1000
0000
0001
0000
,  // measure 83
1000
0000
0001
0000
,  // measure 84
1000
0000
0000
0000
,  // measure 85
0010
0000
0010
0000
,  // measure 86
0100
0000
0100
0000
,  // measure 87
0010
0000
0010
0000
,  // measure 88
0100
0000
0100
0000
,  // measure 89
0010
0000
0100
0000
,  // measure 90
0010
0000
0100
0000
,  // measure 91
0010
0000
0100
0000
,  // measure 92
0010
0000
0000
0000
,  // measure 93
1001
0000
0000
0000
,  // measure 94
1000
0000
0001
0000
,  // measure 95
1000
0000
1000
0000
,  // measure 96
0001
0000
0001
0000
,  // measure 97
1000
0000
0001
0000
,  // measure 98
1000
0000
1000
0000
,  // measure 99
0001
0000
0001
0000
,  // measure 100
1000
0000
0000
0000
,  // measure 101
0110
0000
0000
0000
,  // measure 102
0010
0000
0010
0000
,  // measure 103
0100
0000
0010
0000
,  // measure 104
0100
0000
0100
0000
,  // measure 105
0010
0000
0100
0000
,  // measure 106
0010
0000
0010
0000
,  // measure 107
0100
0000
0010
0000
,  // measure 108
0100
0000
0000
0000
,  // measure 109
2002
0000
0000
0000
,  // measure 110
3003
0000
0000
0000
;

//---------------dance-single - ----------------
#NOTEDATA:;
#CHARTNAME:;
#STEPSTYPE:dance-single;
#DESCRIPTION:;
#CHARTSTYLE:;
#DIFFICULTY:Hard;
#METER:17;
#RADARVALUES:0.794384,1.149102,0.192856,0.353570,0.486159,692.000000,668.000000,24.000000,44.000000,27.000000,0.000000,0.000000,0.000000,0.000000,0.794384,1.149102,0.192856,0.353570,0.486159,692.000000,668.000000,24.000000,44.000000,27.000000,0.000000,0.000000,0.000000,0.000000;
#CREDIT:;
#NOTES:
0000
0000
0000
0000
0001
0001
1000
0001
,
0100
0100
0010
0100
0001
0001
1000
1000
,
0100
0100
0010
0100
1000
1000
0001
1000
,
0100
0100
0010
0100
1000
1000
0001
0001
,
0100
0000
0100
0000
0010
0000
0100
0000
1001
0000
1000
0100
1000
0000
0001
0000
,
1000
0100
1000
0000
0010
0000
0100
0000
1001
0000
0001
0100
0001
0000
1000
0000
,
0001
0100
0001
0000
0010
0000
0100
0000
0110
0000
0100
1000
0100
0000
0010
0000
,
0100
1000
0001
0000
0100
0000
0010
0000
0110
0000
0100
0001
1000
0000
0100
0000
,
1000
0000
0000
0000
0000
0000
0000
0000
0000
0000
0000
0000
0001
0000
0000
0000
0000
0000
0000
0000
0000
0000
0000
0000
0100
0000
0000
0000
0000
0000
0000
0000
0000
0000
0000
0000
0000
0000
0000
0000
0000
0000
0000
0000
0000
0000
0000
0000
0010
0000
0000
0000
0000
0000
0000
0000
0000
0000
0000
0000
0000
0000
0000
0000
0000
0000
0000
0000
0000
0000
0000
0000
1000
0000
0000
0000
0000
0000
0000
0000
0000
0000
0000
0000
0002
0000
0000
0000
0000
0000
0000
0000
0000
0000
0000
0000
2000
3003
0000
0000
0000
0000
0000
0000
0000
0000
0000
0000
0000
0000
0000
0000
0000
0000
0000
0000
0000
0000
0000
0000
0000
0000
0000
0000
0000
0000
0000
0000
0000
0000
0000
0000
0000
0000
0000
0000
0000
0000
0000
0000
0000
0000
0000
0000
0000
0000
0000
0000
0000
0000
0000
0000
0000
0000
0000
0000
0000
0000
0000
0000
0000
0000
0000
0000
0000
0000
0000
0000
0000
0000
0000
0000
0000
0000
0000
0000
0000
0000
0000
0000
0000
0000
0000
0000
0000
0000
0000
0000
0000
0000
0000
0000
,
0001
0100
0001
0100
0001
0000
1000
0000
,
0001
0100
0010
1000
0001
0000
1000
0001
,
1000
0100
1000
0100
1000
0000
0001
0000
,
1000
0100
0010
0001
1000
0000
0001
0010
,
0001
1000
0001
1000
0001
0000
0100
0000
,
0010
0100
0010
0100
0010
0000
0100
0010
,
1000
0010
1000
0010
1000
0000
0001
0000
,
1000
0010
0100
0001
1000
0100
0010
0001
,
0011
0000
0001
0100
,
0010
1000
0010
1000
0010
0000
0100
0000
,
0001
1000
0001
1000
0001
0000
0010
0000
,
0100
1000
0100
1000
0100
0000
0010
0001
,
0010
0001
0010
0001
0010
0000
0100
0000
,
1000
0001
1000
0001
1000
0000
0010
0000
,
0100
0001
0100
0001
0000
0000
1000
0010
,
0000
0000
1000
0001
0000
0000
0000
0000
,
1002
0000
0100
0000
,
2003
0000
0100
0000
,
3002
0000
0010
0000
,
2003
0000
0010
0000
,
3200
0000
0320
0000
,
0032
0000
0023
0000
,
0230
0000
2300
0000
,
3010
0100
0001
1000
,
1001
0000
0011
0000
0000
1100
0000
0000
,
0011
0000
0000
1010
0000
0002
0103
0000
,
1010
0000
0110
0000
0000
0011
0000
0000
,
1100
0000
0000
0110
0000
0200
0301
0000
,
1001
0010
1000
0010
0100
0010
0001
0010
,
1000
0100
0010
0100
0001
0100
1000
0000
,
2010
3002
0023
1000
,
0230
0001
2300
3010
,
1000
0001
1000
0000
0010
0100
0010
0000
,
2000
0000
0000
0000
,
3001
0000
0000
0000
,
1000
0010
1000
0000
0001
0010
0001
0000
0200
0000
0000
0000
0000
0000
0000
0000
,
0300
000M
0100
1000
0000
M000
0100
0001
0000
000M
0010
1000
0000
M000
0010
0001
,
0000
000M
0010
1000
0000
0000
0001
1000
0000
0000
0100
1000
0000
M000
0100
0001
,
0000
0000
1000
0001
0000
0000
0010
0001
0000
000M
0100
1000
0000
M000
0100
0001
,
1000
0100
1000
0000
0001
0100
0001
0000
0020
0000
0000
0000
0000
0000
0000
0000
,
0030
000M
0010
1000
0000
M000
0010
0001
0000
000M
0100
1000
0000
M000
0100
0001
,
0000
000M
0010
1000
0000
0000
0001
1000
0000
0000
0100
1000
0000
M000
0100
0001
,
0000
0000
1000
0001
0000
0000
0010
0001
0000
000M
0100
1000
0000
0000
0001
1000
,
0001
0010
0001
0000
1000
0010
1000
0000
0200
0000
0000
0000
0000
0000
0000
0000
,
0300
M000
0100
0001
0000
0000
0010
0001
0000
000M
0100
1000
0000
0000
0010
1000
,
0000
M000
0010
0001
0000
0000
1000
0001
0000
000M
0100
1000
0000
0000
0001
1000
,
0000
M000
0100
0001
0000
0000
1000
0001
0000
000M
0010
1000
0000
0000
0001
1000
,
0001
0100
0001
0000
1000
0100
1000
0000
0020
0000
0000
0000
0000
0000
0000
0000
,
0030
M000
0010
0001
0000
0000
0100
0001
0000
000M
0100
1000
0000
0000
0010
1000
,
0000
M000
0100
0001
0000
0000
1000
0001
0000
000M
0100
1000
0000
0000
0001
1000
,
0000
M000
0010
0001
0000
0000
1000
0001
0000
000M
0010
1000
0000
0000
0001
1000
,
0001
0000
1000
0000
0010
0000
0100
1000
0000
0000
0100
0000
0001
0000
1000
0001
,
0000
0000
0010
0000
0100
0000
0001
0100
0000
0000
1000
0000
0001
0000
1000
0001
,
0000
0000
0010
0000
0100
0000
0001
0100
0000
0000
0010
0000
0001
0000
1000
0010
,
0000
0000
0100
0000
1000
0000
0100
0010
0000
0000
1000
0000
0001
0000
0010
0001
,
0000
1000
0001
0000
0010
0000
0100
0001
0000
0000
0100
0000
0010
0000
0001
1000
,
0000
0000
0010
0000
0100
0000
1000
0100
0000
0000
0001
0000
1000
0000
0001
1000
,
0000
0000
0010
0000
0100
0000
1000
0100
0000
0000
0001
0000
1000
0000
0100
0001
,
0000
0000
0100
0000
1000
0000
0001
0010
0000
0000
0001
0000
0100
0000
0010
1000
,
0001
0010
0001
0000
1000
0010
1000
0000
0200
0000
0000
0000
0000
0000
0300
0000
,
1001
0000
0100
0010
0100
0000
0010
0100
0010
0000
0100
0010
0100
0000
0010
0000
,
0110
0000
1000
0001
1000
0000
0001
1000
0001
0000
1000
0001
1000
0000
0001
0000
,
1001
0000
0001
0010
0001
0000
1000
0010
1000
0000
0001
0010
0001
0000
1000
0000
,
1010
0001
0200
0301
0020
0031
2000
3010
,
0020
0000
0031
0000
2000
0000
3010
0000
0200
0000
0301
0000
0020
0000
0031
0010
,
0002
1003
0020
1030
0002
0013
0200
0310
,
0002
0103
0020
0130
0002
1003
2000
3001
,
2002
3003
0000
0000
0000
0000
0000
0000
0000
0000
0000
0000
0000
0000
0000
0000
0000
0000
0000
0000
0000
0000
0000
0000
0000
0000
0000
0000
0000
0000
0000
0000
0000
0000
0000
0000
0000
0000
0000
0000
0000
0000
0000
0000
0000
0000
0000
0000
0000
0000
0000
0000
0000
0000
0000
0000
0000
0000
0000
0000
0000
0000
0000
0000
0000
0000
0000
0000
0000
0000
0000
0000
0000
0000
0000
0000
0000
0000
0000
0000
0000
0000
0000
0000
0000
0000
0000
0000
0000
0000
0000
0000
0000
0000
0000
0000
0000
0000
0000
0000
0000
0000
0000
0000
0000
0000
0000
0000
0000
0000
0000
0000
0000
0000
0000
0000
0000
0000
0000
0000
0000
0000
0000
0000
0000
0000
0000
0000
0000
0000
0000
0000
0000
0000
0000
0000
0000
0000
0000
0000
0000
0000
0000
0000
0000
0000
0000
0000
0000
0000
0000
0000
0000
0000
0000
0000
0000
0000
0000
0000
0000
0000
0000
0000
0000
0000
0000
0000
0000
0000
0000
0000
0000
0000
0000
0000
0000
0000
0000
0000
0000
0000
0000
0000
0000
0000
0000
0000
0000
0000
0000
0000
,
1000
0000
0010
0000
0100
0000
1000
0100
,
0000
0000
0001
0000
1000
0000
0100
0001
,
0000
0000
0100
0000
1000
0000
0001
1000
,
0000
0000
0010
0000
0100
0000
0001
1000
,
0000
0001
0010
0000
0100
0000
0001
0100
,
0000
0000
1000
0000
0001
0000
0100
1000
,
0000
0000
0100
0000
0001
0000
1000
0001
,
0000
0000
0010
0000
0100
0000
1000
0001
,
0000
1000
0100
0000
0010
0000
1000
0010
,
0000
0000
0001
0000
1000
0000
0010
0001
,
0000
0000
0010
0000
1000
0000
0001
1000
,
0000
0000
0001
0000
0010
0000
0100
1000
,
0000
0000
0001
0000
0100
0000
0010
0001
,
0000
0000
0010
0000
1000
0000
0001
0010
,
0000
0000
1000
0000
0010
0000
0001
1000
,
0000
0000
0010
0000
0100
0000
0001
1000
,
0001
1000
0001
1000
0001
0000
0010
0000
,
0100
1000
0100
1000
0100
0000
0010
0000
,
0001
0010
0001
0010
0001
0000
1000
0000
,
0010
0100
0010
0100
0010
0000
0010
1000
,
0001
0010
0001
0010
0001
0000
1000
0010
,
1000
0010
1000
0010
1000
0000
0001
0100
,
0001
1000
0001
1000
0001
0000
1000
0100
,
0010
0100
0010
0100
0010
0000
0001
0010
,
0100
1000
0001
0100
0010
0000
1000
0100
,
0010
0001
1000
0010
0100
0000
0001
1000
,
0010
0100
0010
1000
0001
0000
1000
0100
,
0010
0001
1000
0001
1000
0000
0010
0100
,
0001
0000
0010
0001
1000
0000
0010
1000
,
0100
0000
0010
0001
0100
0000
0010
1000
,
0001
0000
0100
0010
1000
0000
0100
0010
,
0001
0000
1000
0100
0010
0000
0001
0000
,
2002
0000
0000
0000
,
3003
0000
0000
0000
;

//---------------dance-single - ----------------
#NOTEDATA:;
#CHARTNAME:;
#STEPSTYPE:dance-single;
#DESCRIPTION:;
#CHARTSTYLE:;
#DIFFICULTY:Challenge;
#METER:19;
#RADARVALUES:0.961986,1.502672,0.200892,0.803568,0.683033,838.000000,813.000000,25.000000,100.000000,0.000000,0.000000,6.000000,0.000000,0.000000,0.961986,1.502672,0.200892,0.803568,0.683033,838.000000,813.000000,25.000000,100.000000,0.000000,0.000000,6.000000,0.000000,0.000000;
#CREDIT:;
#NOTES:
0000
0000
0000
0000
0000
0000
0000
0000
1000
0010
1000
0010
0100
0010
1000
0001
,
0010
0100
0010
0100
1000
0100
0010
0001
1000
0010
1000
0010
0100
0010
1000
0001
,
0010
0100
0010
0100
1000
0010
0100
0001
0010
0001
0010
0001
0100
0001
1000
0010
,
0100
0001
0100
0001
0010
0100
1000
0100
0010
0001
0010
0001
0100
0001
1000
0010
,
0100
0001
0100
0001
1000
0100
0010
0001
0011
0000
0001
0010
1000
0010
0100
0000
,
0010
0001
1000
0010
0100
0000
0010
1000
1010
0000
1000
0010
0001
0010
0100
0000
,
0001
0100
1000
0100
0010
1000
0100
0000
1100
0000
1000
0100
0001
0100
0010
0000
,
0001
1000
0010
0100
0001
0000
0100
0001
0101
0000
0001
0100
0010
1000
0100
0000
,
0001
0000
0000
0000
0000
0000
0000
0000
0000
0000
0000
0000
0100
0000
0000
0000
0000
0000
0000
0000
0000
0000
0000
0000
1000
0000
0000
0000
0000
0000
0000
0000
0000
0000
0000
0000
0100
0000
0000
0000
0000
0000
0000
0000
0000
0000
0000
0000
0010
0000
0000
0000
0000
0000
0000
0000
0000
0000
0000
0000
0000
0000
0000
0000
0000
0000
0000
0000
0000
0000
0000
0000
0001
0000
0000
0000
0000
0000
0000
0000
0000
0000
0000
0000
2000
0000
0000
0000
0000
0000
0000
0000
0000
0000
0000
0000
0002
3003
0000
0000
0000
0000
0000
0000
0000
0000
0000
0000
0000
0000
0000
0000
0000
0000
0000
0000
0000
0000
0000
0000
0000
0000
0000
0000
0000
0000
0000
0000
0000
0000
0000
0000
0000
0000
0000
0000
0000
0000
0000
0000
0000
0000
0000
0000
0000
0000
0000
0000
0000
0000
0000
0000
0000
0000
0000
0000
0000
0000
0000
0000
0000
0000
0000
0000
0000
0000
0000
0000
0000
0000
0000
0000
0000
0000
0000
0000
0000
0000
0000
0000
0000
0000
0000
0000
0000
0000
0000
0000
0000
0000
0000
0000
,
1000
0100
0010
0100
0010
0001
0010
0100
,
1000
0000
0100
0000
0010
0000
0100
0000
0010
0000
0001
0000
0010
0000
0100
1000
,
0001
0100
0010
0100
0010
1000
0010
0100
,
0001
0000
0000
0100
0000
0000
0010
0000
0000
0100
0000
0000
0010
0000
0000
1000
0000
0000
0010
0000
0100
0000
0001
0000
,
1000
0001
0010
0001
0010
0100
0010
0001
,
1000
0000
0001
0000
0010
0000
0001
0000
0010
0000
0100
0000
0010
0000
0001
1000
,
0001
0000
1000
0000
0010
0000
1000
0000
0010
1000
0010
0000
1000
0000
0001
0000
,
0100
0001
0100
0002
2000
0000
0000
3003
,
1001
0000
0000
0000
1000
0010
1000
0010
,
0100
0000
0001
0000
1000
0000
0100
0000
0010
0000
0001
0000
0010
0000
0001
1000
,
0010
1000
0010
1000
0001
0100
0010
1000
,
0001
0000
0010
0000
0001
0000
0010
0000
0100
0000
1000
0001
0100
0000
0010
0000
,
1000
0100
1000
0100
0020
0000
0130
0000
,
2000
3001
0200
0301
,
0100
0001
1000
0010
1000
0001
1000
0010
,
0100
0001
1000
0010
0100
0001
0010
0200
,
0000
0000
0000
0000
,
0000
0000
0000
0000
,
0300
0000
0000
0000
,
0000
0000
0000
0000
,
2000
0000
3002
0000
,
0203
0000
0320
0000
,
2030
0000
0000
0000
,
3000
0000
0000
0000
,
1010
0000
0101
0000
0000
0110
0000
0000
,
0011
0000
0000
1100
0000
0002
0103
0000
,
0101
0000
1010
0000
0000
1100
0000
0000
,
0110
0000
0000
0011
0000
2000
3100
0000
,
1000
0100
1000
0100
1000
0010
0001
0010
,
1000
0010
1000
0010
0100
0001
0010
0001
,
0201
1000
0010
0302
,
0010
1000
0203
0310
,
1000
0100
0010
0100
0001
0100
0010
2000
,
0000
0000
0000
0000
,
3001
0000
0000
0000
,
1000
0100
0010
0100
0001
0100
0010
0100
2000
0000
0000
0000
0000
0000
0000
0000
,
3002
0000
0013
0100
2000
0000
3010
0100
0002
0000
0103
0010
2000
0000
3100
0010
,
0002
0000
0103
1000
0200
0000
0301
1000
0002
0000
0013
1000
0020
0000
0031
1000
,
0020
0000
0130
0001
0200
0000
0310
1000
0020
0000
0130
0001
0200
0000
0310
1000
,
0001
0100
0010
0100
1000
0100
0010
0100
0002
0000
0000
0000
0000
0000
0000
0000
,
2003
0000
3010
0100
0002
0000
0013
0100
2000
0000
3100
0010
0002
0000
0103
0010
,
2000
0000
3100
0001
0200
0000
1300
0001
2000
0000
3010
0001
0020
0000
1030
0001
,
0020
0000
0130
1000
0200
0000
0310
0001
0020
0000
0130
1000
0200
0000
0310
0001
,
1000
0100
0010
0100
0001
0100
0010
0100
2000
0000
0000
0000
0000
0000
0000
0000
,
3020
0000
0130
0001
0020
0000
0130
1000
0020
0000
1030
0001
0020
0000
0031
1000
,
0200
0000
1300
0001
0200
0000
0301
1000
0200
0000
0310
0001
0200
0000
0310
1000
,
0002
0000
0013
0100
2000
0000
3100
0010
0002
0000
0103
0010
2000
0000
3010
0100
,
0001
0100
0010
0100
1000
0100
0010
0100
0002
0000
0000
0000
0000
0000
0000
0000
,
2003
0000
3100
0001
0200
0000
1300
0100
0020
0000
0031
1000
0002
0000
0103
1000
,
0200
0000
0301
0100
0020
0000
1030
0001
0200
0000
0310
1000
0002
0000
1003
0100
,
0002
0000
0103
1000
0002
0000
1003
0100
0002
0000
0103
1000
0002
0000
0013
0100
,
1000
0000
0001
0000
1000
0000
0100
0010
0000
0100
1000
0000
0001
0000
0100
0010
,
0000
0100
0001
0000
1000
0000
0010
1000
0000
0001
1000
0000
0001
0000
0010
0001
,
0000
1000
0001
0000
0100
0000
0010
0100
0000
0001
1000
0000
0100
0000
0010
0100
,
0000
1000
0001
0000
0010
0000
0100
1000
0000
0010
0100
0000
0001
0000
1000
0100
,
0000
0010
0001
0000
1000
0000
0001
0010
0000
0100
1000
0000
0001
0000
1000
0100
,
0000
0010
0100
0000
1000
0000
0001
1000
0000
0010
0100
0000
0001
0000
1000
0001
,
0000
1000
0100
0000
0010
0000
0001
0010
0000
0001
1000
0000
0010
0000
1000
0010
,
0000
0100
0001
0000
1000
0000
0010
1000
0000
0100
0010
0000
0001
0000
1000
0100
,
0010
0100
0001
0100
0010
0100
1000
0100
0020
0000
0000
0000
0000
0000
0030
0000
,
0110
0000
0001
0010
0200
0000
1300
0100
0020
0000
0031
1000
0020
0000
0130
0000
,
0110
0000
1000
0010
0200
0000
0310
0100
0002
0000
1003
0010
0200
0000
0310
0000
,
0110
0000
0001
1000
0002
0000
0103
0010
2000
0000
3100
0010
0002
0000
0013
0000
,
0110
0000
2000
3100
0002
0103
2000
3010
,
0002
0013
2000
3100
0002
1003
0002
0103
,
2000
3010
0002
1003
0002
0013
0200
0301
,
0200
1300
0200
0310
2000
3100
0010
0000
,
2002
3003
0000
0000
0000
0000
0000
0000
0000
0000
0000
0000
0000
0000
0000
0000
0000
0000
0000
0000
0000
0000
0000
0000
0000
0000
0000
0000
0000
0000
0000
0000
0000
0000
0000
0000
0000
0000
0000
0000
0000
0000
0000
0000
0000
0000
0000
0000
0000
0000
0000
0000
0000
0000
0000
0000
0000
0000
0000
0000
0000
0000
0000
0000
0000
0000
0000
0000
0000
0000
0000
0000
0000
0000
0000
0000
0000
0000
0000
0000
0000
0000
0000
0000
0000
0000
0000
0000
0000
0000
0000
0000
0000
0000
0000
0000
0000
0000
0000
0000
0000
0000
0000
0000
0000
0000
0000
0000
0000
0000
0000
0000
0000
0000
0000
0000
0000
0000
0000
0000
0000
0000
0000
0000
0000
0000
0000
0000
0000
0000
0000
0000
0000
0000
0000
0000
0000
0000
0000
0000
0000
0000
0000
0000
0000
0000
0000
0000
0000
0000
0000
0000
0000
0000
0000
0000
0000
0000
0000
0000
0000
0000
0000
0000
0000
0000
0000
0000
0000
0000
0000
0000
0000
0000
0000
0000
0000
0000
0000
0000
0000
0000
0000
0000
0000
0000
0000
0000
0000
0000
0000
0000
,
1000
0100
0010
0000
0001
0000
0010
0001
,
0000
0100
0010
0000
1000
0000
0010
1000
,
0000
0100
0010
0000
0001
0000
1000
0001
,
0000
0010
0100
0000
1000
0000
0001
1000
,
0000
0010
0100
0000
0001
0000
0010
0001
,
0000
0100
0010
0000
1000
0000
0100
1000
,
0000
0100
0010
0000
0001
0000
0100
0001
,
0000
0010
0100
0000
1000
0000
0010
1000
,
0001
0000
0010
0000
1000
0000
0010
0001
,
0000
1000
0010
0000
0001
0000
0010
1000
,
0000
0001
0100
0000
1000
0000
0100
0001
,
0000
1000
0100
0000
0001
0000
0100
1000
,
0001
0100
0010
0000
1000
0000
0010
1000
,
0000
0010
0100
0000
0001
0000
1000
0001
,
0000
0010
0001
0000
0100
0000
0010
1000
,
0000
0001
0010
0000
0100
0000
1000
0001
,
1000
0100
0010
0001
0010
0100
0010
0100
,
1000
0100
0010
0001
0010
0100
0010
0100
,
1000
0010
0100
0001
0100
0010
0100
0010
,
1000
0010
0100
0001
1000
0000
0001
0010
,
0100
1000
0100
1000
0001
1000
0100
0010
,
0001
0010
0001
0000
1000
0010
1000
0010
,
0100
0001
1000
0100
0010
0001
1000
0010
,
0100
0001
1000
0000
0010
0000
0110
0000
,
1001
0000
1000
0001
0010
0001
0010
0100
,
1000
0000
0000
0010
0000
0000
1000
0000
0000
0010
0000
0000
0100
0000
0000
0001
0000
0000
1000
0000
0001
0000
1000
0000
,
0001
0010
0001
0010
0100
1000
0001
1000
,
0010
1000
0010
0000
1000
0000
0010
0000
0100
0000
0001
0000
1000
0000
0100
0000
,
0001
0400
4000
0000
3000
0300
1000
0010
,
0001
0040
4000
0000
3000
0030
1000
0400
,
0040
0000
0000
0000
0000
0000
0000
0330
,
1001
0000
0100
0000
0020
0000
0000
0030
,
2002
0000
0000
0000
,
3003
0000
0000
0000
;
