#TITLE:Pumpin' Junkies;
#SUBTITLE:(KTN-Kobaryo Remix);
#ARTIST:Kobaryo;
#TITLETRANSLIT:;
#SUBTITLETRANSLIT:;
#ARTISTTRANSLIT:;
#GENRE:;
#CREDIT:;
#BANNER:pumpinjunkies-bn.png;
#BACKGROUND:pumpinjunkies-bg.jpg;
#LYRICSPATH:;
#CDTITLE:;
#MUSIC:Pumpin Junkies.ogg;
#OFFSET:0.000000;
#SAMPLESTART:79.000000;
#SAMPLELENGTH:12.000000;
#SELECTABLE:YES;
#BPMS:0.000000=130.000000
,18.000000=260.000000
,33.000000=65.000000
,33.250000=130.000000
,33.750000=65.000000
,34.000000=260.000000
,44.000000=215.000000
,45.000000=314.419006
,46.000000=260.000000
,61.000000=130.000000
,62.500000=260.000000
,68.500000=65.000000
,69.000000=130.000000
,70.000000=260.000000
,72.000000=520.000000
,84.000000=260.000000
,86.000000=520.000000
,94.000000=260.000000
,98.000000=520.000000
,110.000000=390.000000
,111.500000=130.000000
,112.000000=520.000000
,120.000000=260.000000
,124.000000=130.000000
,126.000000=65.000000
,127.000000=130.000000
,129.000000=215.000000
,130.000000=314.500000
,131.000000=260.000000
,135.000000=66.000000
,136.000000=260.000000
,144.000000=520.000000
,172.000000=260.000000
,173.000000=130.000000
,173.500000=520.000000
,201.500000=260.000000
,202.500000=130.000000
,251.000000=80.000000
,259.000000=160.000000
,277.000000=320.000000
,281.000000=160.000000
,281.500000=80.000000
,281.750000=160.000000
,282.250000=80.000000
,282.500000=160.000000
,284.500000=320.000000
,288.500000=160.000000
,289.000000=80.000000
,289.250000=160.000000
,289.750000=80.000000
,290.000000=320.000000
,354.500000=240.000000
,356.000000=160.000000
,384.000000=80.000000
,386.000000=160.000000
,388.000000=320.000000
,451.500000=615.000000
,452.000000=160.000000
,456.000000=80.000000
,457.000000=160.000000
,463.000000=320.000000
,473.000000=640.000000
;
#STOPS:44.000000=0.077000,
44.333332=0.077000,
44.666668=0.077000,
45.000000=0.231000,
68.500000=0.462000,
129.000000=0.077000,
129.333328=0.077000,
129.666672=0.077000,
130.000000=0.231000,
290.000000=0.188000,
290.500000=0.188000,
291.000000=0.188000,
291.500000=0.188000,
292.000000=0.094000,
292.500000=0.094000,
323.000000=0.094000,
386.000000=0.750000,
471.000000=0.750000
;
#BGCHANGES:;
#KEYSOUNDS:;
#ATTACKS:;

//---------------dance-single - ----------------
#NOTES:
     dance-single:
     :
     Challenge:
     19:
     0.983176,1.563170,0.511467,0.376078,0.650616,915.000000,847.000000,68.000000,50.000000,0.000000,0.000000,0.983176,1.563170,0.511467,0.376078,0.650616,915.000000,847.000000,68.000000,50.000000,0.000000,0.000000:
0000
0000
0000
0000
0000
0000
0000
0000
0010
0000
0100
1000
0000
0000
0001
1000
,
0010
0000
0100
0001
0000
0000
1000
0001
0010
0000
0100
1000
0000
0000
0000
0000
,
0010
0000
0100
0000
0001
0000
1001
0000
0100
0000
0010
1000
0000
0000
0001
1000
,
0100
0000
0010
0001
0000
0000
1000
0001
0100
0000
0010
1000
0000
0000
0000
0000
,
0100
1000
0100
0010
0200
0000
1300
0010
0100
0000
0010
0000
0100
0000
0010
0000
,
1000
0010
0001
0010
0100
0010
1000
0001
,
0010
0001
1001
0000
1000
0100
1000
0010
,
1000
0010
1000
0100
0010
0001
1000
0100
,
0010
0000
0000
0000
0000
0000
0001
0000
0000
0000
0000
0000
1000
0000
0000
0001
0000
0000
0100
0000
0000
0010
0000
0000
1000
0000
0000
0000
0100
0000
0000
0000
1000
0000
0000
0000
0001
0000
0000
0000
1000
0000
0000
0000
0100
0000
0000
0000
,
1000
0000
0001
0000
0100
0000
0001
0000
1000
0000
0001
0000
0100
0000
0001
0000
1000
0000
0001
0000
0000
0010
0000
0000
,
0110
0010
0001
0100
0101
0100
0001
1000
,
1100
0000
1100
0000
1001
0000
0101
0000
0000
0000
0000
0000
0100
0000
0000
0010
0000
0000
0100
0000
0000
0001
0000
0000
,
0100
1000
0100
0010
1000
0100
0010
0100
,
0001
0000
0100
0000
1000
0001
1000
0000
0100
0000
0010
0000
0100
0000
1000
0000
,
0001
1000
0010
0100
0001
0100
0010
1000
,
0001
0000
0000
0000
0000
0000
0100
0000
0000
0000
0000
0000
0010
0000
0100
0000
0010
0000
1000
0000
0000
0100
0000
0000
1100
0000
0000
0000
0000
0000
1000
0000
0000
0000
0010
0000
0000
0000
1000
0000
0000
0000
0001
0000
0000
0000
1000
0000
,
0000
0010
0000
1000
0000
0001
0000
1000
0000
0100
0000
0010
0000
0001
0000
0010
0000
0000
1000
0000
0000
0010
0000
0000
,
0001
1000
1000
0110
0001
1000
0001
0010
,
0100
1000
0100
0010
,
1000
0010
0001
0010
,
0100
1000
0010
0100
,
2002
3003
2002
3003
0001
0000
0100
0000
,
1000
0100
0010
1000
,
0100
0000
0010
0000
0001
0100
0010
1000
,
0001
0100
0010
1000
0100
0000
0010
0000
,
0100
0010
1000
0001
,
0100
1000
0010
0100
,
0010
0000
0100
0000
0002
0000
0000
1003
,
1000
0001
1000
0001
,
0100
0010
1000
0001
,
0010
0100
1000
0001
,
1000
0000
0000
0000
0000
0000
1000
0000
0010
0000
0000
0000
0100
0000
0000
0000
0002
0000
0000
2003
3200
0000
0320
0000
0130
0000
0000
0000
0000
0000
0100
0000
,
1000
0000
0000
0010
0000
0000
0101
0000
0101
0000
0110
0000
1010
0000
0000
0000
0000
0000
0100
0000
0000
0001
0000
0000
,
0100
0000
0000
0000
0010
0000
0000
0000
1000
0000
0000
0000
0100
0000
0000
0000
0010
0000
0000
0000
0100
0000
0000
0000
2000
0000
3200
0020
0300
0000
0032
0000
,
0013
0100
0010
1000
0010
0001
0010
0100
,
1000
0001
1000
0002
0000
0000
1003
0000
0000
0011
0000
0000
,
1000
0010
0000
0000
1000
0000
0010
0100
,
0000
0000
0001
0000
1000
0100
0000
0000
,
0010
0001
0000
0000
1000
0000
0010
0100
,
0000
0000
1000
0000
0001
0100
0000
0000
,
0001
0100
0000
0000
0001
0000
1000
0010
,
0000
0000
0010
0000
1000
0001
1000
0000
,
0001
0100
0010
0100
,
0001
1000
1001
0100
1000
0000
0000
0100
,
0000
0010
0000
0100
1000
0000
0000
0010
,
0000
0001
0000
0100
0001
0000
0000
0001
,
0000
1000
0000
0001
0010
0000
0000
0100
,
0000
0010
0000
0001
0000
0010
0000
1000
,
0000
0010
0000
0001
0000
0100
0000
0001
,
0000
0010
0000
0100
0000
1000
0000
0010
,
0000
0000
1000
0000
0000
0000
0010
0000
0000
0000
0011
0000
0012
0000
0000
1003
,
0100
0000
0010
0000
0002
0000
0000
0103
0010
0000
1000
0000
0200
0000
0000
0301
,
0100
0000
1000
0000
0020
0000
0000
0031
0010
0000
1000
0000
0002
0000
0000
0103
,
0002
0000
0000
1003
0002
0000
0013
1000
0010
0100
0001
0100
1000
0010
1000
0010
,
0100
0001
0100
0010
1000
0100
0010
0000
0001
0000
0000
0000
0100
0000
0010
1000
,
0010
0000
1000
0000
0100
0000
0010
0001
0010
0000
0001
0000
0100
0000
1000
0000
,
0001
0000
0010
0000
1000
0000
0001
1000
0001
0000
0001
0000
0200
0000
0000
0310
,
0100
0000
0110
0000
0200
0000
0000
0310
0100
0000
0101
0000
0002
0000
0000
1003
,
0001
0000
0011
0000
0020
0000
0000
0130
0010
0000
0110
0000
1000
0000
0100
0010
,
0100
0000
1000
0000
0001
0000
0100
0010
0100
0000
0001
0000
1000
0000
0100
0000
,
0010
0000
1000
0000
0010
0000
0001
1000
0001
0000
0001
0000
0002
0000
0100
0000
,
0010
2003
0100
3010
1000
0100
0020
0000
,
0032
1003
1001
0220
,
0000
0000
0000
0000
0000
0000
0030
0000
0300
0000
0000
0000
0100
0000
0000
0000
0000
0000
0000
0000
0100
0000
0000
0000
0001
0010
0100
0010
0001
0000
0010
0100
,
0001
0000
0000
0000
0000
0000
0100
0000
0000
0000
0000
0000
0010
0000
0000
0000
0000
0000
0000
0000
0000
0000
0000
0000
0001
0000
0000
0000
0000
0000
0010
0000
0000
0000
0000
0000
0100
0000
0000
0000
0000
0000
0000
0000
0000
1000
0000
0000
0000
0000
0000
0000
0000
0000
0000
0000
0000
0000
0000
0000
0001
0000
0000
0000
0000
0000
0000
0000
0000
0000
0000
0100
0000
0000
0000
0000
0000
0000
0001
0000
0000
0000
0000
0000
0000
0000
0000
0000
0000
0000
0000
0000
0010
0000
0000
0000
0000
0000
0000
0000
0000
0000
0000
0001
0000
0000
0000
0000
0000
0000
0000
0000
0000
0000
0100
0000
0000
0000
0000
0000
0000
0000
0000
0000
0000
0000
0000
0000
0000
0000
0000
0000
0000
0000
0000
0000
0000
0000
0000
0000
0000
0000
0000
0000
1010
0000
0000
0000
0000
0000
0000
0000
0000
0000
0000
0000
0000
0000
0000
0000
0000
0000
0000
0000
0000
0000
0000
0000
1000
0000
0000
0000
0000
0000
0000
0000
0000
0000
0000
0000
0000
0000
0000
0000
0000
0000
0000
0000
0000
0000
0000
0000
,
0001
1000
0000
0100
0000
1000
0001
0010
0001
0010
0001
0100
1000
0100
0001
0010
,
0100
1000
0000
0010
0000
0100
0010
0001
0010
0000
1000
0100
0010
1000
0010
0100
,
1000
0001
0000
0100
0000
0001
1000
0001
0100
0010
0100
0001
0010
0100
1000
0001
,
0000
0100
0000
0001
0000
1000
0100
0010
0100
0001
0100
0010
0001
0000
0000
1000
,
0000
1000
1100
0000
0110
0000
0011
0000
,
2002
0000
3003
0000
0101
0000
0010
1100
0000
0010
0100
0000
0001
0000
1000
0000
,
0100
0010
0100
1000
0001
1000
0010
0100
,
0001
0000
0101
0000
1000
1000
0000
0101
1100
0000
1010
0000
0110
0000
0011
0000
,
1010
0010
1000
0000
1000
0000
0100
0000
,
0010
0001
0010
0100
,
1000
0001
0100
0001
,
1000
0100
1000
0001
,
0100
0001
1000
0100
,
1000
0001
1000
0100
,
0010
0100
0010
0001
,
0100
0000
0000
0000
0000
0000
0000
0000
0000
0000
0000
0000
0000
0000
0000
0000
0000
0000
0000
0000
0000
0000
0000
0000
0010
0000
0000
0000
0000
0000
0000
0000
0000
0000
0000
0000
0000
0000
0000
0000
0000
0000
0000
0000
0000
0000
0000
0000
0100
0000
0000
0000
0000
0000
0000
0000
0000
0000
0000
0000
0000
0000
0000
0000
0000
0000
0000
0000
0000
0000
0000
0000
0000
0000
0000
0000
0000
0000
0000
0000
0000
0000
0000
0000
0000
0000
0000
0000
0000
0000
0000
0000
0000
0000
0000
0000
0001
0000
0000
0000
0000
0000
0000
0000
0000
0000
0000
0000
0000
0000
0000
0000
0000
0000
0000
0000
0000
0000
0000
0000
0000
0000
0000
0000
0000
0000
0000
0000
0000
0000
0000
0000
0000
0000
0000
0000
0000
0000
0000
0000
0000
0000
0000
0000
0020
0030
0000
0000
0000
0000
0000
0000
0000
0000
0000
0000
0000
0000
0000
0000
0000
0000
0000
0000
0000
0000
0000
0000
0000
0000
0000
0000
0000
0000
0000
0000
0000
0000
0000
0000
0000
0000
0000
0000
0000
0000
0000
0000
0000
0000
0000
0000
,
0000
1000
0000
1100
0000
0001
0000
0101
,
0000
1000
0000
1100
0000
0001
0000
0011
,
0000
0100
0000
0110
0000
0001
0000
0011
,
0000
0100
0000
1100
0000
1000
0001
0000
,
0000
0010
0001
0100
0010
1000
0100
0010
,
0001
0100
0010
1000
0100
0010
0001
0010
,
1000
0010
0001
0010
0100
1000
0000
0010
,
0001
0010
0100
1000
0000
1001
0000
0000
,
0100
0000
0000
0000
0100
0000
0000
0000
0010
0001
1000
0010
1000
0000
0000
0010
,
1000
0100
0010
0100
1000
0010
0100
0010
0001
0010
0100
0010
1000
0000
0001
0000
,
0011
0000
0001
0000
0100
0001
0000
1000
0000
0100
0010
0100
1000
0000
0000
0010
,
0001
0100
0010
1000
0001
0010
0100
0010
0001
1000
0100
0010
0002
0000
0103
0000
,
2020
3030
0000
0000
0000
0000
0000
0000
2002
3003
0000
0000
0000
0000
0000
0000
,
0220
0000
0000
0330
0022
0000
0000
0033
0202
0000
0000
0303
2000
0000
0000
3000
,
2001
0000
0001
0000
3100
0000
0000
1000
0100
0010
0001
0100
0010
0000
1000
0000
,
0100
1000
0100
1000
0010
0100
0010
0100
0001
0010
0001
0010
0001
0000
0110
0000
1001
0000
0000
0000
1000
0000
0000
0000
1000
0000
0001
0000
1000
0000
0000
0000
,
1010
0000
0001
0000
0010
1000
0000
0001
,
0000
1000
0001
0010
0100
0000
1000
0100
,
0010
0001
0010
1000
0001
0100
1000
0010
,
1000
0001
0100
0001
1000
0000
1100
0000
,
0011
0000
1000
0000
0010
0001
0000
1000
,
0000
0001
0010
0100
1000
0000
0010
0100
,
0001
0010
0100
1000
0001
0100
0010
1000
,
0100
0001
0100
1000
0001
0000
1001
0000
,
0010
0100
0001
0100
0010
1000
0100
0010
,
0100
1000
0001
1000
0001
0010
0100
1000
,
0010
0100
0010
1000
0100
0001
0100
1000
,
0010
0001
0010
1000
0001
0000
0010
0000
,
0110
1000
0100
1000
0100
0010
0100
1000
,
0001
0010
0100
0010
0001
0000
1000
0000
,
0100
1000
0010
1000
0100
1000
0010
0100
,
0001
0010
0001
0100
0001
1000
0001
0000
,
1001
0000
0001
0000
0010
0001
0000
0100
0000
0001
0100
0010
0100
0000
0001
0010
,
0100
1000
0001
1000
0100
1000
0001
1000
0010
0000
0100
0000
0001
0000
0100
0000
0010
0000
0000
0000
1000
0000
0000
0000
0100
0000
0000
0000
0001
0000
0000
0000
,
0100
0000
0010
0000
1000
0010
0001
0100
1000
0000
0100
0000
1001
0000
0100
0000
,
0010
0001
1001
0100
0010
1000
1001
0010
,
0100
0010
0100
0000
0110
0000
0000
0000
,
0000
2002
0000
0000
,
0000
0000
0000
0000
,
0000
0000
0000
0000
,
0000
0000
0000
0000
,
0000
3003
0000
0000
;

//---------------dance-single - ----------------
#NOTES:
     dance-single:
     :
     Easy:
     14:
     0.525435,0.866391,0.338471,0.315906,0.090259,489.000000,444.000000,45.000000,42.000000,0.000000,0.000000,0.525435,0.866391,0.338471,0.315906,0.090259,489.000000,444.000000,45.000000,42.000000,0.000000,0.000000:
0000
0000
0000
0000
0000
0000
0000
0000
1000
0000
0000
0100
0000
0000
0000
0000
,
0001
0000
0000
0100
0000
0000
0000
0000
1000
0000
0000
0100
0000
0000
0000
0000
,
0010
0000
0001
0000
0100
0000
0000
0000
0010
0000
0000
1000
0000
0000
0000
0000
,
0010
0000
0000
0001
0000
0000
0000
0000
0010
0000
0000
1000
0000
0000
0000
0000
,
1000
0100
0110
0010
0001
0000
0001
0000
,
0100
0010
0100
0010
1000
0000
0001
0000
,
1000
0000
0110
0000
1000
0010
1000
0000
,
0001
0010
0001
0000
2000
0000
3200
0000
,
0320
0000
0000
0000
0031
0001
0000
1000
0010
0000
0100
0000
0010
0000
0100
0000
,
0001
0100
0001
0100
0010
1000
0010
0000
,
1010
0100
0101
0010
,
0100
0010
1000
0010
0000
0000
1001
0000
0000
1000
0000
0000
,
0100
0010
0100
0000
1000
0001
1000
0000
,
0100
0010
0100
0000
1000
0000
0001
0000
,
0100
1000
0100
0001
,
1000
0001
1000
0010
0110
1000
0001
1000
,
0001
1000
0001
0010
0001
1000
0001
1000
,
0000
2200
0000
0000
0000
0000
3300
0000
,
1000
0000
1000
0000
,
0100
0000
0010
0000
,
0001
0000
0001
0000
,
1001
1001
0100
0000
,
0100
0000
0010
0000
,
1000
0000
2001
0001
,
0001
3001
0001
0000
,
1000
0000
0010
0000
,
1000
0000
0001
0000
,
0100
0000
0000
0000
0010
0000
0000
1010
,
1000
0000
0010
0000
,
0001
0000
0010
0000
,
1000
0100
0001
0100
,
2000
0000
3001
0000
0200
0310
2000
0000
,
3001
0000
0000
0100
0010
0100
0001
0000
0000
0010
0000
0000
,
0010
0000
0100
0000
0010
0000
2002
3003
,
1000
1000
0100
0010
,
2200
0000
0000
3300
,
1001
0000
0000
1001
,
0000
0000
0101
0000
,
0110
0000
0000
0110
,
0000
0000
1010
0000
,
1001
0000
0000
1001
,
0000
0000
1100
0000
,
1000
0000
0100
0000
,
1000
0000
0100
1000
0000
0000
0000
0001
,
0000
1000
0000
0001
0000
0000
0000
1000
,
0000
0001
0000
1000
0000
0000
0000
0010
,
0000
1000
0000
0010
0000
0000
0000
1000
,
0000
0010
0000
1000
0000
0000
0000
0100
,
0000
0000
0000
0010
0000
0000
0000
0001
,
0000
0000
0000
0010
0000
0000
0000
0100
,
0000
0000
0000
2000
0000
3000
2000
0000
,
3000
0002
0003
0200
,
0300
0020
0030
2000
,
3000
0002
0003
0001
,
0010
0001
1001
0010
,
0100
0010
0100
0000
0000
0000
0001
0010
,
0100
1000
0001
0000
0000
0000
0102
0000
,
0000
2003
0000
3200
,
0000
2300
0000
3010
,
0100
0010
0100
0000
0000
0000
0001
0100
,
0010
1000
0001
0000
0000
0000
1000
0100
,
0010
0000
0100
0010
0001
0000
2000
0000
,
3200
0320
0130
2002
,
0000
0000
0000
0000
,
0000
0000
0000
0000
3003
0000
1000
0001
,
0100
0000
0000
0101
0000
0000
0001
0000
1000
0000
0000
0000
0100
0000
1000
0000
,
0001
0000
0000
1001
0000
0000
0001
0000
1000
0000
0000
0000
0010
0000
1000
0000
,
0100
0000
0000
1100
0000
0000
0100
0000
1000
0000
0001
0000
0010
0000
0100
0000
,
1000
0000
0100
0000
0010
0000
0001
0000
1000
0000
0001
0000
1000
0000
0000
0100
,
0000
0110
0010
0100
,
2000
0000
0000
0000
3001
0000
0010
0100
0000
1000
0010
0000
0100
0000
0001
0000
,
1000
0001
0010
0001
0010
0001
0010
0001
,
0010
0000
0200
0000
0000
0300
0000
0100
1000
0000
0001
0000
1001
0000
0110
0000
,
2002
3003
1000
0000
0100
0000
1000
0000
,
0000
0001
0010
0001
,
0000
1000
0010
1000
,
0010
0100
0010
1000
,
0010
1000
0000
0001
,
0100
0001
0000
1000
,
0100
0010
0000
0100
,
1000
0000
0000
0000
0000
0000
0000
0000
0000
0000
0000
0000
0000
0000
0000
0000
0000
0000
0000
0000
0000
0000
0000
0000
0000
0000
0000
0000
0000
0000
0000
0000
0000
0000
0000
0000
0000
0000
0000
0000
0000
0000
0000
0000
0000
0000
0000
0000
0001
0000
0000
0000
0000
0000
0000
0000
0000
0000
0000
0000
0000
0000
0000
0000
0000
0000
0000
0000
0000
0000
0000
0000
0000
0000
0000
0000
0000
0000
0000
0000
0000
0000
0000
0000
0000
0000
0000
0000
0000
0000
0000
0000
0000
0000
0000
0000
1000
0000
0000
0000
0000
0000
0000
0000
0000
0000
0000
0000
0000
0000
0000
0000
0000
0000
0000
0000
0000
0000
0000
0000
0000
0000
0000
0000
0000
0000
0000
0000
0000
0000
0000
0000
0000
0000
0000
0000
0000
0000
0000
0000
0000
0000
0000
0000
0200
0300
0000
0000
0000
0000
0000
0000
0000
0000
0000
0000
0000
0000
0000
0000
0000
0000
0000
0000
0000
0000
0000
0000
0000
0000
0000
0000
0000
0000
0000
0000
0000
0000
0000
0000
0000
0000
0000
0000
0000
0000
0000
0000
0000
0000
0000
0000
,
0000
0100
0000
0010
0000
0100
0000
0010
,
0000
0100
0000
1000
0000
0100
0000
1000
,
0000
0100
0000
0010
0000
0100
0000
0010
,
0000
0001
0000
1000
0000
0001
0000
1000
,
0000
0001
0000
0010
0000
0100
0000
1000
,
0000
0001
0000
0010
0000
0100
0000
1000
,
0000
0002
0000
0000
0000
0003
0000
2000
,
0000
0000
0000
3000
0000
0110
0000
0000
,
1001
0000
0100
0000
,
0001
0010
0001
0100
0010
0100
0010
0000
,
1000
0000
0001
0000
,
1000
0100
0001
0100
1000
0001
1000
0000
,
1001
0000
1100
0000
,
0101
1100
1010
0000
,
0101
0000
0110
0000
,
0001
0100
0010
1000
0010
0100
0001
0000
0001
0000
0000
0000
0000
0000
0000
0000
,
1000
0010
1000
0010
,
0100
0010
0100
0000
,
0001
0010
0100
1000
,
0100
0010
0001
0000
,
0001
0010
0001
0010
,
0100
0010
0100
0000
,
1000
0010
0100
0001
,
0010
0100
2000
0000
,
3001
0100
0010
0100
,
0001
0010
0001
0000
,
1000
0100
1000
0010
,
1000
0100
1000
0000
,
1001
1000
0001
0010
,
0001
1000
0100
0010
,
0001
0001
1000
1000
,
0010
1000
0002
0000
,
0103
0000
1000
0000
,
0001
0010
0100
0010
0001
0000
0100
0000
0010
0000
0100
0000
0001
0000
1000
0000
,
0100
1000
0010
0100
0001
1000
0020
0000
,
0000
0230
0000
0310
,
0000
0110
0000
1001
,
0000
2002
0000
0000
,
0000
0000
0000
0000
,
0000
0000
0000
0000
,
0000
3003
0000
0000
;

//---------------dance-single - ----------------
#NOTES:
     dance-single:
     :
     Medium:
     17:
     0.731741,1.103414,0.330949,0.330949,0.188039,681.000000,637.000000,44.000000,44.000000,0.000000,0.000000,0.731741,1.103414,0.330949,0.330949,0.188039,681.000000,637.000000,44.000000,44.000000,0.000000,0.000000:
// measure 0
0000
0000
0000
0000
0000
0000
0000
0000
0001
0000
1000
0100
0000
0000
0000
0000
,  // measure 1
1000
0000
0001
0100
0000
0000
0000
0000
0001
0000
1000
0100
0000
0000
0000
0000
,  // measure 2
1000
0000
0010
0000
0100
0000
0011
0000
0010
0000
0100
1000
0000
0000
0000
0000
,  // measure 3
0010
0000
0100
0001
0000
0000
0000
0000
0010
0000
0100
1000
0000
0000
0000
0000
,  // measure 4
0001
0100
0001
0100
0020
0000
1030
0010
0100
0000
0010
0000
0100
0000
0010
0000
,  // measure 5
1000
0010
1000
0010
1000
0001
1000
0001
,  // measure 6
0010
0001
2000
3000
1000
0001
1000
0001
,  // measure 7
0100
0001
0100
0010
1000
0001
0100
0010
,  // measure 8
1000
0000
0001
0000
0100
0001
0000
1000
0100
0000
0010
0000
0100
0000
1000
0000
,  // measure 9
0010
0100
0010
1000
0100
0010
0100
0000
,  // measure 10
0011
0110
1100
1000
,  // measure 11
0010
0000
0100
0000
0001
0000
0010
0000
0000
0000
0000
0000
0100
0000
0000
1000
0000
0000
0001
0000
0000
1000
0000
0000
,  // measure 12
0100
1000
0001
0100
0001
1000
0001
0100
,  // measure 13
0001
0010
0100
0000
1000
0100
1000
0100
,  // measure 14
1000
0001
1000
0001
1000
0100
0010
0001
,  // measure 15
1000
0000
0100
0000
0020
0030
0002
0000
0003
0000
1000
0000
0100
0000
1000
0000
,  // measure 16
0100
1000
0100
0010
0001
0100
0001
0100
,  // measure 17
0001
1000
1000
1000
0001
0000
0001
0000
,  // measure 18
0010
0001
0010
0001
,  // measure 19
0010
0100
0010
0100
,  // measure 20
1000
0100
1000
0001
,  // measure 21
0200
0300
0200
0300
0010
0000
1000
0000
,  // measure 22
0010
1000
0001
0010
,  // measure 23
0100
0000
1000
0000
0001
1000
0001
1000
,  // measure 24
0010
0100
0010
0100
0001
0000
1000
0000
,  // measure 25
0001
1000
0010
0100
,  // measure 26
0001
0100
0010
0100
,  // measure 27
0010
0000
0100
0000
0002
0000
0000
1003
,  // measure 28
1000
0001
1000
0001
,  // measure 29
0010
0100
0010
0000
,  // measure 30
0001
0010
0100
1000
,  // measure 31
0001
0000
0000
0000
0000
0000
0100
0000
0010
0000
0000
0000
0010
0000
0000
0000
1000
0000
0000
0100
0010
0000
0001
0000
0001
0000
0000
0000
0000
0000
0100
0000
,  // measure 32
0010
0000
0000
0010
0000
0000
1000
0000
0100
0000
0010
0000
0001
0000
0000
0000
0000
0000
1000
0000
0000
0010
0000
0000
,  // measure 33
1000
0000
0000
0000
0001
0000
0000
0000
1000
0000
0000
0000
0001
0000
0000
0000
1000
0000
0000
0000
0010
0000
0000
0000
1000
0000
0100
0010
0000
0000
0001
0000
,  // measure 34
1000
0100
1000
0001
0100
0001
0010
0100
,  // measure 35
0020
0001
0032
0013
,  // measure 36
1100
0000
0100
1000
,  // measure 37
0000
0100
1000
0000
,  // measure 38
0101
0000
0100
0001
,  // measure 39
0000
0100
0001
0010
,  // measure 40
0011
0000
0010
0001
,  // measure 41
0000
0010
0001
0000
,  // measure 42
1010
0010
1000
0010
,  // measure 43
1000
0000
1001
1000
0000
0100
0000
0010
,  // measure 44
0000
0001
0000
1000
0000
0100
0000
0010
,  // measure 45
0000
0001
0000
1000
0000
0010
0000
0100
,  // measure 46
0000
0001
0000
1000
0000
0010
0000
0100
,  // measure 47
0000
0001
0000
0100
0000
0010
0000
0100
,  // measure 48
0000
0001
0000
1000
0000
0001
0000
0010
,  // measure 49
0000
0100
0000
1000
0000
0100
0000
0010
,  // measure 50
0000
0001
0000
0010
0000
0100
2000
0000
,  // measure 51
3100
0010
0200
0000
0310
0001
2000
0000
,  // measure 52
3010
0100
0020
0000
1030
0001
0002
0000
,  // measure 53
0023
0000
0032
0000
1003
1000
0010
0100
,  // measure 54
0001
1000
0010
0100
0001
0000
1000
0000
,  // measure 55
1000
0010
0100
0000
0110
0100
0001
0010
,  // measure 56
0100
0000
0010
0000
0001
0000
0000
0000
0001
0000
0001
0000
2000
0000
0000
3000
,  // measure 57
1000
0000
0010
0000
0200
0000
0000
0300
0100
0000
0010
0000
2000
0000
0000
0000
,  // measure 58
3100
0000
0010
0000
0200
0000
0000
0300
0100
0000
1000
0000
0010
0000
0000
0000
,  // measure 59
0010
0100
0001
0000
0000
0100
0001
0100
,  // measure 60
1000
0100
0001
0000
0000
0000
0200
0001
,  // measure 61
0010
1000
0010
0301
0100
0001
0010
0000
,  // measure 62
0100
2000
3000
2002
,  // measure 63
0000
0000
0000
0000
,  // measure 64
0000
0000
0000
0000
0000
3003
1001
0010
,  // measure 65
0100
1000
0000
0101
0000
0000
1000
0100
0010
0000
0100
1000
0001
0000
0100
0000
,  // measure 66
0001
0010
0000
1100
0000
0000
0010
0001
0100
0000
0001
0010
0100
0000
0010
0000
,  // measure 67
0100
1000
0000
1010
0000
0000
0100
0000
0001
0000
0100
0010
1000
0000
0001
0000
,  // measure 68
1000
0001
0000
0011
0000
0000
0100
1000
0100
0000
0100
0010
0001
0000
0000
1000
,  // measure 69
0000
1001
1001
1001
,  // measure 70
0010
0000
0000
0000
0110
0000
0100
0010
0000
0100
0010
0000
0100
0000
0001
0000
,  // measure 71
0001
1000
0010
1000
0001
0010
0001
0100
,  // measure 72
0010
0000
0100
0000
0000
0000
0000
0001
0011
0000
0011
0000
1100
0000
1100
0000
,  // measure 73
0101
1000
0100
0000
0010
0000
0100
0000
,  // measure 74
1000
0001
0010
0100
,  // measure 75
1000
0010
0100
0001
,  // measure 76
1000
0001
1000
0100
,  // measure 77
1000
0001
1000
0100
,  // measure 78
0010
0001
0010
0001
,  // measure 79
0010
0001
0010
0001
,  // measure 80
1000
0000
0000
0000
0000
0000
0000
0000
0000
0000
0000
0000
0000
0000
0000
0000
0000
0000
0000
0000
0000
0000
0000
0000
0000
0000
0000
0000
0000
0000
0000
0000
0000
0000
0000
0000
0000
0000
0000
0000
0000
0000
0000
0000
0000
0000
0000
0000
0001
0000
0000
0000
0000
0000
0000
0000
0000
0000
0000
0000
0000
0000
0000
0000
0000
0000
0000
0000
0000
0000
0000
0000
0000
0000
0000
0000
0000
0000
0000
0000
0000
0000
0000
0000
0000
0000
0000
0000
0000
0000
0000
0000
0000
0000
0000
0000
0010
0000
0000
0000
0000
0000
0000
0000
0000
0000
0000
0000
0000
0000
0000
0000
0000
0000
0000
0000
0000
0000
0000
0000
0000
0000
0000
0000
0000
0000
0000
0000
0000
0000
0000
0000
0000
0000
0000
0000
0000
0000
0000
0000
0000
0000
0000
0000
0200
0300
0000
0000
0000
0000
0000
0000
0000
0000
0000
0000
0000
0000
0000
0000
0000
0000
0000
0000
0000
0000
0000
0000
0000
0000
0000
0000
0000
0000
0000
0000
0000
0000
0000
0000
0000
0000
0000
0000
0000
0000
0000
0000
0000
0000
0000
0000
,  // measure 81
0000
1000
0000
0010
0000
0100
0000
0001
,  // measure 82
0000
1000
0000
0010
0000
0100
0000
0001
,  // measure 83
0000
0100
0000
0010
0000
1000
0000
0100
,  // measure 84
0000
0010
0000
0001
0000
0010
0000
0100
,  // measure 85
0000
0010
0000
0100
0000
1000
0000
0001
,  // measure 86
0000
0010
0000
0100
0000
1000
0000
0010
,  // measure 87
0000
1000
0001
1000
0001
1000
0000
0010
,  // measure 88
0100
0010
0100
0010
0000
0120
0000
0000
,  // measure 89
1030
0000
0000
0000
1000
0000
0000
0000
0010
0100
0010
0100
0010
0000
0000
0000
,  // measure 90
1000
1000
0010
0010
0100
0001
0100
0000
,  // measure 91
0001
0010
0001
0000
1000
0100
1000
0000
,  // measure 92
0010
0001
0010
1000
0010
2000
0002
3003
,  // measure 93
1001
0000
1010
0000
,  // measure 94
0202
0303
2002
3003
2200
3300
0020
0030
,  // measure 95
0101
0000
1100
0000
,  // measure 96
1000
1000
0001
0001
0100
0100
0010
0000
1001
0000
0000
0000
0000
0000
0000
0000
,  // measure 97
0001
0000
0010
0000
0100
0010
0000
0001
,  // measure 98
0000
1000
0001
0000
1000
0000
0000
0000
,  // measure 99
1000
0010
1000
0000
0001
0100
0001
0000
,  // measure 100
1000
0100
1000
0000
0010
0000
0100
0000
,  // measure 101
1001
0000
0001
0000
0100
0010
0000
0100
,  // measure 102
0000
0001
0010
0100
1000
0000
0000
0000
,  // measure 103
0100
0100
0010
0010
,  // measure 104
0001
0001
0002
1003
,  // measure 105
1001
0000
0010
0000
0100
0001
0000
0010
,  // measure 106
0000
0001
1000
0001
1000
0000
0000
0000
,  // measure 107
1000
0010
1000
0010
1000
0001
1000
0001
,  // measure 108
1000
0001
0010
0100
1000
0000
0100
0000
,  // measure 109
0011
1000
0010
1000
,  // measure 110
0001
1000
0100
0010
0001
0000
1000
0000
,  // measure 111
0010
0100
0001
0100
0010
0100
1000
0100
,  // measure 112
0010
0100
0001
0100
0010
0000
0000
0000
,  // measure 113
1010
1000
0001
0000
0001
1000
0010
1000
,  // measure 114
0100
0100
1000
1000
0010
0000
0010
0000
0100
0000
0001
0000
1001
0000
1000
0000
,  // measure 115
0100
0000
1000
0000
0001
0010
0001
0010
0001
0000
0100
0000
2002
0000
0000
0000
,  // measure 116
3003
0220
0330
2002
,  // measure 117
0000
3003
1001
0000
0000
0000
0010
0000
,  // measure 118
0000
0202
0000
0000
,  // measure 119
0000
0000
0000
0000
,  // measure 120
0000
0000
0000
0000
,  // measure 121
0000
0000
0000
0000
,  // measure 122
0000
0303
0000
0000
;

//---------------dance-single - ----------------
#NOTES:
     dance-single:
     :
     Hard:
     18:
     0.828447,1.241341,0.315906,0.180518,0.376078,771.000000,729.000000,42.000000,24.000000,0.000000,0.000000,0.828447,1.241341,0.315906,0.180518,0.376078,771.000000,729.000000,42.000000,24.000000,0.000000,0.000000:
0000
0000
0000
0000
0000
0000
0000
0000
0010
0000
0001
0100
0000
0000
0100
0000
,
0010
0000
1000
0100
0000
0000
0100
0000
0010
0000
0001
0100
0000
0000
0010
0000
,
1000
0000
1000
0000
0001
0000
0011
0000
0100
0000
1000
0010
0000
0000
0010
0000
,
0100
0000
0001
0010
0000
0000
0010
0000
0100
0000
1000
0001
0000
0000
0000
0000
,
1000
0100
1000
0100
0020
0000
0031
0010
0001
0000
0100
0000
0001
0000
0100
0000
,
0010
1000
0010
0100
0001
0100
0001
0010
,
0001
0100
0010
0000
1000
0100
1000
0100
,
0010
0100
1000
0100
0010
0001
1000
0100
,
0010
0000
0001
0000
1000
0001
0100
0001
1000
0000
0100
0000
0001
0000
0100
0000
,
1000
0010
0001
0010
1000
0100
0010
0001
,
0011
1010
0101
1100
,
1000
0000
1000
0000
0001
0000
0010
0000
0000
0000
0000
0000
0100
0000
0000
0010
0000
0000
0100
0000
0000
1000
0000
0000
,
0100
0010
0100
0001
0100
0010
0100
1000
,
0100
0000
0010
0000
0001
0010
0001
0000
0010
0000
0001
0000
1000
0000
0001
0000
,
0100
0001
1000
0010
1000
0100
0010
0001
,
1000
0000
0100
0000
0020
0030
0010
0100
1001
0000
0100
0000
0001
0000
0010
0000
,
1000
0001
0100
2000
3100
0010
0001
0100
,
0010
1000
0001
1000
0010
0100
0010
0100
,
0001
0010
0001
0010
,
0001
0100
0010
1000
,
0010
1000
0010
1000
,
0001
0110
1000
0010
,
1000
0010
0100
0001
,
0010
0000
0100
0000
1000
0100
0010
0001
,
1000
0100
0010
0001
0010
0000
0100
0000
,
0010
0100
1000
0100
,
0010
0100
0001
0100
,
0010
0000
0100
0000
1000
0000
0000
1001
,
0001
0100
0001
0100
,
0010
0100
0010
0000
,
1000
0001
1000
0001
,
1001
0000
0000
0000
0000
0000
1000
0000
0100
0000
0000
0000
0100
0000
0000
0000
0020
0000
0000
0130
0010
0000
0001
0000
1001
0000
0000
0000
0000
0000
0001
0000
,
0100
0000
0000
0100
0000
0000
0010
0000
1000
0000
0010
0000
1010
0000
0000
0000
0000
0000
0101
0000
0000
0001
0000
0000
,
0100
0000
0000
0000
0001
0000
0000
0000
0010
0000
0000
0000
0100
0000
0000
0000
0010
0000
0000
0000
0001
0000
0000
0000
2000
0000
3010
0100
0000
0000
0010
0000
,
1000
0100
1000
0100
0001
0100
1000
0001
,
2000
0010
3100
1100
,
1000
0010
0100
0001
,
0010
0100
1000
0001
,
1000
0010
0100
0001
,
0010
0100
1000
0001
,
1000
0010
0100
0001
,
0010
0100
1000
0001
,
1000
0100
1000
0001
,
1000
0000
1001
1000
0000
0100
0000
0010
,
0000
0100
0000
1000
0000
0100
0000
0001
,
0000
0100
0000
1000
0000
0100
0000
0010
,
0000
0001
0000
0010
0000
0001
0000
0100
,
0000
0001
0000
0100
0000
0010
0000
1000
,
0000
0001
0000
0010
0000
0001
0000
0100
,
0000
0010
0000
1000
0000
0100
0000
0010
,
0000
0000
0001
0000
0000
0000
1000
0000
0000
0000
1000
0000
2000
0000
0000
3001
,
0100
0000
1000
0000
0200
0000
0000
0310
1000
0000
0001
0000
0020
0000
0000
0031
,
1000
0000
0010
0000
0200
0000
0000
0301
1000
0000
0001
0000
0200
0000
0000
0310
,
0200
0000
0000
0301
0200
0000
0000
0310
1000
0010
0100
0001
0100
0001
0000
1000
,
0000
0001
0000
0010
0000
0100
1000
0000
1001
0000
0000
0000
0100
0000
0001
0000
,
0010
1000
0010
0000
0000
0001
0100
1000
,
0100
0000
0001
0000
0010
0000
0000
0000
0010
0000
0100
0000
2000
0000
0000
3100
,
0010
0000
0001
0000
0002
0000
0000
0103
0010
0000
1000
0000
0200
0000
0000
1300
,
0010
0000
0100
0000
0002
0000
0000
0103
0001
0000
0010
0000
0100
0000
1000
0000
,
0010
0001
0010
0000
0000
1000
0100
0001
,
0100
1000
0001
0000
0000
0000
1000
0010
,
0010
1000
0100
0100
1000
0010
2000
0000
,
3002
0013
0011
2002
,
0000
0000
0000
0000
,
0000
0000
0000
0000
3003
0000
0001
1000
,
0100
1000
0000
0001
0000
1000
0100
1000
0010
0000
0100
0001
1000
0000
0001
0000
,
1000
0001
0000
0100
0000
0001
1000
0100
1000
0000
0010
0100
0001
0000
0010
0000
,
0001
0100
0000
0010
0000
0100
0001
0010
0100
1000
0100
1000
0100
0000
1000
0001
,
0000
0100
0000
0110
0000
0010
1000
0100
0010
0001
1000
0100
0010
0000
0000
0100
,
0000
1001
0110
1001
,
0001
0000
0000
0000
1000
0000
0010
0001
0000
0010
1000
0000
0100
0000
0001
0000
,
0100
1000
0001
0010
0001
1000
0010
1000
,
0001
0000
1000
0000
0010
0100
0000
0001
0101
0000
0110
0000
1010
0000
0110
0000
,
0101
0100
0100
0000
0001
0000
1000
0000
,
0001
0010
0001
1000
,
0010
0100
0001
0100
,
0010
1000
0100
0010
,
0100
1000
0001
1000
,
0100
1000
0001
0010
,
0001
0010
0001
1000
,
0010
0000
0000
0000
0000
0000
0000
0000
0000
0000
0000
0000
0000
0000
0000
0000
0000
0000
0000
0000
0000
0000
0000
0000
0000
0000
0000
0000
0000
0000
0000
0000
0000
0000
0000
0000
0000
0000
0000
0000
0000
0000
0000
0000
0000
0000
0000
0000
1000
0000
0000
0000
0000
0000
0000
0000
0000
0000
0000
0000
0000
0000
0000
0000
0000
0000
0000
0000
0000
0000
0000
0000
0000
0000
0000
0000
0000
0000
0000
0000
0000
0000
0000
0000
0000
0000
0000
0000
0000
0000
0000
0000
0000
0000
0000
0000
0001
0000
0000
0000
0000
0000
0000
0000
0000
0000
0000
0000
0000
0000
0000
0000
0000
0000
0000
0000
0000
0000
0000
0000
0000
0000
0000
0000
0000
0000
0000
0000
0000
0000
0000
0000
0000
0000
0000
0000
0000
0000
0000
0000
0000
0000
0000
0000
0020
0030
0000
0000
0000
0000
0000
0000
0000
0000
0000
0000
0000
0000
0000
0000
0000
0000
0000
0000
0000
0000
0000
0000
0000
0000
0000
0000
0000
0000
0000
0000
0000
0000
0000
0000
0000
0000
0000
0000
0000
0000
0000
0000
0000
0000
0000
0000
,
0000
0010
0000
0001
1000
0000
0000
0001
,
0000
0010
0000
0100
0000
1000
0000
0100
,
0000
1000
0000
1000
0001
0000
0000
1000
,
0000
0010
0000
0100
0000
0001
0000
0000
,
0000
1000
0010
0100
0000
0010
1000
0001
,
0000
1000
0010
0100
0000
0001
0100
0010
,
0000
0100
0001
0010
0100
1000
0000
0100
,
1000
0010
0100
0001
0000
1000
0000
0000
,
0100
0000
0000
0000
0100
0000
0000
0000
1000
0001
1000
0001
0100
0000
0000
0000
,
0010
1000
0010
1000
0001
0000
0000
0000
0010
0100
0010
0100
1000
0000
0000
0000
,
0001
0000
0100
0000
0010
0000
0000
0000
1000
0100
0010
0001
1000
0000
0000
0000
,
0001
0010
0100
0010
0100
0000
1000
0000
0010
0100
0010
0100
0001
0000
0000
0000
,
1001
0000
1100
0000
,
1001
0101
0011
0100
,
1010
0000
0101
0000
,
1000
0100
1000
0100
1000
0000
0010
0000
0100
0001
0100
0001
0100
0000
0010
0000
1000
0000
0000
0000
1000
0000
0000
0000
0001
0000
0000
0000
1001
0000
0000
0000
,
0010
0000
1000
0000
0100
1000
0000
0010
,
0000
1000
0100
0010
0100
0000
0000
1000
,
0010
0100
0010
0100
0001
0000
0001
0000
,
0010
0100
0010
0100
1000
0000
1000
0000
,
1001
0000
0100
0000
0001
0100
0000
0001
,
0000
0010
0100
0010
0001
0000
0000
1000
,
0001
0010
0100
0010
0001
1000
0001
1000
,
0010
0100
0001
0100
0010
0000
1000
0000
,
1001
0000
1000
0000
0100
1000
0000
0001
,
0000
1000
0100
0010
0001
0000
0000
1000
,
0100
0010
0100
1000
0001
0100
0001
1000
,
0100
1000
0001
1000
0100
0000
0010
0000
,
0110
0010
0001
0010
,
1000
0010
0001
0010
0100
0000
1000
0000
,
0001
0010
0100
1000
0010
0100
0001
0100
,
0010
1000
0100
0010
0001
0000
0000
0000
,
1001
0000
1000
0000
1000
0000
0000
0000
0001
0010
0001
0010
0001
0000
0000
0000
,
1000
0100
1000
0100
1000
0000
0010
0000
0100
0000
0001
0000
0100
0000
0001
0000
0100
0000
0000
0000
0010
0000
0000
0000
1001
0000
0000
0000
0001
0000
0000
0000
,
0100
0000
0001
0000
1000
0100
0010
0001
0010
0000
0100
0000
1000
0000
0001
0000
,
0100
0001
1000
0010
1000
0100
1000
0001
,
0010
0001
0100
0000
0110
0000
1001
0000
,
0000
2002
0000
0000
,
0000
0000
0000
0000
,
0000
0000
0000
0000
,
0000
0000
0000
0000
,
0000
3003
0000
0000
;

//---------------dance-single - ----------------
#NOTES:
     dance-single:
     :
     Beginner:
     8:
     0.254659,0.551707,0.210604,0.180518,0.007522,237.000000,209.000000,28.000000,24.000000,0.000000,0.000000,0.254659,0.551707,0.210604,0.180518,0.007522,237.000000,209.000000,28.000000,24.000000,0.000000,0.000000:
0000
0000
0001
0000
,
1000
0000
0001
0000
,
1000
1000
1000
0000
,
0010
0000
0100
0000
,
0010
0000
1001
0000
,
0100
0000
0001
0000
,
0010
0000
0001
0000
,
0100
0000
0010
0000
,
1000
0000
0000
0000
0000
1000
0000
0000
1000
0000
0000
0000
0000
0000
0000
0000
,
0010
0010
0010
0000
,
0110
0000
0110
0000
,
0220
0330
0000
0000
,
0100
0000
0001
0001
,
0001
0000
1000
0000
,
0010
0000
0100
0100
,
0100
0000
0000
0010
0000
0000
0000
0000
,
0000
0010
0000
0000
0000
0000
0000
0000
,
0000
2000
0000
0000
3000
0000
0000
0000
,
1000
0000
0000
0000
,
0100
0000
0000
0000
,
0010
0000
0000
0000
,
0001
0000
0001
0000
,
0000
0000
0010
0000
,
0000
0000
0100
0000
,
1000
0000
1000
0000
,
0000
0000
0010
0000
,
0000
0000
0100
0000
,
0000
0000
0001
0000
,
0001
0000
0000
0000
,
0100
0000
0000
0000
,
0010
0000
1000
0000
,
0100
0000
1001
0100
,
0000
2002
3003
0100
,
0000
0000
0000
0000
0000
0000
2002
3003
,
0100
0000
0000
0000
,
2002
0000
3003
0000
,
1000
0000
0000
0000
,
0010
0000
0000
0000
,
1000
0000
0000
0000
,
0010
0000
0000
0000
,
0100
0000
0000
0000
,
0001
0000
0000
0000
,
0100
0000
0000
0000
,
0001
0000
0000
1000
0000
0000
0000
0000
,
0000
0000
0000
0100
0000
0000
0000
0000
,
0000
0000
0000
1000
0000
0000
0000
0000
,
0000
0000
0000
0100
0000
0000
0000
0000
,
0000
0000
0000
0010
0000
0000
0000
0000
,
0000
0000
0000
0001
0000
0000
0000
0000
,
0000
0000
0000
0010
0000
0000
0000
0000
,
0000
0000
0000
0001
0000
0000
0001
0000
,
0000
1000
0000
0100
,
0000
1000
0000
0001
,
0000
0100
0000
0001
,
0000
1000
0000
0010
,
0010
0010
0000
0100
,
0100
0100
0000
0001
,
0000
1000
0000
0001
,
0000
0001
0000
0010
,
0010
0010
0000
0100
,
0100
0100
0000
1000
,
0000
0100
0000
0010
,
0000
0001
0000
2002
,
0000
0000
0000
0000
,
0000
0000
3003
0000
,
0001
0000
1000
0000
,
0010
0000
1000
0000
,
0100
0000
1000
0000
,
0010
0000
1000
1000
,
0000
2002
0000
3003
,
0000
0000
0000
0000
1001
0000
0000
1001
0000
0000
1001
0000
0000
0000
0000
0000
,
0000
0220
0000
0000
0000
0330
0000
0000
,
0000
0110
0000
0000
2002
0000
0000
0000
,
3003
0000
0000
1000
,
0000
0100
0000
0100
,
0000
1000
0000
0100
,
0000
1000
0000
0100
,
0000
0010
0000
0010
,
0000
0001
0000
0001
,
0000
0010
0000
0001
,
0000
0000
0000
0000
0000
0000
0000
0000
0000
0000
0000
0000
0000
0000
0000
0000
0000
0000
0000
0000
0000
0000
0000
0000
0000
0000
0000
0000
0000
0000
0000
0000
0000
0000
0000
0000
0000
0000
0000
0000
0000
0000
0000
0000
0000
0000
0000
0000
0001
0000
0000
0000
0000
0000
0000
0000
0000
0000
0000
0000
0000
0000
0000
0000
0000
0000
0000
0000
0000
0000
0000
0000
0000
0000
0000
0000
0000
0000
0000
0000
0000
0000
0000
0000
0000
0000
0000
0000
0000
0000
0000
0000
0000
0000
0000
0000
0000
0000
0000
0000
0000
0000
0000
0000
0000
0000
0000
0000
0000
0000
0000
0000
0000
0000
0000
0000
0000
0000
0000
0000
0000
0000
0000
0000
0000
0000
0000
0000
0000
0000
0000
0000
0000
0000
0000
0000
0000
0000
0000
0000
0000
0000
0000
0000
0020
0030
0000
0000
0000
0000
0000
0000
0000
0000
0000
0000
0000
0000
0000
0000
0000
0000
0000
0000
0000
0000
0000
0000
0000
0000
0000
0000
0000
0000
0000
0000
0000
0000
0000
0000
0000
0000
0000
0000
0000
0000
0000
0000
0000
0000
0000
0000
,
0000
0000
0000
0000
0000
0001
0000
0000
,
0000
0100
0000
0000
0000
0001
0000
0000
,
0000
0100
0000
0000
0000
0001
0000
0000
,
0000
0001
0000
0000
0000
0100
0000
0000
,
0000
0010
0000
0000
0000
0010
0000
0000
,
0000
1000
0000
0000
0000
0010
0000
0000
,
0000
2000
0000
0000
0000
0000
0000
0000
,
0000
0000
0000
0000
0000
3000
0000
0000
,
1001
0000
0001
0000
,
1000
1000
1000
0000
,
0110
0000
0010
0000
,
0100
0100
0100
0000
,
1001
0000
1001
0000
,
1001
1001
1001
0000
,
0110
0000
0110
0000
,
0220
0000
0330
0000
,
1000
0000
1000
0000
,
0001
0000
0001
0000
,
1000
0000
0100
0000
,
0010
0000
0001
0000
,
0100
0000
0100
0000
,
0010
0000
0010
0000
,
1000
0000
0010
0000
,
0100
0000
0001
0000
,
1000
0000
1000
0000
,
0001
0000
0001
0000
,
1000
0000
0100
0000
,
0010
0000
0001
0000
,
0100
0000
0100
0000
,
0010
0000
0010
0000
,
1000
0000
0010
0000
,
0100
0000
0010
0000
,
1000
0000
0001
0000
,
1000
0001
0000
1001
,
0000
0100
0000
0010
,
0000
0010
0000
0020
,
0000
0030
0000
0000
,
0000
0220
0000
0000
,
0000
0000
0000
0000
,
0000
0000
0000
0000
,
0000
0000
0000
0000
,
0000
0330
0000
0000
;
