#VERSION:0.83;
#TITLE:Ponko2 Girlish;
#SUBTITLE:(Kobaryo-KTN Remix);
#ARTIST:Unknown artist;
#TITLETRANSLIT:;
#SUBTITLETRANSLIT:;
#ARTISTTRANSLIT:;
#GENRE:;
#ORIGIN:;
#CREDIT:;
#BANNER:ponko2-bn.png;
#BACKGROUND:ponko2-bg.png;
#PREVIEWVID:;
#JACKET:;
#CDIMAGE:;
#DISCIMAGE:;
#LYRICSPATH:;
#CDTITLE:;
#MUSIC:Ponko2 Girlish.ogg;
#OFFSET:0.000000;
#SAMPLESTART:20.400000;
#SAMPLELENGTH:12.000000;
#SELECTABLE:YES;
#BPMS:0.000=100.000,
34.000=200.000,
37.000=404.000,
38.000=200.000,
45.000=404.000,
46.000=200.000,
53.000=404.000,
54.000=200.000,
98.000=100.000,
146.500=101.000,
147.000=102.000,
147.500=103.000,
148.000=104.000,
148.500=105.000,
149.000=106.000,
149.500=107.000,
150.000=108.000,
150.500=109.000,
151.000=110.000,
151.500=111.000,
152.000=112.000,
152.500=113.000,
153.000=114.000,
153.500=115.000,
154.000=116.000,
154.500=117.000,
155.000=118.000,
155.500=119.000,
156.000=120.000,
156.500=121.000,
157.000=122.000,
157.500=123.000,
158.000=124.000,
158.500=125.000,
159.000=126.000,
159.500=127.000,
160.000=128.000,
160.500=129.000,
161.000=260.000,
171.000=520.000,
231.000=260.000,
233.000=520.000,
365.000=130.000,
372.000=260.000,
380.000=265.000,
387.000=130.000;
#STOPS:37.000=0.159,
45.000=0.159,
53.000=0.159;
#DELAYS:;
#WARPS:;
#TIMESIGNATURES:0.000=4=4;
#TICKCOUNTS:0.000=4;
#COMBOS:0.000=1;
#SPEEDS:0.000=1.000=0.000=0;
#SCROLLS:0.000=1.000,
37.000=0.500,
38.000=1.000,
45.000=0.500,
46.000=1.000,
53.000=0.500,
54.000=1.000,
146.500=1.033,
147.000=1.067,
147.500=1.100,
148.000=1.133,
148.500=1.167,
149.000=1.200,
149.500=1.233,
150.000=1.267,
150.500=1.300,
151.000=1.333,
151.500=1.367,
152.000=1.400,
152.500=1.433,
153.000=1.467,
153.500=1.500,
154.000=1.533,
154.500=1.567,
155.000=1.600,
155.500=1.633,
156.000=1.667,
156.500=1.700,
157.000=1.733,
157.500=1.767,
158.000=1.800,
158.500=1.833,
159.000=1.867,
159.500=1.900,
160.000=1.933,
160.500=1.967,
161.000=1.000,
161.500=1.050,
162.000=1.100,
162.500=1.150,
163.000=1.200,
163.500=1.250,
164.000=1.300,
164.500=1.350,
165.000=1.400,
165.500=1.450,
166.000=1.500,
166.500=1.550,
167.000=1.600,
167.500=1.650,
168.000=1.700,
168.500=1.750,
169.000=1.800,
169.500=1.850,
170.000=1.900,
170.500=1.950,
171.000=1.000,
365.000=2.000,
366.000=1.833,
367.000=1.667,
368.000=1.500,
369.000=1.333,
370.000=1.167,
371.000=1.000;
#FAKES:;
#LABELS:0.000=Song Start;
#BGCHANGES:;
#KEYSOUNDS:;
#ATTACKS:
;

//---------------dance-single - ----------------
#NOTEDATA:;
#CHARTNAME:;
#STEPSTYPE:dance-single;
#DESCRIPTION:;
#CHARTSTYLE:Pad;
#DIFFICULTY:Challenge;
#METER:15;
#RADARVALUES:0.672348,1.532420,0.253423,0.434440,0.470644,520.000000,492.000000,28.000000,48.000000,0.000000,0.000000,0.000000,0.000000,0.000000,0.672348,1.532420,0.253423,0.434440,0.470644,520.000000,492.000000,28.000000,48.000000,0.000000,0.000000,0.000000,0.000000,0.000000;
#CREDIT:Mozata;
#NOTES:
// measure 0
0000
0000
0000
0000
,  // measure 1
0000
0000
0000
0000
,  // measure 2
0000
0000
0000
0000
,  // measure 3
0000
0000
0000
0000
,  // measure 4
0000
0000
2000
0000
,  // measure 5
0001
0000
0000
0000
0010
0000
0000
0000
0020
0000
0000
0000
3030
0000
0010
0100
,  // measure 6
0002
0000
0003
0100
0002
0000
0000
1000
,  // measure 7
0100
0000
2000
0003
0200
0000
0000
3300
,  // measure 8
1000
0000
0100
0010
0100
0000
1000
0000
0100
0010
0100
0000
1000
0000
0000
0000
0001
0000
0000
0000
0100
0000
0010
0000
0100
0000
0000
0000
0001
0000
0000
0000
,  // measure 9
0100
0000
0010
0000
0010
0000
0000
0000
1000
0000
0100
0010
0100
0000
1000
0000
,  // measure 10
0010
0000
0100
0000
0100
0000
0000
0000
0010
0000
0100
0001
0100
0000
0010
0000
,  // measure 11
1000
0000
0001
0000
0001
0000
0000
0000
0001
0000
0010
0100
0010
0000
0001
0000
,  // measure 12
1000
0000
0100
0000
0100
0000
0000
0000
1000
0000
0010
1000
0010
0000
1000
0000
,  // measure 13
0001
0000
0100
0000
0100
0000
0000
0000
0100
0000
0001
0100
0001
0000
0100
0000
,  // measure 14
0010
0000
1000
0000
1000
0000
0000
0000
0010
0000
1000
0010
1000
0000
0001
0000
,  // measure 15
1000
1000
2002
3003
1000
0100
0001
0100
,  // measure 16
1000
0000
0010
0000
1002
0000
0010
0023
,  // measure 17
0000
1000
0000
0001
0000
1030
0010
0001
,  // measure 18
1000
0000
1000
0001
1000
0020
0000
0001
,  // measure 19
0000
1000
0000
0130
0000
0100
0010
1000
,  // measure 20
0001
0000
0010
0002
0200
0000
0003
0000
,  // measure 21
0310
2000
0200
3000
,  // measure 22
0310
0000
0002
0203
,  // measure 23
2300
0000
3002
0000
0023
0000
0000
1030
,  // measure 24
0200
0000
0000
0000
0310
0000
0010
0000
0100
1000
0000
0100
0000
0010
0000
0100
,  // measure 25
0000
0010
0100
1000
0001
0000
0000
0000
0100
0001
0000
0010
0000
0100
0000
0001
,  // measure 26
0000
0100
0000
0010
0000
0001
0000
0000
1000
0000
0001
1000
0010
0000
0001
0000
,  // measure 27
0010
1000
0001
0000
0010
0000
0100
1000
0100
0010
0100
1000
0001
0010
0100
1000
,  // measure 28
0010
0100
0001
0100
0001
0100
0001
0000
0000
0000
0001
0000
0000
0000
0002
0000
0000
0000
0000
0000
0000
0000
0010
0000
0010
0000
0000
0000
0010
0000
0000
0000
,  // measure 29
1000
1000
1000
0000
0100
0000
0103
0000
2100
0000
0000
0010
0010
0000
0010
0000
,  // measure 30
0001
0001
0001
0000
0100
3100
0000
0110
0000
0210
0000
0010
0010
0000
0010
0000
,  // measure 31
0001
0001
0001
0000
1000
0000
1000
0000
2300
0000
0000
0010
0010
0000
0010
0000
,  // measure 32
0001
0001
3002
0000
0100
0000
0103
0000
1002
0100
0013
0000
0001
0000
0000
0000
,  // measure 33
2001
0100
3010
0000
1000
0000
0000
0000
0012
0100
1003
0000
0010
0000
0100
0001
,  // measure 34
0100
0000
0100
0010
0100
0000
0110
0000
1000
0100
0010
1000
0010
0100
1000
0001
,  // measure 35
1000
0100
0010
1000
0010
0100
1000
0001
0100
0010
0001
0010
0100
0001
1000
0001
,  // measure 36
0010
0000
0100
1000
0100
0000
0010
0000
0001
1000
0001
0000
0010
0000
0100
0000
1000
0000
0100
0000
1000
0000
0100
0000
0010
0000
0100
0000
0010
0000
0100
0000
,  // measure 37
0001
0100
0001
0100
0010
0100
0010
0100
0010
0001
0010
0001
1000
0001
1000
0001
,  // measure 38
0100
0001
0100
0001
0010
0001
0010
0001
0100
0001
1000
0001
0010
0001
1000
0001
,  // measure 39
0100
0010
1000
0010
0100
0001
0010
0001
1000
0100
0010
0001
0100
0001
0010
0100
,  // measure 40
1000
0010
0100
0001
0010
0000
0100
0000
0010
0000
0002
0000
2000
0000
0000
0000
,  // measure 41
0000
0000
3003
1001
,  // measure 42
1001
1001
0110
1000
,  // measure 43
0100
0010
1000
0010
,  // measure 44
0100
1000
0001
1000
,  // measure 45
0100
0010
1000
0010
,  // measure 46
0100
1000
0001
0100
,  // measure 47
0010
0001
0010
0100
,  // measure 48
0001
1000
0001
0010
,  // measure 49
0001
0010
0001
1000
,  // measure 50
0100
0010
0001
1000
,  // measure 51
0010
1000
0010
0100
,  // measure 52
0010
1000
0010
1000
,  // measure 53
0001
1000
0001
0100
,  // measure 54
0001
1000
0001
1000
,  // measure 55
0100
1000
0100
0010
,  // measure 56
0100
1000
0100
0010
,  // measure 57
0001
0010
0100
1000
,  // measure 58
1001
0001
0100
0000
,  // measure 59
1000
0000
0100
0000
,  // measure 60
0001
0000
0010
0100
,  // measure 61
1000
0100
0000
0000
,  // measure 62
0000
1000
0001
0000
1000
0000
0000
0000
,  // measure 63
0010
0000
0100
0000
,  // measure 64
0001
0000
1000
0100
,  // measure 65
0010
0100
0000
0000
,  // measure 66
0000
2000
0000
0000
,  // measure 67
0000
3020
0000
0032
,  // measure 68
0000
2003
0000
0000
,  // measure 69
3200
0320
0000
0000
,  // measure 70
0000
2030
0000
3200
,  // measure 71
0000
0302
0000
0203
,  // measure 72
0000
2300
0000
3020
,  // measure 73
0000
0230
0000
0310
,  // measure 74
0000
1000
0100
0000
,  // measure 75
0110
0000
0011
0000
,  // measure 76
0110
0000
0100
1000
,  // measure 77
0001
1000
0000
0000
,  // measure 78
0000
0010
0100
0000
,  // measure 79
0101
0000
1001
0000
,  // measure 80
1010
0000
0110
0000
,  // measure 81
1100
0000
0110
0000
,  // measure 82
0000
1000
0100
1000
,  // measure 83
0100
0001
0100
0001
,  // measure 84
0100
1000
0001
1000
,  // measure 85
0001
0010
0100
0010
,  // measure 86
0100
1000
0010
0100
,  // measure 87
0001
1000
0100
0010
,  // measure 88
0001
0100
0001
0000
,  // measure 89
0010
0000
0001
0000
,  // measure 90
2000
0000
0000
0000
,  // measure 91
0000
3002
0200
0000
,  // measure 92
0000
0000
0000
0300
0103
0100
0100
0110
,  // measure 93
1000
0100
0010
0100
1001
0000
0000
0000
,  // measure 94
0001
0100
0010
0100
1001
0000
0000
0000
,  // measure 95
0001
0010
0100
1000
0101
0000
1100
0000
,  // measure 96
0100
0010
0100
0010
0200
0000
0310
0000
;

//---------------dance-single - ----------------
#NOTEDATA:;
#CHARTNAME:;
#STEPSTYPE:dance-single;
#DESCRIPTION:;
#CHARTSTYLE:;
#DIFFICULTY:Hard;
#METER:12;
#RADARVALUES:0.563738,1.357286,0.226271,0.316779,0.271525,436.000000,411.000000,25.000000,35.000000,0.000000,0.000000,0.000000,0.000000,0.000000,0.563738,1.357286,0.226271,0.316779,0.271525,436.000000,411.000000,25.000000,35.000000,0.000000,0.000000,0.000000,0.000000,0.000000;
#CREDIT:;
#NOTES:
0000
0000
0000
0000
,
0000
0000
0000
0000
,
0000
0000
0000
0000
,
0000
0000
0000
0000
,
0000
0000
0002
0003
,
0100
0000
0000
0000
0010
0000
0000
0000
0020
0000
0000
0000
0000
0000
1030
0001
,
0100
0000
0000
0010
0200
0000
0000
0301
,
1000
0000
1000
0000
2002
0000
0000
3003
,
1000
0010
0001
1000
0100
0001
1000
0000
0010
0000
0100
0000
0001
0000
0100
0000
,
0010
0000
0110
0000
1000
0100
1000
0001
,
1000
0000
1001
0000
0100
0010
0100
1000
,
0100
0000
0110
0000
0001
0010
0100
1000
,
0001
0000
0101
0000
1000
0001
0010
0001
,
1000
0000
1100
0000
1000
0100
0010
0001
,
0010
0000
1001
0000
0100
1000
0010
0100
,
0001
0000
0011
0000
0010
0100
0010
0100
,
1000
0000
0100
0000
0020
0000
0031
1000
,
0000
0100
0000
0010
0000
0100
1000
0001
,
1000
0000
0000
0000
0020
0200
0330
0110
,
0000
0101
0000
1001
0000
0001
1000
0010
,
0100
0000
2000
0000
,
3010
0000
1000
0000
0002
0000
0000
0013
,
0001
0000
2000
3200
,
0320
0000
2030
0000
3020
0000
0000
0130
,
2000
0000
0000
0000
3000
0000
0000
0000
1001
0000
0000
0010
0000
0100
0000
0010
,
0000
0000
1000
0000
1000
0000
0000
0000
0011
0000
0000
0001
0000
0100
0000
0010
,
0000
1000
0000
0100
0000
0010
0000
0000
0001
0000
0000
0100
0001
0000
0001
0000
,
0000
1000
0100
0000
1000
0000
0010
0000
0100
0010
0100
0010
1000
0010
1000
0010
,
0100
0001
0010
0100
0000
1000
0000
1001
0000
0000
0000
1000
0010
0000
0010
0000
,
0100
0010
0100
0000
0001
0000
1000
0000
0200
0000
0000
1300
0010
0000
0010
0000
,
0100
0010
0100
0000
0001
1000
0000
1001
0000
1000
0000
0100
0010
0000
0010
0000
,
0100
0010
0100
0000
1000
0000
0001
0000
0200
0000
0000
0301
0010
0000
0010
0000
,
0100
0010
0100
0000
1000
0000
0000
0000
1002
0000
1003
0000
0001
0000
0000
0000
,
0120
0130
0010
0000
1200
1300
0100
0000
,
0020
0000
0000
0000
0130
0000
0000
0000
1000
0100
0010
0000
0100
0010
0000
0100
,
1000
0001
0100
0000
0010
0100
0000
0001
0010
0000
0001
0000
1000
0010
0000
0100
,
0000
0001
0000
0100
0000
0010
0000
1000
0100
0000
0010
0000
0100
0000
1000
0000
,
0010
0100
0010
1000
0100
0010
0001
0100
,
0010
0000
0100
0000
0001
0000
0010
0000
0001
1000
0001
1000
0001
1000
0001
1000
,
0010
0100
0010
0100
0010
0100
0010
0100
0001
0100
0001
0100
0001
0100
0001
1000
,
0100
1000
0100
1000
0100
0000
1000
0000
0100
0000
1000
0000
0020
0000
0000
0000
,
0000
0000
0030
0010
,
0100
0010
0100
0001
,
0100
0010
0000
0100
,
0010
0000
0100
0001
,
1000
0100
0000
0010
,
0100
0000
1000
0010
,
0100
0001
0000
0100
,
0001
0000
1000
0100
,
0010
0001
1000
0100
,
0010
0001
0000
1000
,
0100
0010
0000
0100
,
0010
0000
0100
1000
,
0001
0100
0000
0010
,
0100
0000
0001
1000
,
0010
0100
0000
0010
,
0100
0000
1001
0000
,
1001
0000
1001
0000
,
0000
0001
0010
0000
,
0001
0000
1000
0000
,
0001
0000
1000
0100
,
0010
0001
0000
0000
,
0000
1000
0010
0000
,
0100
0000
0001
0000
,
1000
0000
0100
1000
,
0100
1000
0000
0000
,
0000
0020
0000
0000
,
0000
0230
0000
0302
,
0000
0023
0000
0000
,
0130
2000
0000
0000
,
0000
3200
0000
0320
,
0000
0032
0000
0203
,
0000
0320
0000
0000
,
1030
0001
0000
0000
,
0000
0010
0001
0010
,
0001
0010
0001
0010
,
0001
1000
0001
1000
,
0001
1000
0001
1000
,
0001
0100
0001
0100
,
0001
0100
0001
0100
,
0001
0100
0010
0100
,
0010
0100
0010
0100
,
0010
1000
0010
1000
,
0010
1000
0010
1000
,
0010
1000
0001
1000
,
0001
1000
0001
1000
,
0001
1000
0100
1000
,
0100
1000
0100
1000
,
0100
1000
0000
0000
,
0010
0000
0100
0000
,
0020
0000
0000
0000
,
0000
2000
0000
0000
,
0000
0000
0000
3030
,
1000
0100
0010
0100
1000
0000
0000
0000
,
0001
0100
0010
0100
0001
0000
0000
0000
,
0001
0010
0100
1000
0001
0000
0101
0000
,
1100
1010
0011
0010
;

//---------------dance-single - ----------------
#NOTEDATA:;
#CHARTNAME:;
#STEPSTYPE:dance-single;
#DESCRIPTION:;
#CHARTSTYLE:;
#DIFFICULTY:Medium;
#METER:9;
#RADARVALUES:0.395651,0.788102,0.190068,0.253423,0.058830,306.000000,285.000000,21.000000,28.000000,0.000000,0.000000,0.000000,0.000000,0.000000,0.395651,0.788102,0.190068,0.253423,0.058830,306.000000,285.000000,21.000000,28.000000,0.000000,0.000000,0.000000,0.000000,0.000000;
#CREDIT:;
#NOTES:
0000
0000
0000
0000
,
0000
0000
0000
0000
,
0000
0000
0000
0000
,
0000
0000
0000
0000
,
0000
0000
0002
0003
,
1000
0000
0010
0000
0020
0000
0030
0010
,
0100
0000
0000
0010
0100
0000
0000
0001
,
0200
0000
0320
0000
2030
0000
0000
3000
,
1000
1000
1000
1000
0001
0100
0001
0100
,
0001
0000
0101
0000
1000
0100
1000
0100
,
1000
0000
1000
0000
0010
0100
0010
0100
,
0010
0000
0110
0000
1000
0010
1000
0010
,
1000
0000
1000
0000
0001
0010
0001
0010
,
0001
0000
0011
0000
1000
0100
1000
0100
,
1000
0000
1000
0000
0001
1000
0001
1000
,
0001
0000
0001
0000
0010
0100
1000
0100
,
0010
0000
0001
0000
2001
0000
0000
3100
,
0000
0010
0000
0100
0000
1000
0001
0000
,
0001
0000
0000
0000
1002
0000
0000
1003
,
0000
0010
0000
0100
0000
0010
1000
0000
,
1000
0000
0020
0000
,
0130
0001
0020
0000
,
0130
0000
1000
0100
,
0001
0000
0100
0000
1000
0000
0000
0001
,
1000
0000
0000
0000
0000
0000
0000
0000
0210
0000
0000
0000
0000
0000
0000
0302
,
0000
0000
0000
0000
0000
0000
0000
0000
2003
0000
0000
0000
0000
0000
0000
3200
,
0000
0000
0310
0010
,
0100
0010
0100
0000
1000
0001
1000
0001
,
0100
0001
0100
0001
0000
0000
0000
0000
1001
0000
0000
1000
0100
0000
0100
0000
,
0010
0000
0100
0000
1000
0000
1000
0000
0002
0000
0000
0103
0010
0000
0010
0000
,
0100
0000
0001
0000
1000
0001
0000
0010
0000
0010
0000
0000
0001
0000
0001
0000
,
0010
0000
0100
0000
1000
0000
1000
0000
0200
0000
0000
1300
0010
0000
0010
0000
,
0100
0001
0001
0000
2002
0000
3003
0000
,
1020
0130
0202
0303
,
0001
0000
0000
0000
0010
0000
0000
0000
0001
0000
0100
0000
0000
0100
0000
0000
,
0001
0000
1000
0000
0000
1000
0000
0000
0100
0000
0010
0000
0000
0010
0000
0000
,
0200
0000
0000
0000
1300
0100
0010
0001
,
1000
0100
0010
0001
1000
0010
0100
0001
,
1000
0010
0100
0001
1000
0100
0010
0001
,
1000
0100
0010
0001
1000
0010
1000
0010
,
0100
0001
0100
0000
0001
0000
0020
0000
,
0000
0000
0000
0000
,
0000
0000
0030
0001
,
0000
1000
0000
0000
,
1000
0000
0000
0100
,
0000
0010
0000
0000
,
0010
0000
0000
0001
,
0000
0100
0000
0000
,
0100
0000
0010
0000
,
0010
1000
0000
0100
,
0000
0010
0000
0001
,
0000
1000
0000
0000
,
1000
0000
0000
0001
,
0000
0010
0000
0000
,
0010
0000
0000
0100
,
0000
0010
0000
0000
,
0010
0000
0001
0000
,
1000
0000
0001
0000
,
0000
1000
0001
0000
,
0100
0000
0001
0000
,
1000
0000
0000
0010
,
0100
0010
0000
0000
,
0000
1000
0100
0000
,
0010
0000
0001
0000
,
0010
0000
0000
0100
,
1000
0100
0000
0000
,
0000
2000
0000
0000
,
0000
3010
0000
0100
,
0000
0002
0000
0000
,
0000
0013
0000
0000
,
0000
0001
0000
0001
,
0000
1000
0000
1000
,
0000
1001
0000
0000
,
0000
0110
0000
0000
,
0000
1000
0010
0000
,
0100
0000
0010
0000
,
1000
0000
0000
0001
,
0100
0001
0000
0000
,
0000
0001
0010
0000
,
0100
0000
1000
0000
,
0100
0000
0010
0000
,
0001
0000
1000
0000
,
0000
0020
0000
0000
,
0000
0130
0000
0001
,
0000
0020
0000
0000
,
0130
0000
1000
0000
,
0000
1000
0001
1000
,
0001
1000
0010
1000
,
0010
1000
0000
0000
,
0000
0000
0000
0000
,
0000
2002
0000
0000
,
0000
0000
0000
0000
,
0000
0000
0000
3003
,
1001
1000
1100
0000
,
1001
0001
0101
0000
,
0110
0010
1010
0000
,
0110
0100
0101
0010
;

//---------------dance-single - ----------------
#NOTEDATA:;
#CHARTNAME:;
#STEPSTYPE:dance-single;
#DESCRIPTION:;
#CHARTSTYLE:;
#DIFFICULTY:Easy;
#METER:7;
#RADARVALUES:0.266353,0.525401,0.090508,0.235322,0.000000,206.000000,196.000000,10.000000,26.000000,0.000000,0.000000,0.000000,0.000000,0.000000,0.266353,0.525401,0.090508,0.235322,0.000000,206.000000,196.000000,10.000000,26.000000,0.000000,0.000000,0.000000,0.000000,0.000000;
#CREDIT:;
#NOTES:
0000
0000
0000
0000
,
0000
0000
0000
0000
,
0000
0000
0000
0000
,
0000
0000
0000
0000
,
0000
0000
1000
0000
,
0100
0010
0100
0000
,
1000
0000
0001
0000
,
0001
0010
0002
0000
,
0003
0000
1000
0010
,
0100
0000
0100
0010
,
1000
0000
1000
0100
,
0010
0000
0010
0100
,
1000
0000
0001
0100
,
0010
0000
0010
0100
,
0001
0000
0001
0010
,
0100
0000
0100
0010
,
0001
0001
2001
0000
,
3001
0000
0100
0100
,
0110
0000
1002
0000
,
1003
0000
0010
0010
,
0110
0000
2000
0000
,
3100
0000
0002
0000
,
0103
0000
1000
0001
,
1000
0001
0010
0000
,
0100
0000
2000
0000
,
3020
0000
0230
0000
,
0302
0000
2003
0000
,
3200
0000
2300
0000
,
3002
0000
0013
0100
,
0100
1000
2001
3010
,
0010
0100
1002
0013
,
0010
0100
2001
3010
,
0010
0100
0220
0330
,
0202
0303
2200
3300
,
1000
0000
0001
0001
,
1000
1000
0100
0010
,
0001
0000
0100
0010
,
1000
0010
0100
0010
,
1000
0010
0100
0001
,
0100
0010
0100
0001
,
0100
0010
0000
0200
,
0000
0000
0000
0000
,
0000
0000
0300
0001
,
0000
0010
0000
0001
,
0000
0010
0000
0100
,
0000
0010
0000
0100
,
0000
0010
0000
0100
,
0000
1000
0000
0100
,
0000
1000
0000
0001
,
0000
1000
0000
0001
,
0000
1000
0000
0100
,
0000
1000
0000
0100
,
0000
1000
0000
0010
,
0000
1000
0000
0010
,
0000
1000
0000
0001
,
0000
0100
0000
0001
,
0000
0100
0001
0000
,
0000
0000
0000
0000
,
0000
1000
0000
0000
,
0100
0000
1000
0000
,
0100
0000
0000
0010
,
0000
0010
0000
0000
,
0000
0001
0000
0000
,
0100
0000
0001
0000
,
0100
0000
0000
0010
,
0000
0010
0000
0000
,
0000
0002
0000
0000
,
0000
0003
0000
0000
,
0000
2000
0000
0000
,
0000
3000
0000
0000
,
0000
1000
0000
0000
,
0000
0100
0000
0000
,
0000
0010
0000
0000
,
0000
0001
0000
0000
,
0000
1000
0000
0100
,
0000
1000
0000
0100
,
0000
1000
0000
0001
,
0000
1000
0000
0001
,
0000
1000
0000
0010
,
0000
1000
0000
0010
,
0000
0100
0000
0010
,
0000
0100
0000
0010
,
0000
0100
0000
0001
,
0000
0100
0000
0001
,
0000
1000
0000
0001
,
0000
1000
0000
0001
,
0000
0100
0000
0010
,
0000
1000
0000
0001
,
0000
0100
0000
0000
,
0000
0000
0000
0000
,
0000
0200
0000
0000
,
0000
0000
0000
0000
,
0000
0000
0000
0300
,
0100
0001
0010
0000
,
0100
1000
0010
0000
,
1000
0001
0010
0000
,
0001
1000
0010
0010
;

//---------------dance-single - ----------------
#NOTEDATA:;
#CHARTNAME:;
#STEPSTYPE:dance-single;
#DESCRIPTION:;
#CHARTSTYLE:;
#DIFFICULTY:Beginner;
#METER:5;
#RADARVALUES:0.152571,0.394051,0.054305,0.117661,0.000000,118.000000,112.000000,6.000000,13.000000,0.000000,0.000000,0.000000,0.000000,0.000000,0.152571,0.394051,0.054305,0.117661,0.000000,118.000000,112.000000,6.000000,13.000000,0.000000,0.000000,0.000000,0.000000,0.000000;
#CREDIT:;
#NOTES:
0000
0000
0000
0000
,
0000
0000
0000
0000
,
0000
0000
0000
0000
,
0000
0000
0000
0000
,
0000
0000
0010
0000
,
0010
0000
0010
0000
,
0100
0000
0001
0000
,
1000
0000
0002
0000
,
0003
0000
1000
0000
,
1000
0000
0001
0000
,
0001
0000
0100
0000
,
0100
0000
0010
0000
,
0010
0000
1000
0000
,
1000
0000
0001
0000
,
0001
0000
0100
0000
,
0100
0000
0010
0000
,
0010
0000
0220
0000
,
0000
0000
0330
0000
,
0000
0000
2002
0000
,
0000
0000
3003
0000
,
0000
0000
1000
0000
,
0000
0000
0100
0000
,
0000
0000
0010
0000
,
0000
0000
0001
0000
,
0000
0000
0001
0000
,
0100
0000
0010
0000
,
1000
0000
0001
0000
,
1000
0000
0010
0000
,
0100
0000
0001
0001
,
0001
0000
1000
1000
,
1000
0000
0100
0100
,
0100
0000
0010
0010
,
0010
0000
0110
0000
,
1001
0000
1001
0000
,
1000
0000
0010
0000
,
0100
0000
0001
0000
,
0001
0000
0010
0010
,
0010
0010
0010
0010
,
0010
0010
0010
0010
,
0010
0010
0010
0010
,
0010
0010
0000
0020
,
0000
0000
0000
0030
,
0000
0000
0000
0010
,
0000
0000
0000
0000
,
0000
0000
0000
0100
,
0000
0000
0000
0000
,
0000
0000
0000
0010
,
0000
0000
0000
0000
,
0000
0000
0000
0100
,
0000
0000
0000
0000
,
0000
0000
0000
1000
,
0000
0000
0000
0000
,
0000
0000
0000
0001
,
0000
0000
0000
0000
,
0000
0000
0000
1000
,
0000
0000
0000
0000
,
0000
0000
0000
0001
,
0000
0000
0000
0000
,
0000
0010
0000
0000
,
0000
0010
0000
0000
,
0000
0010
0000
0000
,
0000
0000
0000
0000
,
0000
0100
0000
0000
,
0000
0100
0000
0000
,
0000
0100
0000
0000
,
0000
0000
0000
0000
,
0000
0002
0000
0000
,
0000
0003
0000
0000
,
0000
0002
0000
0000
,
0000
0003
0000
0000
,
0000
1000
0000
0000
,
0000
1000
0000
0000
,
0000
1000
0000
0000
,
0000
0000
0000
0000
,
0000
0001
0000
0000
,
0000
0001
0000
0000
,
0000
0001
0000
0000
,
0000
0000
0000
0000
,
0000
1000
0000
0000
,
0000
1000
0000
0000
,
0000
1000
0000
0000
,
0000
0000
0000
0000
,
0000
0020
0000
0000
,
0000
0030
0000
0000
,
0000
0020
0000
0000
,
0000
0030
0000
0000
,
0000
0200
0000
0000
,
0000
0000
0000
0000
,
0000
0300
0000
0000
,
0000
0000
0000
0000
,
0000
2002
0000
0000
,
0000
0000
0000
0000
,
0000
0000
0000
3003
,
1000
0000
1000
0000
,
1000
0000
1000
0000
,
0001
0001
0001
0001
,
0000
0000
0000
0010
;
