#VERSION:0.83;
#TITLE:Platinum Disco;
#SUBTITLE:;
#ARTIST:Yuka Iguchi;
#TITLETRANSLIT:;
#SUBTITLETRANSLIT:;
#ARTISTTRANSLIT:;
#GENRE:;
#ORIGIN:;
#CREDIT:;
#BANNER:platinumdisco-bn.png;
#BACKGROUND:platinumdisco-bg.jpg;
#PREVIEWVID:;
#JACKET:;
#CDIMAGE:;
#DISCIMAGE:;
#LYRICSPATH:;
#CDTITLE:;
#MUSIC:platinumdisco.ogg.ogg;
#OFFSET:0.000000;
#SAMPLESTART:53.252998;
#SAMPLELENGTH:12.000000;
#SELECTABLE:YES;
#BPMS:0.000=116.000,
1.000=121.700;
#STOPS:;
#DELAYS:;
#WARPS:;
#TIMESIGNATURES:0.000=4=4;
#TICKCOUNTS:0.000=4;
#COMBOS:0.000=1;
#SPEEDS:0.000=1.000=0.000=0;
#SCROLLS:0.000=1.000;
#FAKES:;
#LABELS:0.000=Song Start;
#BGCHANGES:0.000=platinumdisco-vid.avi=1.000=0=0=0=StretchNoLoop====,
99999=-nosongbg-=1.000=0=0=0 // don't automatically add -songbackground-
;
#KEYSOUNDS:;
#ATTACKS:
;

//---------------dance-single - ----------------
#NOTEDATA:;
#CHARTNAME:;
#STEPSTYPE:dance-single;
#DESCRIPTION:;
#CHARTSTYLE:;
#DIFFICULTY:Beginner;
#METER:2;
#RADARVALUES:0.102760,0.146433,0.011418,0.068506,0.000000,63.000000,62.000000,1.000000,6.000000,0.000000,0.000000,0.000000,0.000000,0.000000,0.102760,0.146433,0.011418,0.068506,0.000000,63.000000,62.000000,1.000000,6.000000,0.000000,0.000000,0.000000,0.000000,0.000000;
#CREDIT:;
#NOTES:
0000
0000
0000
0000
,
0000
0010
0000
0000
,
0000
0100
0000
0000
,
0000
0001
0000
1000
,
0000
0001
0000
0000
,
0000
0010
0000
0000
,
0000
0100
0000
0000
,
0000
1000
0000
0001
,
0000
1000
0000
0000
,
0000
0001
0000
0000
,
0000
0010
0000
0000
,
0000
0100
0000
0000
,
0000
1000
0000
0000
,
0000
1000
0000
1000
,
0000
0100
0000
0100
,
0000
0010
0000
0010
,
0000
0001
0000
0000
,
0000
1000
0000
0000
,
0000
1000
0000
0100
,
0000
1000
0000
0000
,
0000
0001
0000
0000
,
0000
0001
0000
0000
,
0000
0001
0000
0010
,
0000
0002
0000
0003
,
0000
2000
0000
3000
,
0000
2002
0000
0000
,
0000
3003
0000
0000
,
0000
0010
0000
0010
,
0000
0010
0010
0010
,
0000
1000
0000
1000
,
0000
2000
0000
3000
,
0000
0001
0000
0001
,
0000
0001
0001
0001
,
0000
0100
0000
0100
,
0000
0200
0000
0300
,
0000
0010
0000
0010
,
0000
0010
0000
0000
,
0000
1000
0000
1000
,
0000
1000
0000
0000
,
0000
0100
0000
0100
,
0000
0100
0000
0000
,
0000
0010
0000
0010
,
0000
0010
0010
0010
;

//---------------dance-single - ----------------
#NOTEDATA:;
#CHARTNAME:;
#STEPSTYPE:dance-single;
#DESCRIPTION:;
#CHARTSTYLE:;
#DIFFICULTY:Easy;
#METER:3;
#RADARVALUES:0.145168,0.195243,0.034253,0.057089,0.000000,89.000000,86.000000,3.000000,5.000000,0.000000,0.000000,0.000000,0.000000,0.000000,0.145168,0.195243,0.034253,0.057089,0.000000,89.000000,86.000000,3.000000,5.000000,0.000000,0.000000,0.000000,0.000000,0.000000;
#CREDIT:;
#NOTES:
0000
0000
0000
0000
,
0000
0001
0000
1000
,
0000
0001
0001
0001
,
0000
0100
0000
0010
,
0000
0010
0000
1000
,
0000
0001
0000
0001
,
0000
1000
1000
1000
,
0000
0100
0000
1000
,
0000
0010
0000
0000
,
0000
0010
0000
0000
,
0000
0001
0000
0000
,
0000
0001
0010
0001
,
0010
0010
0000
0100
,
0000
0100
0000
0000
,
0000
0100
0000
0000
,
0000
1000
0100
1000
,
0100
0010
0000
0000
,
0000
0000
1000
0000
,
0001
0000
0100
0000
,
0001
0001
0000
1000
,
0000
0100
0000
1000
,
0000
0000
0001
0000
,
1000
0000
0010
0000
,
1000
1000
0000
1001
,
0000
0010
0010
0010
,
0000
2002
0000
0000
,
0000
3003
0000
0000
,
0000
1000
0000
1000
,
0000
1000
0001
1000
,
0000
0010
0000
0010
,
0000
0220
0000
0330
,
0000
0001
0000
1000
,
0000
0001
0010
0001
,
0000
1000
0000
0100
,
0000
2000
0000
3000
,
0000
0010
0000
0100
,
0000
0010
0100
0010
,
0000
1000
0000
0001
,
0000
1000
0001
1000
,
0000
0100
0000
0010
,
0000
0100
0010
0100
,
0000
1000
0000
0001
,
0000
0010
0001
0100
;

//---------------dance-single - ----------------
#NOTEDATA:;
#CHARTNAME:;
#STEPSTYPE:dance-single;
#DESCRIPTION:;
#CHARTSTYLE:;
#DIFFICULTY:Medium;
#METER:5;
#RADARVALUES:0.208782,0.268460,0.068506,0.068506,0.000000,128.000000,122.000000,6.000000,6.000000,0.000000,0.000000,0.000000,0.000000,0.000000,0.208782,0.268460,0.068506,0.068506,0.000000,128.000000,122.000000,6.000000,6.000000,0.000000,0.000000,0.000000,0.000000,0.000000;
#CREDIT:;
#NOTES:
0000
0000
0000
0000
,
0000
0001
0001
1000
,
0000
0010
1000
0001
,
0000
0100
0001
0010
,
0001
0020
0000
0000
,
0030
0001
0001
1000
,
0000
0010
1000
0100
,
0000
0100
1000
0010
,
1000
0020
0000
0000
,
0030
0100
0000
0001
,
0000
1000
0000
0001
,
0000
0100
0001
1000
,
0001
0000
0010
0001
0010
0001
0010
0000
,
0000
0100
0000
1000
,
0000
0001
0000
1000
,
0000
0000
0100
0000
1000
0000
0001
1000
,
0001
0020
0000
0030
,
0000
0000
0100
0000
,
1000
0000
0001
0000
,
1000
0001
0000
1001
,
0000
1000
0000
1001
,
0000
0000
0010
0000
,
0100
0000
0001
0000
,
0100
0100
0110
0100
,
0110
0100
0001
1000
,
0001
0020
0000
0000
,
0030
0000
0000
0000
,
0000
0000
0001
0010
0001
0000
0001
0000
,
0000
0000
1000
0010
1000
0000
1000
0000
,
0000
0100
1000
0010
,
1000
2000
0000
3000
,
0000
0000
1000
0100
1000
0000
1000
0000
,
0000
0000
0001
0100
0001
0000
0001
0000
,
0000
0010
0000
0100
,
0000
2000
0000
3000
,
0000
0100
1000
0000
0000
0100
1000
0000
,
0000
0100
1000
0000
0100
0000
0010
0000
,
0001
0000
0010
0000
0000
0001
0010
0000
,
0000
0001
0010
0000
0001
0000
0001
0000
,
0000
0100
0001
0000
0000
0100
0001
0000
,
0000
0100
0001
0000
0100
0000
0010
0000
,
1000
1000
1001
1000
,
1001
1000
0001
0100
;

//---------------dance-single - ----------------
#NOTEDATA:;
#CHARTNAME:;
#STEPSTYPE:dance-single;
#DESCRIPTION:;
#CHARTSTYLE:;
#DIFFICULTY:Hard;
#METER:8;
#RADARVALUES:0.309910,0.341676,0.045671,0.114177,0.000000,190.000000,186.000000,4.000000,10.000000,0.000000,0.000000,0.000000,0.000000,0.000000,0.309910,0.341676,0.045671,0.114177,0.000000,190.000000,186.000000,4.000000,10.000000,0.000000,0.000000,0.000000,0.000000,0.000000;
#CREDIT:;
#NOTES:
// measure 0
0000
0100
0100
0100
,  // measure 1
0100
0000
0001
0100
0010
0000
1000
0000
,  // measure 2
0000
0100
1000
0100
0010
0000
0001
0000
,  // measure 3
0000
0000
1000
0010
1000
0000
0001
0010
,  // measure 4
0001
0200
0000
0000
,  // measure 5
0300
0000
0001
1000
0001
0000
0010
0000
,  // measure 6
0000
0001
1000
0001
1000
0000
0100
0000
,  // measure 7
0000
0010
0001
1000
,  // measure 8
0100
0020
0000
0000
,  // measure 9
0030
1001
0000
0100
,  // measure 10
0000
0010
0000
0100
,  // measure 11
0000
0001
1000
0100
,  // measure 12
1000
0000
0001
0010
0100
0010
0001
0000
,  // measure 13
0000
1001
0000
1000
,  // measure 14
0000
0010
0000
1000
,  // measure 15
0000
0000
0001
0000
0100
0000
0010
1000
,  // measure 16
0010
0100
0002
0000
0000
0000
0003
0000
,  // measure 17
0000
0000
0000
0001
0010
0100
1000
0001
,  // measure 18
1000
0000
0000
1000
0010
0100
0001
1000
,  // measure 19
0001
0000
0100
0010
0000
0010
1000
0000
,  // measure 20
0000
1000
0100
0010
0000
0010
0001
0000
,  // measure 21
0000
0000
0000
1000
0100
0010
0100
1000
,  // measure 22
0100
0000
0000
0010
0001
0100
0001
0010
,  // measure 23
0001
1000
1001
0001
,  // measure 24
1001
2000
3200
0320
,  // measure 25
0032
2000
0000
0000
,  // measure 26
3003
0000
0010
1000
0001
0100
0010
0000
,  // measure 27
0000
0000
1000
0010
0100
0010
1000
0000
,  // measure 28
1000
0000
0001
0010
0100
0010
0001
0000
,  // measure 29
0000
1000
0100
0000
1000
0001
0100
0000
,  // measure 30
0001
1000
0020
0000
0000
0000
0030
0000
,  // measure 31
0010
0000
1000
0100
0010
0100
1000
0000
,  // measure 32
1000
0000
0001
0100
0010
0100
0001
0000
,  // measure 33
0000
1000
0100
0000
0010
0001
0010
0000
,  // measure 34
0000
0100
2000
0000
0000
0000
3000
0000
,  // measure 35
0000
1000
0100
0000
0000
0001
0100
0000
,  // measure 36
0000
1000
0100
0010
0001
0010
0100
0000
,  // measure 37
0000
1000
0010
0000
0000
0001
0010
0000
,  // measure 38
0000
1000
0010
0100
0001
0100
0001
0000
,  // measure 39
0000
1000
0100
0000
0000
0001
0100
0000
,  // measure 40
0000
1000
0100
0010
0001
0010
0010
0100
,  // measure 41
1000
0001
0100
0001
0000
1000
0010
1000
,  // measure 42
0000
0000
0001
0010
0100
0010
0001
0000
;
