#TITLE:Perfect Hero;
#SUBTITLE:;
#ARTIST:Chris Stanton;
#TITLETRANSLIT:;
#SUBTITLETRANSLIT:;
#ARTISTTRANSLIT:;
#GENRE:;
#CREDIT:;
#BANNER:bn.png;
#BACKGROUND:bg.png;
#LYRICSPATH:;
#CDTITLE:;
#MUSIC:perfect_hero.ogg;
#OFFSET:0.000000;
#SAMPLESTART:42.530170;
#SAMPLELENGTH:15.000000;
#SELECTABLE:YES;
#BPMS:0.000000=157.000000
,1.000000=158.000000
;
#STOPS:
;
#BGCHANGES:;
#KEYSOUNDS:;
#ATTACKS:;

//---------------dance-single - Crossy Road----------------
#NOTES:
     dance-single:
     Crossy Road:
     Hard:
     14:
     0.588054,0.607431,0.227006,0.605350,0.015134,544.000000,514.000000,30.000000,80.000000,0.000000,0.000000,0.588054,0.607431,0.227006,0.605350,0.015134,544.000000,514.000000,30.000000,80.000000,0.000000,0.000000:
0000
0000
0000
0000
,
0000
0000
0000
0000
,
0000
0000
0000
0000
,
0000
0000
0000
0000
,
2000
0000
3020
0000
0130
0010
0001
0010
,
1000
0100
0020
0000
0031
0010
0100
1000
,
0010
0000
1010
1000
0001
0010
0100
0010
,
0001
0100
1000
0100
0010
1000
0100
0001
,
0100
0000
0120
0000
0031
0100
1000
0100
,
0010
0100
0002
0000
0013
0100
1000
0100
,
0001
0000
0120
0000
0031
0100
1000
0100
,
0001
0010
0100
1000
0010
0100
0002
0000
,
0103
0010
0100
1000
0100
0010
1000
0001
,
0010
0100
0010
0001
0010
1000
0010
0001
,
0100
1000
0100
0010
1000
0100
0010
0001
,
0100
0010
0100
1000
0100
0001
0010
1000
,
0010
0100
1000
0010
0100
1000
0100
0010
,
0100
0001
0010
0100
0010
1000
0010
0001
,
0100
0010
1000
0100
0010
0001
1000
0100
,
0010
1000
0010
0001
0000
0210
0000
0301
,
0100
0010
1000
0100
0001
0100
0010
0100
,
1000
0010
0100
0010
0001
0010
1000
0100
,
0010
0100
0001
0100
0010
0001
1000
0001
,
0200
0320
0032
0023
,
1030
0100
0010
0001
0010
0100
0010
1000
,
0010
0001
0100
0010
0100
1000
0100
0010
,
1000
0100
0001
0100
1000
0010
0100
0001
,
0200
0300
0120
1030
,
0100
0001
0100
0010
1000
0100
1000
0001
,
0022
0000
0033
2200
0000
0300
0000
3001
,
0200
0000
2300
0000
3100
0020
0000
1030
,
0100
0001
0100
1000
0010
0001
0010
1000
,
0001
0100
1000
0100
0010
1000
0100
0010
,
0022
0000
0033
1200
0000
0000
0000
0000
,
0000
0000
0000
0310
0000
0000
0001
0000
0000
0100
0000
0000
1000
0000
0000
0100
0000
0000
0000
0000
0000
0000
0101
0000
,
0000
0000
0000
1001
0000
0000
0000
0000
0011
0000
0000
0000
0220
0000
0000
0330
0000
0000
2001
0000
0000
0000
0000
0000
,
3100
0100
0001
0100
0100
1000
0010
0000
,
0220
0330
0000
0202
0000
0000
0003
0000
,
0301
0010
1000
0010
0100
0010
0001
0100
,
1000
0100
0010
0100
0001
0010
1000
0010
,
0001
1000
0100
0001
0100
0010
0100
1000
,
2200
3300
0000
0022
0000
0000
0030
0000
,
0003
1000
0010
0001
0010
1000
0100
0020
,
0000
0030
0001
0000
0010
0200
0000
0300
,
2000
0000
3002
0000
0103
1000
0200
0000
,
0310
0001
0010
1000
0100
0001
0100
1000
,
0020
0000
2030
0000
3100
0001
0100
1000
,
0010
0001
0010
1000
0100
0001
0100
1000
,
0002
0000
0023
0000
1030
0010
0001
1000
,
0010
0001
0010
1000
0100
0010
1000
0010
,
0200
0000
0320
0000
0031
0200
1000
0300
,
1200
0300
0110
0000
2020
0000
0030
0000
,
3001
0100
1000
0100
0010
0100
0001
0010
,
1000
0010
0100
0010
0001
1000
0010
1000
,
0100
0001
0100
0010
0001
0100
1000
0100
,
0010
0100
0001
0010
0100
1000
0010
0001
,
0010
1000
0100
0001
0100
0010
0001
0100
,
1000
0100
0010
0100
0001
0010
1000
0010
,
0100
1000
0010
0001
0010
0100
0001
0010
,
0100
1000
0010
0001
0010
1000
0100
0010
,
0002
0000
0000
0000
,
0000
0000
0000
0000
,
0200
0000
0303
0000
,
0021
0030
0210
0300
2100
3000
2001
0000
,
3100
0001
0100
0010
0001
0100
0010
1000
,
0010
0001
0010
0100
1000
0100
0010
0100
,
0001
0010
1000
0010
0100
0010
0001
0100
,
0010
1000
0010
0001
0010
1000
0100
0001
,
0200
0320
0032
0023
,
0230
2300
3020
0032
,
0023
2030
3200
0302
,
0203
0320
0032
0203
,
0310
1000
0002
0000
0013
0001
2000
0000
,
3010
0100
0002
0000
0013
0100
2000
0000
,
3010
0100
0002
0000
1003
0010
0100
0000
,
1010
0000
0000
0000
1001
0000
0000
0000
1100
0000
0000
0000
0120
0000
0000
0030
0000
0000
0012
0000
0000
0000
0000
0000
,
0103
1000
0100
0010
0100
0001
0010
1000
,
0010
0100
0010
0001
1000
0010
0001
0010
,
0100
0010
1000
0100
0001
0100
0010
0100
,
1000
0010
0100
0001
0010
1000
0010
0001
,
0100
1000
0100
0010
1000
0100
0001
0100
,
0010
0001
0100
0010
0001
0010
0100
0001
,
0010
1000
0010
0100
0001
0100
0010
0001
,
0100
0010
0001
0010
0100
1000
0100
0020
,
0000
0000
0030
0000
;

//---------------dance-single - ----------------
#NOTES:
     dance-single:
     :
     Medium:
     12:
     0.531843,0.543491,0.105936,0.612917,0.015134,492.000000,478.000000,14.000000,81.000000,0.000000,0.000000,0.531843,0.543491,0.105936,0.612917,0.015134,492.000000,478.000000,14.000000,81.000000,0.000000,0.000000:
// measure 0
0000
0000
0000
0000
,  // measure 1
0000
0000
0000
0000
,  // measure 2
0000
0000
0000
0000
,  // measure 3
0000
0000
0000
0000
,  // measure 4
0010
0000
0100
0000
0001
0010
0100
0000
,  // measure 5
1000
0010
0100
0010
1000
0100
0010
0001
,  // measure 6
0100
0000
0010
0000
1000
0100
0010
0000
,  // measure 7
0001
0010
0100
0010
0001
0010
0100
1000
,  // measure 8
0010
0000
0100
0000
0001
1000
0100
0000
,  // measure 9
0010
0001
0010
0100
0010
0001
1000
0010
,  // measure 10
0100
0000
0001
0000
0010
0100
1000
0000
,  // measure 11
1100
0011
0102
0003
,  // measure 12
1000
0100
0010
0100
1000
0100
0010
0100
,  // measure 13
1000
0020
0000
0000
0030
0100
0001
0010
,  // measure 14
0100
0020
0000
0032
0003
0100
0010
2000
,  // measure 15
3000
0100
0010
0100
1000
0010
0100
0001
,  // measure 16
0100
0020
0030
1000
0100
0010
0100
1000
,  // measure 17
0010
0200
0000
0302
0003
0010
0100
0010
,  // measure 18
0001
0100
0020
0030
1000
0100
0010
0002
,  // measure 19
0000
0023
0000
0230
0000
2300
0000
3000
,  // measure 20
0010
0100
0001
0020
0000
0230
0000
2300
,  // measure 21
3000
0100
0010
0001
0100
0020
0000
0030
,  // measure 22
1000
0001
0100
0001
0010
0100
1000
0010
,  // measure 23
0200
0320
2030
3002
,  // measure 24
0103
0010
1000
0020
0000
0230
0000
0302
,  // measure 25
0000
0013
0100
1000
0100
0020
0000
0030
,  // measure 26
0001
0100
0010
2000
0000
3100
0000
0000
,  // measure 27
0022
0033
2100
3000
,  // measure 28
0001
0010
0100
0010
0001
0100
0010
0100
,  // measure 29
0001
0010
0100
1000
0010
1000
0100
0010
,  // measure 30
0001
0100
0010
1000
0010
0100
0001
0010
,  // measure 31
0100
1000
0100
0010
0001
0100
0001
0010
,  // measure 32
0100
0010
0001
0100
0010
1000
0100
0010
,  // measure 33
0001
1000
0100
0020
0000
0000
0000
0130
,  // measure 34
0000
0000
0000
1000
0000
0000
0100
0000
0000
0010
0000
0000
0100
0000
0000
1000
0000
0000
0000
0000
0000
0000
0010
0000
,  // measure 35
0000
0000
0000
0100
0000
0000
0000
0000
0010
0000
0000
0000
2000
0000
0000
0000
0000
0000
3200
0000
0000
0300
0000
0000
,  // measure 36
0010
0001
0100
0010
1000
0100
0010
0100
,  // measure 37
1000
0010
0100
0001
0010
0100
0010
0001
,  // measure 38
0100
0010
1000
0100
0010
0100
1000
0010
,  // measure 39
0100
0001
0100
0010
1000
0100
0010
0001
,  // measure 40
0100
0010
1000
0100
0010
0001
0100
0001
,  // measure 41
0010
0100
1000
0010
0100
0001
0100
0010
,  // measure 42
1000
0100
0010
0001
0100
0010
0100
0002
,  // measure 43
0000
0003
0010
0000
0100
1000
0010
0100
,  // measure 44
0001
0000
1000
0000
0100
0010
0001
0000
,  // measure 45
0100
0010
1000
0100
0010
0100
1000
0010
,  // measure 46
0100
0000
0001
0000
0010
0100
1000
0000
,  // measure 47
0010
0100
0001
0010
0100
0010
0001
1000
,  // measure 48
0010
0000
1000
0000
0100
0010
0001
0000
,  // measure 49
1000
0010
0100
0010
1000
0001
0010
0100
,  // measure 50
0010
0000
0001
0000
0100
0010
1000
0000
,  // measure 51
1010
1100
0012
0003
,  // measure 52
1000
0020
0030
0200
0300
0001
0010
0100
,  // measure 53
0010
0002
0003
0200
0300
0010
1000
0010
,  // measure 54
0100
0002
0003
0020
0030
0100
1000
0100
,  // measure 55
0010
0100
1000
0010
0100
0001
0100
0010
,  // measure 56
0100
0002
0000
0023
0030
0100
0010
0100
,  // measure 57
0010
0002
0000
0103
0000
0001
0100
0010
,  // measure 58
0200
0300
0002
0003
0010
0100
1000
0020
,  // measure 59
0000
0230
0000
0302
0000
0023
0000
0030
,  // measure 60
0200
0000
0000
0000
,  // measure 61
0000
0000
0000
0000
,  // measure 62
2000
0000
3300
0000
,  // measure 63
1100
0000
1001
0000
0101
0000
0120
0030
,  // measure 64
1000
0100
0010
0100
1000
0010
0100
0001
,  // measure 65
0010
0100
0010
0001
1000
0010
0100
0010
,  // measure 66
1000
0100
0010
0001
0010
0100
1000
0010
,  // measure 67
0200
0000
0320
0000
,  // measure 68
2030
3020
0230
0302
,  // measure 69
0023
0230
0320
0032
,  // measure 70
2003
3020
0230
0302
,  // measure 71
0023
0230
0320
0032
,  // measure 72
1003
0010
0200
0300
0001
0010
0200
0300
,  // measure 73
0010
0001
2000
3000
0010
1000
0002
0003
,  // measure 74
0100
0010
2000
3000
0100
0010
0002
0003
,  // measure 75
0100
0000
0000
0000
0010
0000
0000
0000
1000
0000
0000
0000
0100
0000
0000
0000
0000
0000
2100
0000
0000
3000
0000
0000
,  // measure 76
0010
0100
0001
0100
0010
1000
0100
0010
,  // measure 77
0100
1000
0010
0100
0001
0010
0100
0010
,  // measure 78
0001
0100
0010
1000
0100
0010
0001
0100
,  // measure 79
0001
0010
0100
1000
0010
1000
0100
1000
,  // measure 80
0010
0100
0001
0010
0100
0010
0001
1000
,  // measure 81
0010
0100
0001
0010
0100
1000
0010
0100
,  // measure 82
0001
0100
0010
1000
0100
0010
0001
0020
,  // measure 83
0000
0030
0200
0300
1000
0010
0000
2002
,  // measure 84
0000
0000
3003
0000
;

//---------------dance-single - ----------------
#NOTES:
     dance-single:
     :
     Easy:
     5:
     0.324295,0.319700,0.015134,0.143771,0.000000,300.000000,298.000000,2.000000,19.000000,0.000000,0.000000,0.324295,0.319700,0.015134,0.143771,0.000000,300.000000,298.000000,2.000000,19.000000,0.000000,0.000000:
0000
0000
0000
0000
,
0000
0000
0000
0000
,
0000
0000
0000
0000
,
0000
0000
0000
0000
,
0010
0100
0001
0010
,
0100
0000
0010
0000
0001
0000
0100
0010
,
0100
0010
1000
0100
,
0010
0000
0100
0000
1000
0000
0010
0100
,
0010
0100
0001
0010
,
0100
0000
1000
0000
0001
0000
0010
0001
,
0010
0001
0100
0010
,
2000
3200
0320
0030
,
0001
1000
0010
0100
,
0010
1000
0001
0010
,
0100
0010
0001
0100
,
0010
0000
1000
0000
0100
0000
1000
0100
,
1000
0001
0100
0010
,
1000
0000
0100
0000
0010
0000
0001
0010
,
0001
0010
0100
1000
,
0001
0100
0010
1000
,
0100
1000
0010
0100
,
0001
0100
0010
1000
,
0100
0010
0001
0000
,
0110
0000
0110
0000
,
0001
1000
0100
0010
,
0001
1000
0010
1000
,
0100
0010
0001
0010
,
0200
0300
2000
3000
,
0001
1000
0000
0000
0010
0100
0000
0000
,
0001
1000
0010
1000
,
0100
0010
0001
0010
,
0100
1000
0010
0100
,
0001
0100
0000
0000
0010
1000
0000
0000
,
0100
1000
0001
0010
,
0100
0010
0001
1000
,
0020
0030
0020
0030
,
0100
0001
0000
0000
1000
0010
0000
0000
,
1000
0100
0010
0100
,
1000
0010
0100
0001
,
0100
0010
0100
0001
,
0010
0100
0000
0000
1000
0100
0000
0000
,
0010
0100
0010
0001
,
0100
0010
1000
0100
,
2000
0000
3002
0003
,
0100
0010
1000
0100
,
0010
0000
0100
0000
1000
0000
0100
1000
,
0100
0010
0001
0100
,
0010
0000
0100
0000
0001
0000
0010
0001
,
0010
0100
1000
0010
,
0100
0000
0001
0000
0010
0000
0100
0010
,
0100
1000
0010
0100
,
0020
0230
0302
0003
,
0010
0100
1000
0100
,
0010
0001
0100
0010
,
0100
0001
0010
0100
,
1000
0100
0010
0001
,
0100
0010
1000
0100
,
0010
0001
0010
0100
,
1000
0010
0100
0001
,
0010
0100
2000
3000
,
0200
0000
0000
0000
,
0000
0000
0300
0000
,
0020
0000
0030
0000
,
0100
1000
0010
0100
,
0001
0010
0100
0010
,
0001
0100
0010
1000
,
0100
0010
0100
1000
,
0020
0000
0000
0030
,
0100
0100
0010
0010
,
1000
1000
0100
0100
,
0010
0010
0001
0001
,
0010
0010
0100
0100
,
1000
0010
0100
0010
,
1000
0010
0100
0001
,
0010
0100
1000
0100
,
0020
0030
0002
0003
,
0100
0001
0000
0000
1000
0100
0000
0000
,
0010
0001
0100
0010
,
0100
0001
0010
0100
,
1000
0010
0100
0001
,
1000
0100
0000
0000
0100
0010
0000
0000
,
0001
0100
0010
1000
,
0100
0010
0100
1000
,
0020
0000
0000
0000
,
0000
0000
0030
0000
;

//---------------dance-single - ----------------
#NOTES:
     dance-single:
     :
     Beginner:
     4:
     0.204306,0.287730,0.030267,0.204306,0.000000,189.000000,185.000000,4.000000,27.000000,0.000000,0.000000,0.204306,0.287730,0.030267,0.204306,0.000000,189.000000,185.000000,4.000000,27.000000,0.000000,0.000000:
0000
0000
0000
0000
,
0000
0000
0000
0000
,
0000
0000
0000
0000
,
0000
0000
0000
0000
,
1000
1000
0100
0000
,
0010
0010
0001
0000
,
0001
0001
0100
0000
,
0010
0010
1000
0000
,
1000
1000
0100
0000
,
0010
0010
0100
0100
,
0010
0010
0001
0000
,
0100
0100
0200
0300
,
0010
0000
1000
0000
,
0100
0000
0010
0000
,
0100
0000
1000
0000
,
0001
0000
0100
0000
,
0001
0000
0010
0000
,
0100
0000
0010
0000
,
0001
0000
0100
0000
,
0010
0010
0020
0030
,
1000
0000
0001
0000
,
0100
0000
0001
0000
,
1000
0000
0100
0000
,
0010
0010
0020
0030
,
0100
0000
0001
0000
,
0010
0000
0001
0000
,
0100
0000
0010
0000
,
2000
3000
0002
0003
,
0001
0001
1000
1000
,
0002
0003
0200
0300
,
0010
0000
1000
0000
,
0100
0000
0010
0000
,
0100
0100
0010
0010
,
0200
0300
0020
0030
,
0002
0003
0000
0000
,
1001
0000
1001
0000
,
0001
0001
1000
1000
,
0200
0300
0200
0300
,
0010
0000
0100
0000
,
1000
0000
0010
0000
,
0100
0100
0001
0001
,
0200
0300
0002
0003
,
0010
0000
0100
0000
,
0020
0000
0030
0000
,
0001
0001
0100
0000
,
0100
0100
0010
0000
,
0010
0010
1000
0000
,
1000
1000
0100
0000
,
0010
0010
0100
0000
,
0100
0100
1000
0000
,
1000
1000
0001
0000
,
0001
0001
0002
0003
,
0100
0000
0001
0000
,
0010
0000
0100
0000
,
1000
0000
0100
0000
,
0010
0000
0001
0000
,
0100
0000
0010
0000
,
1000
0000
0010
0000
,
0100
0000
0001
0000
,
0100
0000
0010
0000
,
2000
0000
0000
0000
,
0000
0000
3000
0000
,
0002
0000
0003
0000
,
0001
0001
0002
0003
,
0100
0000
0010
0000
,
1000
0000
0100
0000
,
0010
0000
0100
0000
,
2000
0000
3000
0000
,
0020
0030
0010
0000
,
0200
0300
0100
0000
,
0002
0003
0001
0000
,
2000
3000
1000
0000
,
0100
0000
0010
0000
,
0001
0000
0100
0000
,
0020
0030
0000
0000
,
0110
0000
0000
0000
,
1000
0001
1000
0000
,
0001
1000
0001
0000
,
0010
0100
0010
0000
,
0100
0010
0100
0000
,
1000
0100
1000
0000
,
0001
0100
0001
0000
,
0010
0001
0010
0000
,
0220
0000
0000
0000
,
0000
0000
0330
0000
;
