#VERSION:0.83;
#TITLE:Particle Shooter;
#SUBTITLE:;
#ARTIST:Kobaryo;
#TITLETRANSLIT:;
#SUBTITLETRANSLIT:;
#ARTISTTRANSLIT:;
#GENRE:;
#ORIGIN:;
#CREDIT:;
#BANNER:;
#BACKGROUND:;
#PREVIEWVID:;
#JACKET:;
#CDIMAGE:;
#DISCIMAGE:;
#LYRICSPATH:;
#CDTITLE:;
#MUSIC:particleshooter.ogg;
#OFFSET:0.000000;
#SAMPLESTART:37.757999;
#SAMPLELENGTH:12.000000;
#SELECTABLE:YES;
#BPMS:0.000=133.500,
68.000=267.000,
68.333=66.750,
68.500=133.500,
72.000=267.000,
72.333=66.750,
72.500=133.500,
76.000=267.000,
76.250=89.000,
76.500=133.500,
78.000=267.000,
78.250=89.000,
78.500=133.500,
80.000=267.000,
80.167=100.125,
80.500=133.500,
81.000=267.000,
81.167=100.125,
81.500=133.500,
84.000=267.450,
148.000=133.500,
212.000=267.000,
308.000=133.500,
372.000=267.000,
372.333=66.750,
372.500=133.500,
376.000=267.000,
376.333=66.750,
376.500=133.500,
380.000=267.000,
380.250=89.000,
380.500=133.500,
382.000=267.000,
382.250=89.000,
382.500=133.500,
384.000=267.000,
384.167=100.125,
384.500=133.500,
385.000=267.000,
385.167=100.125,
385.500=133.500,
388.000=514.000,
404.000=133.500;
#STOPS:;
#DELAYS:;
#WARPS:;
#TIMESIGNATURES:0.000=4=4;
#TICKCOUNTS:0.000=4;
#COMBOS:0.000=1;
#SPEEDS:0.000=1.000=0.000=0;
#SCROLLS:0.000=1.000,
276.000=1.500,
304.000=1.000;
#FAKES:;
#LABELS:0.000=Song Start;
#BGCHANGES:;
#KEYSOUNDS:;
#ATTACKS:
;

//---------------dance-single - ----------------
#NOTEDATA:;
#CHARTNAME:;
#STEPSTYPE:dance-single;
#DESCRIPTION:;
#CHARTSTYLE:Pad;
#DIFFICULTY:Challenge;
#METER:18;
#RADARVALUES:0.908337,1.242027,0.620161,0.429343,0.456602,933.000000,842.000000,91.000000,63.000000,0.000000,0.000000,0.000000,0.000000,0.000000,0.908337,1.242027,0.620161,0.429343,0.456602,933.000000,842.000000,91.000000,63.000000,0.000000,0.000000,0.000000,0.000000,0.000000;
#CREDIT:Mozata;
#NOTES:
0000
0000
0000
0000
,
1000
0000
0100
0000
0010
0000
0100
1000
0000
0100
0010
0000
0100
0000
1000
0000
,
0001
0000
0100
0000
0010
0000
0100
0001
0000
0100
0010
0000
0100
0000
0001
0000
,
0100
0000
0001
0000
0010
0000
0001
0100
0000
0001
0010
0000
0100
0000
1000
0000
,
0100
0000
1000
0000
0010
0000
1000
0100
0000
1000
0010
0000
0100
0000
0001
0000
,
1000
0000
0001
0000
0010
0000
0001
1000
0000
0001
0010
0000
0001
0000
1000
0000
,
0100
0000
1000
0000
0010
0000
1000
0100
0000
1000
0010
0000
1000
0000
1000
0000
,
0001
0000
1000
0000
0010
0000
1000
0001
0000
1000
0010
0000
1000
0000
0001
0000
,
0100
0000
0001
0000
0010
0000
0100
1000
0000
0010
1000
0000
0001
0000
0100
1000
,
0100
0000
0010
0000
1000
0000
0010
0001
0000
0000
0010
0000
1000
0000
0010
0000
,
0100
0000
1000
0000
0001
0000
1000
0100
0000
0000
0001
0000
1000
0000
0001
0000
,
0010
0000
1000
0000
0001
0000
1000
0010
0000
0000
0001
0000
1000
0000
0001
0000
,
0100
0000
0010
0000
1000
0000
0001
0010
0000
0000
0001
0000
1000
0000
1000
0000
,
1010
1000
0100
0001
1000
0001
0100
1000
,
0001
1000
0010
0001
1000
0001
0010
1000
,
0100
1000
0010
1000
0001
0010
0001
0100
1000
0100
0001
0010
1000
0010
0001
0100
,
0000
0000
0000
0100
0000
0000
0000
0000
0000
0010
0000
0000
1000
0000
0100
0000
1000
0000
0100
0000
0000
0010
0000
0000
0001
0000
0100
0000
0001
0000
0100
0000
0000
0010
0000
0000
1000
0000
0001
0000
1000
0000
0001
0000
1000
0000
0001
0000
,
2002
3003
0000
0000
0000
0000
0000
0000
0000
0000
0000
0000
0000
0000
0000
0000
0000
0000
0000
0000
0000
0000
0000
0000
0100
0000
0000
0000
0000
0000
0000
0000
0000
0000
0000
0000
0000
0000
0000
0000
0000
0000
0000
0000
0000
0000
0000
0000
0100
0000
0000
0000
0000
0000
0000
0000
0000
0000
0000
0000
0000
0000
0000
0000
0000
0000
0000
0000
0000
0000
0000
0000
0100
0000
0000
0000
0000
0000
0000
0000
0000
0000
0000
0000
0000
0000
0000
0000
0000
0000
0000
0000
0000
0000
0000
0000
0100
0000
0000
0000
0000
0000
0000
0000
0000
0000
0000
0000
0000
0000
0000
0000
0000
0000
0000
0000
0000
0000
0000
0000
0100
0000
0000
0000
0000
0000
0000
0000
0000
0000
0000
0000
0000
0000
0000
0000
0000
0000
0000
0000
0000
0000
0000
0000
0100
0000
0000
0000
0000
0000
0000
0000
0000
0000
0000
0000
0000
0000
0000
0000
0000
0000
0000
0000
0000
0000
0000
0000
0100
0000
0000
0000
0000
0000
0000
0000
0000
0000
0000
0000
0000
0000
0000
0000
0000
0000
0000
0000
0000
0000
0000
0000
,
2002
3003
0000
0000
0000
0000
0000
0000
0000
0000
0000
0000
0000
0000
0000
0000
0000
0000
0000
0000
0000
0000
0000
0000
0010
0000
0000
0000
0000
0000
0000
0000
0000
0000
0000
0000
0000
0000
0000
0000
0000
0000
0000
0000
0000
0000
0000
0000
0010
0000
0000
0000
0000
0000
0000
0000
0000
0000
0000
0000
0000
0000
0000
0000
0000
0000
0000
0000
0000
0000
0000
0000
0010
0000
0000
0000
0000
0000
0000
0000
0000
0000
0000
0000
0000
0000
0000
0000
0000
0000
0000
0000
0000
0000
0000
0000
0010
0000
0000
0000
0000
0000
0000
0000
0000
0000
0000
0000
0000
0000
0000
0000
0000
0000
0000
0000
0000
0000
0000
0000
0010
0000
0000
0000
0000
0000
0000
0000
0000
0000
0000
0000
0000
0000
0000
0000
0000
0000
0000
0000
0000
0000
0000
0000
0010
0000
0000
0000
0000
0000
0000
0000
0000
0000
0000
0000
0000
0000
0000
0000
0000
0000
0000
0000
0000
0000
0000
0000
0010
0000
0000
0000
0000
0000
0000
0000
0000
0000
0000
0000
0000
0000
0000
0000
0000
0000
0000
0000
0000
0000
0000
0000
,
2200
3300
0000
0000
0000
0000
0000
0000
0000
0000
0000
0000
0000
0000
0000
0000
0000
0000
0000
0000
0000
0000
0000
0000
0001
0000
0000
0000
0000
0000
0000
0000
0000
0000
0000
0000
0000
0000
0000
0000
0000
0000
0000
0000
0000
0000
0000
0000
0001
0000
0000
0000
0000
0000
0000
0000
0000
0000
0000
0000
0000
0000
0000
0000
0000
0000
0000
0000
0000
0000
0000
0000
0001
0000
0000
0000
0000
0000
0000
0000
0000
0000
0000
0000
0000
0000
0000
0000
0000
0000
0000
0000
0000
0000
0000
0000
0202
0303
0000
0000
0000
0000
0000
0000
0000
0000
0000
0000
0000
0000
0000
0000
0000
0000
0000
0000
0000
0000
0000
0000
1000
0000
0000
0000
0000
0000
0000
0000
0000
0000
0000
0000
0000
0000
0000
0000
0000
0000
0000
0000
0000
0000
0000
0000
1000
0000
0000
0000
0000
0000
0000
0000
0000
0000
0000
0000
0000
0000
0000
0000
0000
0000
0000
0000
0000
0000
0000
0000
1000
0000
0000
0000
0000
0000
0000
0000
0000
0000
0000
0000
0000
0000
0000
0000
0000
0000
0000
0000
0000
0000
0000
0000
,
2020
3030
0000
0000
0000
0000
0000
0000
0000
0000
0000
0000
0000
0000
0000
0000
0000
0000
0000
0000
0000
0000
0000
0000
0001
0000
0000
0000
0000
0000
0000
0000
0000
0000
0000
0000
0000
0000
0000
0000
0000
0000
0000
0000
0000
0000
0000
0000
0022
0033
0000
0000
0000
0000
0000
0000
0000
0000
0000
0000
0000
0000
0000
0000
0000
0000
0000
0000
0000
0000
0000
0000
1000
0000
0000
0000
0000
0000
0000
0000
0000
0000
0000
0000
0000
0000
0000
0000
0000
0000
0000
0000
0000
0000
0000
0000
0110
0000
0000
0000
0000
0000
0000
0000
0000
0000
0000
0000
0000
0000
0000
0000
0000
0000
0000
0000
0000
0000
0000
0000
0101
0000
0000
0000
0000
0000
0000
0000
0000
0000
0000
0000
0000
0000
0000
0000
0000
0000
0000
0000
0000
0000
0000
0000
0011
0000
0000
0000
0000
0000
0000
0000
0000
0000
0000
0000
0000
0000
0000
0000
0000
0000
0000
0000
0000
0000
0000
0000
1010
0000
0000
0000
0000
0000
0000
0000
0000
0000
0000
0000
0000
0000
0000
0000
0000
0000
0000
0000
0000
0000
0000
0000
,
1000
0100
0001
1000
0010
0001
0100
0110
,
0000
1000
0100
0010
0001
0010
0001
0100
,
0001
0100
1000
0001
0010
1000
0100
1000
,
1100
1000
0001
0011
0000
0011
0001
0000
,
1000
0100
1000
0001
0100
0001
0010
0110
,
0000
0001
0010
0100
1000
0010
0001
0010
,
1000
0100
0001
1000
0010
0001
0100
0010
,
1010
0010
1000
0001
0011
0001
0010
0000
,
1001
0100
0010
1000
0100
0010
0001
1001
,
0000
0100
0010
0100
0001
0010
1000
0010
,
0001
0100
1000
0001
0010
1000
0100
0010
,
0011
0001
1000
1010
0000
1010
1000
0000
,
0100
0001
0100
1000
0010
0100
0001
0101
,
0000
1000
0100
1000
0010
1000
0100
0010
,
0100
0001
0100
1000
0001
0100
1000
0100
,
0202
0303
0000
2020
3030
0000
2200
3300
0000
0022
0033
0000
,
1001
0000
0100
0000
0100
0000
0100
0010
0000
0000
0100
0000
0010
0000
0100
0000
,
0001
0000
0100
0000
1000
0000
0100
0010
0000
0000
1000
0000
0001
0000
1000
0000
,
0100
0000
0010
0000
0001
0000
0010
1000
0000
0000
0010
0000
0001
0000
1000
0000
,
0010
0000
0001
0000
0010
0000
1000
0001
0000
0000
0100
0000
1000
0000
0100
0000
,
0210
0000
0001
0000
0010
0000
0310
0100
0000
0000
0001
0000
0010
0000
0100
0000
,
1000
0000
0100
0000
0001
0000
0100
1000
0000
0000
0001
0000
0010
0000
1000
0000
,
0010
0000
0001
0000
0100
0000
0010
1000
0000
0000
0100
0000
0010
0000
1000
0000
,
0010
0000
0001
0000
0100
0000
1000
0100
0000
0000
0001
0000
0010
0000
0100
0000
,
1000
1100
0100
0101
0100
1100
0100
0110
,
0010
0011
0010
1010
0010
0110
0010
0011
,
0001
1001
0001
0101
0001
1001
0001
0011
,
0001
1001
1000
1100
1000
1010
1000
1100
,
0100
0101
0100
1100
0100
0110
0100
1100
,
0010
0011
0010
0110
0010
0011
0001
1001
,
0001
0101
0100
0110
0100
1010
0100
0011
,
0010
1100
0010
0101
1000
1010
0001
1001
,
1000
0100
0010
0100
0001
0100
1000
0100
,
0010
0100
0001
0100
1000
0001
0100
0010
,
0000
0100
0001
0100
0010
0100
1000
0100
,
0001
0100
0010
0100
1000
0001
0010
1000
,
0000
0100
0010
0100
0001
0100
1000
0100
,
0010
0100
0001
0100
1000
0001
0010
0100
,
0000
0100
0010
0100
0001
0100
1000
1100
,
0000
1100
1000
0100
0001
0000
1100
0000
,
0100
1000
0100
1000
0001
0010
0001
0010
,
0100
0001
0100
0001
0100
0000
1000
0001
,
0100
0001
0100
0001
1000
0010
1000
0010
,
0100
1000
0100
1000
0100
0000
0001
0010
,
0100
1000
0100
1000
0010
0100
0010
0100
,
1000
0100
1000
0100
0001
0000
0100
0001
,
1000
0010
1000
0010
0100
0010
0100
0010
,
0101
0000
0101
0000
0110
0010
1010
0000
,
1000
0010
1000
0010
1000
0010
0100
0010
0100
0010
0100
0010
,
0001
0000
0010
0000
0001
0000
0010
0000
0001
0000
0010
0000
1000
0000
0000
0000
0000
0000
0001
0000
0000
1000
0000
0000
,
0001
0010
0001
0010
0001
0010
0100
0010
0100
0010
0100
0010
,
1000
0000
0010
0000
1000
0000
0010
0000
1000
0000
0010
0000
0001
0000
0000
0000
0000
0000
1000
0000
0000
0100
0000
0000
,
1000
0100
1000
0100
1000
0100
0010
0100
0010
0100
0010
0100
,
0001
0000
0100
0000
0001
0000
0100
0000
0001
0000
0100
0000
1000
0000
0000
0000
0000
0000
0001
0000
0000
0100
0000
0000
,
0001
0100
0001
0100
0001
0100
0010
0100
0010
0100
0010
0100
,
1000
0000
0100
0000
0001
0010
0001
0001
,
2001
0000
0010
0000
3001
0000
0002
0000
0010
0000
2003
0000
3100
0000
1000
0010
,
0000
2000
0010
0000
0001
0000
3002
0000
0010
0000
1000
0000
0203
0000
0310
1000
,
0000
0200
1000
0000
0310
0000
0200
0000
0010
0000
1300
0000
0001
0000
1000
0001
,
0000
0200
0010
0000
0301
0100
0001
0100
0000
0010
0200
0000
1000
0000
0301
0000
,
1002
0000
0100
0000
1000
0000
2003
0000
0100
0000
0001
0000
3001
0000
1000
0001
,
0000
2000
0100
0000
0001
0000
3002
0000
0100
0000
1000
0000
1003
0000
0100
0010
,
0000
0002
0010
0000
2003
0000
3200
0000
0310
0000
0001
0000
1000
0000
0001
0010
,
0000
0100
0020
0000
0031
0010
0001
0100
0000
0010
0200
0000
1000
0000
0301
0000
,
0101
0010
0100
0010
0100
0010
2000
3010
,
0001
0000
0010
2000
0000
0000
3100
0000
0010
0000
0100
0000
1000
0000
0100
0000
,
0010
0000
0001
2000
0000
0000
3001
0000
0010
0000
0001
0000
0200
0000
0320
0000
,
2030
0000
0000
3200
0000
0000
2300
0000
3002
0000
0000
0000
0103
0000
0000
0000
,
1001
0001
0011
0010
0110
0010
0011
0010
,
1001
1000
1100
1000
1010
1000
1100
1000
,
0010
0100
0010
0100
0001
0010
0001
0010
1000
0010
1000
0010
0001
0100
0001
0100
,
0000
0000
0000
0100
0000
0000
0000
0000
0000
0100
0000
0000
0001
0000
0010
0000
0001
0000
0010
0000
0000
0100
0000
0000
1000
0000
0010
0000
1000
0000
0010
0000
0000
0100
0000
0000
0001
0000
1000
0000
0001
0000
1000
0000
0001
0000
1000
0000
,
2002
3003
0000
0000
0000
0000
0000
0000
0000
0000
0000
0000
0000
0000
0000
0000
0000
0000
0000
0000
0000
0000
0000
0000
0100
0000
0000
0000
0000
0000
0000
0000
0000
0000
0000
0000
0000
0000
0000
0000
0000
0000
0000
0000
0000
0000
0000
0000
0100
0000
0000
0000
0000
0000
0000
0000
0000
0000
0000
0000
0000
0000
0000
0000
0000
0000
0000
0000
0000
0000
0000
0000
0100
0000
0000
0000
0000
0000
0000
0000
0000
0000
0000
0000
0000
0000
0000
0000
0000
0000
0000
0000
0000
0000
0000
0000
0100
0000
0000
0000
0000
0000
0000
0000
0000
0000
0000
0000
0000
0000
0000
0000
0000
0000
0000
0000
0000
0000
0000
0000
0100
0000
0000
0000
0000
0000
0000
0000
0000
0000
0000
0000
0000
0000
0000
0000
0000
0000
0000
0000
0000
0000
0000
0000
0100
0000
0000
0000
0000
0000
0000
0000
0000
0000
0000
0000
0000
0000
0000
0000
0000
0000
0000
0000
0000
0000
0000
0000
0100
0000
0000
0000
0000
0000
0000
0000
0000
0000
0000
0000
0000
0000
0000
0000
0000
0000
0000
0000
0000
0000
0000
0000
,
2002
3003
0000
0000
0000
0000
0000
0000
0000
0000
0000
0000
0000
0000
0000
0000
0000
0000
0000
0000
0000
0000
0000
0000
0010
0000
0000
0000
0000
0000
0000
0000
0000
0000
0000
0000
0000
0000
0000
0000
0000
0000
0000
0000
0000
0000
0000
0000
0010
0000
0000
0000
0000
0000
0000
0000
0000
0000
0000
0000
0000
0000
0000
0000
0000
0000
0000
0000
0000
0000
0000
0000
0010
0000
0000
0000
0000
0000
0000
0000
0000
0000
0000
0000
0000
0000
0000
0000
0000
0000
0000
0000
0000
0000
0000
0000
0010
0000
0000
0000
0000
0000
0000
0000
0000
0000
0000
0000
0000
0000
0000
0000
0000
0000
0000
0000
0000
0000
0000
0000
0010
0000
0000
0000
0000
0000
0000
0000
0000
0000
0000
0000
0000
0000
0000
0000
0000
0000
0000
0000
0000
0000
0000
0000
0010
0000
0000
0000
0000
0000
0000
0000
0000
0000
0000
0000
0000
0000
0000
0000
0000
0000
0000
0000
0000
0000
0000
0000
0010
0000
0000
0000
0000
0000
0000
0000
0000
0000
0000
0000
0000
0000
0000
0000
0000
0000
0000
0000
0000
0000
0000
0000
,
0202
0303
0000
0000
0000
0000
0000
0000
0000
0000
0000
0000
0000
0000
0000
0000
0000
0000
0000
0000
0000
0000
0000
0000
0010
0000
0000
0000
0000
0000
0000
0000
0000
0000
0000
0000
0000
0000
0000
0000
0000
0000
0000
0000
0000
0000
0000
0000
0010
0000
0000
0000
0000
0000
0000
0000
0000
0000
0000
0000
0000
0000
0000
0000
0000
0000
0000
0000
0000
0000
0000
0000
0010
0000
0000
0000
0000
0000
0000
0000
0000
0000
0000
0000
0000
0000
0000
0000
0000
0000
0000
0000
0000
0000
0000
0000
2200
3300
0000
0000
0000
0000
0000
0000
0000
0000
0000
0000
0000
0000
0000
0000
0000
0000
0000
0000
0000
0000
0000
0000
1000
0000
0000
0000
0000
0000
0000
0000
0000
0000
0000
0000
0000
0000
0000
0000
0000
0000
0000
0000
0000
0000
0000
0000
1000
0000
0000
0000
0000
0000
0000
0000
0000
0000
0000
0000
0000
0000
0000
0000
0000
0000
0000
0000
0000
0000
0000
0000
1000
0000
0000
0000
0000
0000
0000
0000
0000
0000
0000
0000
0000
0000
0000
0000
0000
0000
0000
0000
0000
0000
0000
0000
,
0202
0303
0000
0000
0000
0000
0000
0000
0000
0000
0000
0000
0000
0000
0000
0000
0000
0000
0000
0000
0000
0000
0000
0000
0001
0000
0000
0000
0000
0000
0000
0000
0000
0000
0000
0000
0000
0000
0000
0000
0000
0000
0000
0000
0000
0000
0000
0000
0022
0033
0000
0000
0000
0000
0000
0000
0000
0000
0000
0000
0000
0000
0000
0000
0000
0000
0000
0000
0000
0000
0000
0000
0001
0000
0000
0000
0000
0000
0000
0000
0000
0000
0000
0000
0000
0000
0000
0000
0000
0000
0000
0000
0000
0000
0000
0000
0110
0000
0000
0000
0000
0000
0000
0000
0000
0000
0000
0000
0000
0000
0000
0000
0000
0000
0000
0000
0000
0000
0000
0000
1100
0000
0000
0000
0000
0000
0000
0000
0000
0000
0000
0000
0000
0000
0000
0000
0000
0000
0000
0000
0000
0000
0000
0000
1001
0000
0000
0000
0000
0000
0000
0000
0000
0000
0000
0000
0000
0000
0000
0000
0000
0000
0000
0000
0000
0000
0000
0000
0011
0000
0000
0000
0000
0000
0000
0000
0000
0000
0000
0000
0000
0000
0000
0000
0000
0000
0000
0000
0000
0000
0000
0000
,
0010
0001
0010
0001
0010
0001
0010
0001
,
1000
0010
1000
0010
1000
0010
1000
0010
,
0001
1000
0001
0010
1000
0100
0001
1000
,
0001
0100
1000
0001
1000
0000
2002
0000
,
0000
3003
0000
0000
;

//---------------dance-single - ----------------
#NOTEDATA:;
#CHARTNAME:;
#STEPSTYPE:dance-single;
#DESCRIPTION:;
#CHARTSTYLE:;
#DIFFICULTY:Hard;
#METER:16;
#RADARVALUES:0.743804,0.966021,0.415713,0.163559,0.279413,764.000000,703.000000,61.000000,24.000000,0.000000,0.000000,0.000000,0.000000,0.000000,0.743804,0.966021,0.415713,0.163559,0.279413,764.000000,703.000000,61.000000,24.000000,0.000000,0.000000,0.000000,0.000000,0.000000;
#CREDIT:;
#NOTES:
0000
0000
0000
0000
,
0100
0000
0100
0000
0010
0000
0100
0001
0000
0100
0010
0000
1000
0000
0100
0000
,
0010
0000
0100
0000
0010
0000
0100
1000
0000
0100
0010
0000
0100
0000
0010
0000
,
0001
0000
0100
0000
0010
0000
0100
0001
0000
0100
0010
0000
1000
0000
0100
0000
,
0010
0000
0100
0000
0010
0000
0100
1000
0000
0100
0010
0000
0100
0000
0010
0000
,
0001
0000
0100
0000
1000
0000
0100
0001
0000
0001
1000
0000
1000
0000
0100
0000
,
1000
0000
0100
0000
0001
0000
0100
1000
0000
1000
0001
0000
0100
0000
0001
0000
,
1000
0000
0100
0000
0010
0000
0100
1000
0000
0100
0010
0000
0100
0000
0010
0000
,
0001
0000
0100
0000
0010
0000
0100
0001
0000
0001
1000
0000
0010
0000
0100
0000
,
0001
0000
0010
0000
1000
0000
0010
0001
0000
0000
1000
0000
0001
0000
1000
0000
,
0001
0000
0100
0000
1000
0000
0100
0001
0000
0000
0010
0000
0100
0000
1000
0000
,
1000
0000
0100
0000
0001
0000
0100
1000
0000
0000
0001
0000
1000
0000
0001
0000
,
1000
0000
0010
0000
0001
0000
0010
1000
0000
0000
0010
0000
0100
0000
0100
0000
,
0001
0010
0001
0010
0100
0010
0100
0010
,
0001
1000
0001
1000
0010
1000
0010
1000
,
0001
0100
0001
0100
0001
1000
0001
1000
0001
0010
0001
0010
0100
0010
0100
1000
,
0000
1000
0000
0100
0020
0000
0031
0100
0020
0000
1030
0100
0020
0000
0031
0000
,
1001
0000
0000
0000
,
1100
0000
0000
0000
,
0101
0000
0011
0000
,
1010
0000
0110
0000
0101
0100
0001
0010
,
0100
1000
0010
0100
0001
0010
0001
1000
,
0000
0000
1000
0001
0010
0100
0010
0001
,
1000
0100
0010
0001
0010
0100
1000
0010
,
1010
0000
0001
0011
0000
1000
1010
0000
,
1000
0100
0010
0100
1000
0100
0010
0001
,
0000
0000
0100
0010
0100
0010
1000
0001
,
0010
0100
1000
0010
0100
0001
1000
0001
,
1001
1001
0110
0110
,
0001
0100
0010
0100
0001
0100
0010
1000
,
0000
0000
0100
0010
0001
0000
1000
0100
,
0001
0100
1000
0100
0010
0100
1000
0000
,
1100
0000
0001
0101
0000
1000
1100
0000
,
0010
0100
0001
0010
0001
0100
0010
1000
,
0000
0000
0001
1000
0001
0000
0001
0100
,
1000
0100
0001
0010
1000
0010
0001
0100
,
0110
0110
1010
0011
,
1000
0000
0100
0000
1000
0000
0010
1000
0000
0000
0001
0000
1000
0000
1000
0000
,
0001
0000
0100
0000
0001
0000
0010
0001
0000
0000
1000
0000
0001
0000
0001
0000
,
0100
0000
0010
0000
0100
0000
0001
0100
0000
0000
0010
0000
1000
0000
0100
0000
,
0010
0000
0100
0000
0010
0000
0001
0010
0000
0000
0100
0000
1000
0000
0001
0000
,
2000
0000
0001
0000
3001
0000
0100
0001
0000
0000
1000
0000
0010
0000
1000
0000
,
0100
0000
1000
0000
0100
0000
0010
0001
0000
0000
0010
0000
0001
0000
0010
0000
,
0100
0000
0010
0000
0001
0000
0100
0010
0000
0000
1000
0000
0100
0000
0010
0000
,
0001
0000
0010
0000
0100
0000
1000
0010
0000
0000
0100
0000
0001
0000
0010
0000
,
1000
0010
0001
0010
1000
0010
0001
0100
,
1000
0100
0001
0100
1000
0100
0001
1000
,
0100
0001
0100
1000
0100
0001
0100
1000
,
0010
0001
0010
1000
0010
0001
0010
1000
,
0100
1000
0010
1000
0100
1000
0010
0100
,
0001
0010
0001
0100
0001
0010
0001
0100
,
0100
0010
1000
0100
1000
0010
1000
0100
,
1000
0001
0100
0001
0010
0001
0100
0001
,
1000
1010
0011
0001
,
0011
0000
1010
0000
0100
0010
0001
1000
,
0000
0100
0110
0000
0101
0000
1000
0000
,
0100
0001
0100
1000
0001
0100
1000
0100
,
0000
0001
0011
0000
0110
0000
0100
0000
,
1010
0000
0110
0000
0001
1000
0100
1000
,
0000
0100
1100
0000
0010
0001
0010
0001
,
0000
0001
1000
0010
1001
0000
1100
0000
,
0001
0010
0100
1000
0010
0100
0001
0010
,
0100
1000
0010
0100
0001
0000
1001
0000
,
0100
0001
0010
0100
1000
0010
0100
0001
,
0010
0100
1000
0010
0100
0000
0110
0000
,
0001
0100
1000
0001
0010
1000
0001
0100
,
1000
0001
0010
1000
0001
0000
1010
0000
,
1000
0100
0001
1000
0010
0001
1000
0100
,
0110
0110
0011
0011
,
0001
0010
0100
1000
0010
0100
1000
0100
,
0010
1000
0100
0010
0001
0000
1100
0000
,
1000
0010
0100
0001
0010
0100
0001
0100
,
0010
0001
0100
0010
1000
0000
1010
0000
,
0001
0010
0100
0001
0100
1000
0010
0001
,
1000
0100
0001
1000
0100
0000
0011
0000
,
0001
0010
1000
0001
1000
0010
0001
1000
,
0100
0100
2000
3001
,
1002
0000
1000
0000
0103
0000
0000
0000
0010
0000
0100
0000
0001
0000
1000
0001
,
0000
2000
0001
0000
3100
0000
0000
0000
0010
0000
0100
0000
1000
0000
0001
0100
,
0000
0200
0010
0000
0301
0000
0000
0000
1000
0000
0001
0000
0010
0000
0100
1000
,
0000
0000
0100
0000
1000
0100
0010
0001
0000
1000
0001
0000
0010
0000
0100
0000
,
2000
0000
0001
0000
3100
0000
0000
0000
0010
0000
0001
0000
0100
0000
0010
1000
,
0000
0002
1000
0000
0103
0000
0000
0000
0100
0000
0010
0000
1000
0000
0001
0100
,
0000
0020
1000
0000
0130
0000
0000
0000
0010
0000
0100
0000
0001
0000
0010
0001
,
0000
1000
0010
0000
0010
0000
0100
0001
0000
1000
0100
0000
0100
0000
0010
0000
,
1002
1000
1003
0000
0210
0010
0310
0000
,
2100
0000
0100
0000
0100
3000
0000
0000
0102
0000
0100
0000
0103
0000
0000
0000
,
2010
0010
3001
0000
0210
0001
0310
0000
,
2100
0001
3010
0000
0201
0010
1300
0000
,
0001
0100
0010
1000
0100
0010
0001
0010
,
0100
1000
0010
0100
0001
0010
0100
1000
,
0010
1000
0010
1000
0010
0100
0010
0100
0001
0100
0001
0100
0010
1000
0100
0010
,
0000
0010
0000
0001
0200
0000
0310
1000
0200
0000
0310
0001
0200
0000
0310
0000
,
1001
0000
0000
0000
,
0011
0000
0000
0000
,
1100
0000
0110
0000
,
1010
0000
0101
0000
1001
0010
0100
1000
,
0001
0000
1000
0000
0001
0000
1000
0000
0001
0000
1000
0000
,
0001
0000
1000
0000
0001
0000
1000
0000
0001
0000
1000
0000
,
0001
0000
1000
0000
0001
0000
1000
0000
0001
0000
1000
0000
,
0001
0000
1000
0000
0001
0000
1000
0000
0000
2002
0000
0000
,
0000
3003
0000
0000
;

//---------------dance-single - ----------------
#NOTEDATA:;
#CHARTNAME:;
#STEPSTYPE:dance-single;
#DESCRIPTION:;
#CHARTSTYLE:;
#DIFFICULTY:Medium;
#METER:13;
#RADARVALUES:0.521831,0.586513,0.354378,0.122669,0.095409,536.000000,484.000000,52.000000,18.000000,0.000000,0.000000,0.000000,0.000000,0.000000,0.521831,0.586513,0.354378,0.122669,0.095409,536.000000,484.000000,52.000000,18.000000,0.000000,0.000000,0.000000,0.000000,0.000000;
#CREDIT:;
#NOTES:
0000
0000
0000
0000
,
0100
0000
0001
0000
0010
0000
0000
0100
0000
0000
0010
0000
0001
0000
1000
0000
,
0100
0000
1000
0000
0010
0000
0000
1000
0000
0000
0100
0000
0010
0000
0001
0000
,
1000
0000
0100
0000
0010
0000
0000
0100
0000
0000
0010
0000
0100
0000
0010
0000
,
0001
0000
0100
0000
0010
0000
0000
0100
0000
0000
0010
0000
0100
0000
0010
0000
,
1000
0000
0001
0000
0010
0000
0000
0100
0000
0000
0010
0000
0001
0000
1000
0000
,
0010
0000
1000
0000
0001
0000
0000
0100
0000
0000
0001
0000
1000
0000
0100
0000
,
0010
0000
0001
0000
1000
0000
0000
0010
0000
0000
1000
0000
0010
0000
0100
0000
,
0001
0000
1000
0000
0100
0000
0000
0010
0000
0000
0001
0000
0010
0000
0100
0000
,
1000
0000
1000
0000
0001
0000
0100
0010
0000
0000
0000
0000
0100
0000
0000
0000
,
0100
0000
0010
0000
1000
0000
0001
0010
0000
0000
0000
0000
0001
0000
0000
0000
,
1000
0000
0010
0000
0001
0000
0010
1000
0000
0000
0000
0000
0001
0000
0000
0000
,
0100
0000
0001
0000
1000
0000
0100
0010
0000
0000
0000
0000
0010
0000
0100
0000
,
1000
1000
0100
0010
0001
0001
0100
0010
,
1000
1000
0001
0100
0010
0010
1000
0001
,
0100
0100
0010
0100
0001
0100
0010
1000
,
0000
0010
0000
0001
0000
0100
0000
1000
,
1010
0000
0000
0000
,
0101
0000
0000
0000
,
1100
0000
0101
0000
,
1100
0110
0011
0000
,
1000
0000
0100
0000
0010
0000
0001
0100
,
0000
0000
0010
0100
0010
0000
0010
0000
,
1000
0001
0100
0001
,
0011
0000
0000
1001
0000
0000
0000
0000
,
1000
0000
0100
0000
0010
0000
0100
1000
,
0000
0000
0001
0100
0001
0000
0001
0000
,
1000
0010
1000
0010
,
0110
0010
1001
1000
,
0001
0000
0010
0000
0100
0000
1000
0001
,
0000
0000
0100
0010
0100
0000
0010
0000
,
1000
0001
0010
0001
,
0101
0000
0000
0110
0000
0000
0000
0000
,
0010
0000
1000
0000
0100
0000
1000
0001
,
0000
0000
0010
0001
0010
0000
0100
0000
,
1000
0001
0100
0010
,
2000
3200
0320
0032
,
1003
0000
0000
0000
0010
0000
0000
0001
0000
0000
0000
0000
0010
0000
1000
0000
,
0100
0000
0000
0000
0001
0000
0000
0100
0000
0000
0000
0000
1000
0000
0001
0000
,
0100
0000
0000
0000
1000
0000
0000
0100
0000
0000
0000
0000
0001
0000
0010
0000
,
0100
0000
0000
0000
1000
0000
0000
0010
0000
0000
0000
0000
0001
0000
0010
0000
,
1000
0000
0000
0000
0100
0000
0000
0010
0000
0000
0000
0000
0001
0000
0010
0000
,
0100
0000
0000
0000
0001
0000
0000
0100
0000
0000
0000
0000
1000
0000
0001
0000
,
0010
0000
0000
0000
0100
0000
0000
1000
0000
0000
0000
0000
0010
0000
0100
0000
,
0001
0000
0000
0000
0100
0000
0000
1000
0000
0000
0000
0000
0100
0000
0001
0000
,
0000
0001
0000
0101
0000
1000
0000
1100
,
0000
0010
0000
0110
0000
0010
0000
0110
,
0000
0001
0000
0011
0000
1000
0000
1010
,
0000
1000
0000
1001
0000
0001
0000
1001
,
1000
0001
0000
0011
0000
1000
0000
1100
,
0000
0001
0000
0101
0000
1000
0000
1010
,
0000
0100
0000
0110
0000
0010
0000
0110
,
0000
0010
0000
0101
0000
0010
0000
1100
,
1000
0020
0230
0301
,
0020
0000
0230
0000
1300
0000
0010
0100
,
0000
0010
0200
0000
0302
0000
1003
0000
,
0010
0100
0010
0100
0001
0100
0010
1000
,
0000
0010
2000
0000
3002
0000
0013
0000
,
0002
0000
2003
0000
3010
0000
1000
0001
,
0000
0100
0020
0000
0130
0000
0000
1001
,
0000
0001
1000
0100
,
1000
0100
1000
0000
0001
0000
0001
0000
,
1000
1000
1001
0000
,
0010
0100
0010
0000
0100
0000
0100
0000
,
0001
0001
0101
0000
,
0010
1000
0010
0000
1000
0000
1000
0000
,
0100
0100
1100
0000
,
0001
0010
0001
0000
1000
0000
1000
0000
,
1010
0000
0011
0000
,
0010
0001
0010
0001
0010
0001
0010
0001
,
0010
0001
0010
0001
0010
0000
0000
0000
,
0100
1000
0100
1000
0100
1000
0100
1000
,
0100
1000
0100
1000
0100
0000
0000
0000
,
1000
0001
1000
0001
1000
0001
1000
0001
,
1000
0001
1000
0001
1000
0000
0000
0000
,
0010
0100
0010
0100
0010
0100
0010
0100
,
0020
0000
0000
0030
,
1001
0000
0001
0000
1000
0000
0000
0000
1000
0000
0001
0000
0100
0000
0000
0001
,
0000
0000
0010
0000
0100
0000
0000
0000
0100
0000
0010
0000
0001
0000
0000
1000
,
0000
0000
0010
0000
0100
0000
0000
0000
0100
0000
0010
0000
1000
0000
0000
0001
,
0000
0000
0010
0000
0100
0000
0000
1000
0000
0000
0100
0000
0010
0000
0001
0000
,
0000
0000
1000
0000
0001
0000
0000
0000
0100
0000
0001
0000
1000
0000
0000
0001
,
0000
0000
1000
0000
0100
0000
0000
0000
1000
0000
0001
0000
0010
0000
0000
0001
,
0000
0000
1000
0000
0010
0000
0000
0000
0100
0000
0010
0000
1000
0000
0000
0100
,
0000
0000
1000
0000
0010
0000
0000
0100
0000
0000
0001
0000
0010
0000
0100
0000
,
1000
1100
0001
0101
,
0010
0110
0010
1010
,
1000
1100
0001
0101
,
1000
1010
1000
1001
,
0001
0001
0010
0100
1000
1000
0010
0100
,
0001
0001
1000
0100
0010
0010
0100
1000
,
0100
0100
0010
0100
0010
0100
0010
0100
,
0000
1000
0000
0010
0000
0001
0000
0100
,
1001
0000
0000
0000
,
0110
0000
0000
0000
,
1010
0000
0101
0000
,
0011
1001
1100
0000
,
0010
0100
0010
0100
,
0010
0100
0010
0100
,
0010
0100
0010
0100
,
0010
0100
0000
0220
,
0000
0330
0000
0000
;

//---------------dance-single - ----------------
#NOTEDATA:;
#CHARTNAME:;
#STEPSTYPE:dance-single;
#DESCRIPTION:;
#CHARTSTYLE:;
#DIFFICULTY:Easy;
#METER:8;
#RADARVALUES:0.290123,0.414009,0.279413,0.477047,0.000000,298.000000,257.000000,41.000000,70.000000,0.000000,0.000000,0.000000,0.000000,0.000000,0.290123,0.414009,0.279413,0.477047,0.000000,298.000000,257.000000,41.000000,70.000000,0.000000,0.000000,0.000000,0.000000,0.000000;
#CREDIT:;
#NOTES:
0000
0000
0000
0000
,
2002
0000
0000
3000
,
0200
0000
0000
0303
,
2002
0000
0000
0003
,
0200
0000
0000
3300
,
0220
0000
0000
0030
,
0002
0000
0000
0303
,
2200
0000
0000
0300
,
0020
0000
0000
3030
,
0010
0010
0010
1000
,
0001
1000
0100
0010
,
0001
0001
0001
0100
,
0010
0100
1000
0100
,
0010
0010
0010
0100
,
0001
1000
1000
1000
,
0002
0000
0000
0000
,
1000
1000
1000
1003
,
2002
3003
0000
0000
0000
0000
0000
0000
0000
0000
0000
0000
0000
0000
0000
0000
0000
0000
0000
0000
0000
0000
0000
0000
0000
0000
0000
0000
0000
0000
0000
0000
0000
0000
0000
0000
0000
0000
0000
0000
0000
0000
0000
0000
0000
0000
0000
0000
0000
0000
0000
0000
0000
0000
0000
0000
0000
0000
0000
0000
0000
0000
0000
0000
0000
0000
0000
0000
0000
0000
0000
0000
0000
0000
0000
0000
0000
0000
0000
0000
0000
0000
0000
0000
0000
0000
0000
0000
0000
0000
0000
0000
0000
0000
0000
0000
0000
0000
0000
0000
0000
0000
0000
0000
0000
0000
0000
0000
0000
0000
0000
0000
0000
0000
0000
0000
0000
0000
0000
0000
0000
0000
0000
0000
0000
0000
0000
0000
0000
0000
0000
0000
0000
0000
0000
0000
0000
0000
0000
0000
0000
0000
0000
0000
0000
0000
0000
0000
0000
0000
0000
0000
0000
0000
0000
0000
0000
0000
0000
0000
0000
0000
0000
0000
0000
0000
0000
0000
0000
0000
0000
0000
0000
0000
0000
0000
0000
0000
0000
0000
0000
0000
0000
0000
0000
0000
0000
0000
0000
0000
0000
0000
,
2002
3003
0000
0000
0000
0000
0000
0000
0000
0000
0000
0000
0000
0000
0000
0000
0000
0000
0000
0000
0000
0000
0000
0000
0000
0000
0000
0000
0000
0000
0000
0000
0000
0000
0000
0000
0000
0000
0000
0000
0000
0000
0000
0000
0000
0000
0000
0000
0000
0000
0000
0000
0000
0000
0000
0000
0000
0000
0000
0000
0000
0000
0000
0000
0000
0000
0000
0000
0000
0000
0000
0000
0000
0000
0000
0000
0000
0000
0000
0000
0000
0000
0000
0000
0000
0000
0000
0000
0000
0000
0000
0000
0000
0000
0000
0000
0000
0000
0000
0000
0000
0000
0000
0000
0000
0000
0000
0000
0000
0000
0000
0000
0000
0000
0000
0000
0000
0000
0000
0000
0000
0000
0000
0000
0000
0000
0000
0000
0000
0000
0000
0000
0000
0000
0000
0000
0000
0000
0000
0000
0000
0000
0000
0000
0000
0000
0000
0000
0000
0000
0000
0000
0000
0000
0000
0000
0000
0000
0000
0000
0000
0000
0000
0000
0000
0000
0000
0000
0000
0000
0000
0000
0000
0000
0000
0000
0000
0000
0000
0000
0000
0000
0000
0000
0000
0000
0000
0000
0000
0000
0000
0000
,
0220
0330
0000
0000
0000
0000
0000
0000
0000
0000
0000
0000
0000
0000
0000
0000
0000
0000
0000
0000
0000
0000
0000
0000
0000
0000
0000
0000
0000
0000
0000
0000
0000
0000
0000
0000
0000
0000
0000
0000
0000
0000
0000
0000
0000
0000
0000
0000
0000
0000
0000
0000
0000
0000
0000
0000
0000
0000
0000
0000
0000
0000
0000
0000
0000
0000
0000
0000
0000
0000
0000
0000
0000
0000
0000
0000
0000
0000
0000
0000
0000
0000
0000
0000
0000
0000
0000
0000
0000
0000
0000
0000
0000
0000
0000
0000
2002
3003
0000
0000
0000
0000
0000
0000
0000
0000
0000
0000
0000
0000
0000
0000
0000
0000
0000
0000
0000
0000
0000
0000
0000
0000
0000
0000
0000
0000
0000
0000
0000
0000
0000
0000
0000
0000
0000
0000
0000
0000
0000
0000
0000
0000
0000
0000
0000
0000
0000
0000
0000
0000
0000
0000
0000
0000
0000
0000
0000
0000
0000
0000
0000
0000
0000
0000
0000
0000
0000
0000
0000
0000
0000
0000
0000
0000
0000
0000
0000
0000
0000
0000
0000
0000
0000
0000
0000
0000
0000
0000
0000
0000
0000
0000
,
2002
3003
0000
0000
0000
0000
0000
0000
0000
0000
0000
0000
0000
0000
0000
0000
0000
0000
0000
0000
0000
0000
0000
0000
0000
0000
0000
0000
0000
0000
0000
0000
0000
0000
0000
0000
0000
0000
0000
0000
0000
0000
0000
0000
0000
0000
0000
0000
0220
0330
0000
0000
0000
0000
0000
0000
0000
0000
0000
0000
0000
0000
0000
0000
0000
0000
0000
0000
0000
0000
0000
0000
0000
0000
0000
0000
0000
0000
0000
0000
0000
0000
0000
0000
0000
0000
0000
0000
0000
0000
0000
0000
0000
0000
0000
0000
2002
3003
0000
0000
0000
0000
0000
0000
0000
0000
0000
0000
0000
0000
0000
0000
0000
0000
0000
0000
0000
0000
0000
0000
0000
0000
0000
0000
0000
0000
0000
0000
0000
0000
0000
0000
0000
0000
0000
0000
0000
0000
0000
0000
0000
0000
0000
0000
0000
0000
0000
0000
0000
0000
0000
0000
0000
0000
0000
0000
0000
0000
0000
0000
0000
0000
0000
0000
0000
0000
0000
0000
0000
0000
0000
0000
0000
0000
0000
0000
0000
0000
0000
0000
0000
0000
0000
0000
0000
0000
0000
0000
0000
0000
0000
0000
,
0010
1000
0010
1000
,
0001
0000
0001
0000
,
0010
0100
0010
0100
,
0110
0000
0000
1001
0000
0000
0000
0000
,
1000
0100
1000
0100
,
0010
0000
0010
0000
,
0001
1000
0001
0100
,
0101
0000
1001
0000
,
0001
0010
0100
1000
,
0001
0000
0001
0000
,
1000
0100
0010
0001
,
0011
0000
0000
1001
0000
0000
0000
0000
,
0100
0010
0100
0010
,
1000
0000
1000
0000
,
0001
0100
0010
1000
,
0001
1000
0001
0001
,
2002
0000
0000
0000
,
3003
0000
0000
0000
,
0002
0000
0000
0003
,
2000
3000
0200
0300
,
0220
0000
0000
0000
,
0330
0000
0000
0000
,
2000
0000
0000
3000
,
0002
0003
0200
0300
,
0000
0010
0000
0010
0000
0010
0000
1000
,
0000
0001
0000
0001
0000
0001
0000
0010
,
0000
0100
0000
0100
0000
0100
0000
1000
,
0000
0001
0000
0001
0000
1000
0000
0001
,
0000
1000
0000
1000
0000
1000
0000
0010
,
0000
0100
0000
0100
0000
0100
0000
0001
,
0000
0010
0000
0010
0000
0010
0000
0100
,
0000
1000
0000
1000
0000
0001
0000
0001
,
0010
0001
0010
0000
,
0001
0010
0001
0000
,
1000
0010
1000
0000
,
0010
1000
0010
0000
,
0100
0010
0100
0000
,
0010
0100
0010
0000
,
1000
0001
1000
0000
,
0001
0001
1000
0000
,
1001
0000
1001
0000
,
0220
0000
0330
0000
,
0101
0000
0101
0000
,
2200
0000
3300
0000
,
1010
0000
1010
0000
,
0022
0000
0033
0000
,
0110
0000
0110
0000
,
2002
0000
3003
0000
,
0010
0010
0010
0010
,
0010
0010
0010
0000
,
0100
0100
0100
0100
,
0100
0100
0100
0000
,
0001
0001
0001
0001
,
0001
0001
0001
0000
,
1000
1000
1000
1000
,
2000
0000
0000
3000
,
2002
0000
3003
0000
,
0100
0001
0010
0001
,
0200
0000
0300
0000
,
0010
1000
0100
1000
,
0020
0000
0030
0000
,
1000
0001
0100
0001
,
2000
0000
3000
0000
,
0001
1000
0010
1000
,
0001
0001
0001
1000
,
0100
0100
0100
0010
,
0001
0001
0001
0100
,
0010
0010
1000
0010
,
1000
1000
1000
0010
,
0100
0100
0100
0001
,
0010
0010
0010
0001
,
2000
0001
0001
3001
,
2002
3003
0000
0000
0000
0000
0000
0000
0000
0000
0000
0000
0000
0000
0000
0000
0000
0000
0000
0000
0000
0000
0000
0000
0000
0000
0000
0000
0000
0000
0000
0000
0000
0000
0000
0000
0000
0000
0000
0000
0000
0000
0000
0000
0000
0000
0000
0000
0000
0000
0000
0000
0000
0000
0000
0000
0000
0000
0000
0000
0000
0000
0000
0000
0000
0000
0000
0000
0000
0000
0000
0000
0000
0000
0000
0000
0000
0000
0000
0000
0000
0000
0000
0000
0000
0000
0000
0000
0000
0000
0000
0000
0000
0000
0000
0000
0000
0000
0000
0000
0000
0000
0000
0000
0000
0000
0000
0000
0000
0000
0000
0000
0000
0000
0000
0000
0000
0000
0000
0000
0000
0000
0000
0000
0000
0000
0000
0000
0000
0000
0000
0000
0000
0000
0000
0000
0000
0000
0000
0000
0000
0000
0000
0000
0000
0000
0000
0000
0000
0000
0000
0000
0000
0000
0000
0000
0000
0000
0000
0000
0000
0000
0000
0000
0000
0000
0000
0000
0000
0000
0000
0000
0000
0000
0000
0000
0000
0000
0000
0000
0000
0000
0000
0000
0000
0000
0000
0000
0000
0000
0000
0000
,
2002
3003
0000
0000
0000
0000
0000
0000
0000
0000
0000
0000
0000
0000
0000
0000
0000
0000
0000
0000
0000
0000
0000
0000
0000
0000
0000
0000
0000
0000
0000
0000
0000
0000
0000
0000
0000
0000
0000
0000
0000
0000
0000
0000
0000
0000
0000
0000
0000
0000
0000
0000
0000
0000
0000
0000
0000
0000
0000
0000
0000
0000
0000
0000
0000
0000
0000
0000
0000
0000
0000
0000
0000
0000
0000
0000
0000
0000
0000
0000
0000
0000
0000
0000
0000
0000
0000
0000
0000
0000
0000
0000
0000
0000
0000
0000
0000
0000
0000
0000
0000
0000
0000
0000
0000
0000
0000
0000
0000
0000
0000
0000
0000
0000
0000
0000
0000
0000
0000
0000
0000
0000
0000
0000
0000
0000
0000
0000
0000
0000
0000
0000
0000
0000
0000
0000
0000
0000
0000
0000
0000
0000
0000
0000
0000
0000
0000
0000
0000
0000
0000
0000
0000
0000
0000
0000
0000
0000
0000
0000
0000
0000
0000
0000
0000
0000
0000
0000
0000
0000
0000
0000
0000
0000
0000
0000
0000
0000
0000
0000
0000
0000
0000
0000
0000
0000
0000
0000
0000
0000
0000
0000
,
0022
0033
0000
0000
0000
0000
0000
0000
0000
0000
0000
0000
0000
0000
0000
0000
0000
0000
0000
0000
0000
0000
0000
0000
0000
0000
0000
0000
0000
0000
0000
0000
0000
0000
0000
0000
0000
0000
0000
0000
0000
0000
0000
0000
0000
0000
0000
0000
0000
0000
0000
0000
0000
0000
0000
0000
0000
0000
0000
0000
0000
0000
0000
0000
0000
0000
0000
0000
0000
0000
0000
0000
0000
0000
0000
0000
0000
0000
0000
0000
0000
0000
0000
0000
0000
0000
0000
0000
0000
0000
0000
0000
0000
0000
0000
0000
2002
3003
0000
0000
0000
0000
0000
0000
0000
0000
0000
0000
0000
0000
0000
0000
0000
0000
0000
0000
0000
0000
0000
0000
0000
0000
0000
0000
0000
0000
0000
0000
0000
0000
0000
0000
0000
0000
0000
0000
0000
0000
0000
0000
0000
0000
0000
0000
0000
0000
0000
0000
0000
0000
0000
0000
0000
0000
0000
0000
0000
0000
0000
0000
0000
0000
0000
0000
0000
0000
0000
0000
0000
0000
0000
0000
0000
0000
0000
0000
0000
0000
0000
0000
0000
0000
0000
0000
0000
0000
0000
0000
0000
0000
0000
0000
,
2002
3003
0000
0000
0000
0000
0000
0000
0000
0000
0000
0000
0000
0000
0000
0000
0000
0000
0000
0000
0000
0000
0000
0000
0000
0000
0000
0000
0000
0000
0000
0000
0000
0000
0000
0000
0000
0000
0000
0000
0000
0000
0000
0000
0000
0000
0000
0000
0220
0330
0000
0000
0000
0000
0000
0000
0000
0000
0000
0000
0000
0000
0000
0000
0000
0000
0000
0000
0000
0000
0000
0000
0000
0000
0000
0000
0000
0000
0000
0000
0000
0000
0000
0000
0000
0000
0000
0000
0000
0000
0000
0000
0000
0000
0000
0000
2002
3003
0000
0000
0000
0000
0000
0000
0000
0000
0000
0000
0000
0000
0000
0000
0000
0000
0000
0000
0000
0000
0000
0000
0000
0000
0000
0000
0000
0000
0000
0000
0000
0000
0000
0000
0000
0000
0000
0000
0000
0000
0000
0000
0000
0000
0000
0000
0000
0000
0000
0000
0000
0000
0000
0000
0000
0000
0000
0000
0000
0000
0000
0000
0000
0000
0000
0000
0000
0000
0000
0000
0000
0000
0000
0000
0000
0000
0000
0000
0000
0000
0000
0000
0000
0000
0000
0000
0000
0000
0000
0000
0000
0000
0000
0000
,
0220
0000
0000
0000
,
0000
0000
0000
0000
,
0000
0000
0000
0000
,
0330
0000
0000
2002
,
0000
3003
0000
0000
;

//---------------dance-single - ----------------
#NOTEDATA:;
#CHARTNAME:;
#STEPSTYPE:dance-single;
#DESCRIPTION:;
#CHARTSTYLE:;
#DIFFICULTY:Beginner;
#METER:5;
#RADARVALUES:0.179136,0.345007,0.163559,0.361193,0.000000,184.000000,160.000000,24.000000,53.000000,0.000000,0.000000,0.000000,0.000000,0.000000,0.179136,0.345007,0.163559,0.361193,0.000000,184.000000,160.000000,24.000000,53.000000,0.000000,0.000000,0.000000,0.000000,0.000000;
#CREDIT:;
#NOTES:
// measure 0
0000
0000
0000
0000
,  // measure 1
1001
0000
0000
0000
,  // measure 2
0100
0000
0000
0000
,  // measure 3
0001
0000
0000
0000
,  // measure 4
0001
0000
0000
0000
,  // measure 5
1000
0000
0000
0000
,  // measure 6
0100
0000
0000
0000
,  // measure 7
0010
0000
0000
0000
,  // measure 8
0010
0000
0000
0000
,  // measure 9
1000
1000
1000
0000
,  // measure 10
0001
0001
0001
0000
,  // measure 11
0010
0010
0010
0000
,  // measure 12
0100
0100
0100
0000
,  // measure 13
0001
0000
0010
0000
,  // measure 14
1000
0000
0010
0000
,  // measure 15
0001
0000
0100
0000
,  // measure 16
1000
0000
0100
0000
,  // measure 17
2002
3003
0000
0000
0000
0000
0000
0000
0000
0000
0000
0000
0000
0000
0000
0000
0000
0000
0000
0000
0000
0000
0000
0000
0000
0000
0000
0000
0000
0000
0000
0000
0000
0000
0000
0000
0000
0000
0000
0000
0000
0000
0000
0000
0000
0000
0000
0000
0000
0000
0000
0000
0000
0000
0000
0000
0000
0000
0000
0000
0000
0000
0000
0000
0000
0000
0000
0000
0000
0000
0000
0000
0000
0000
0000
0000
0000
0000
0000
0000
0000
0000
0000
0000
0000
0000
0000
0000
0000
0000
0000
0000
0000
0000
0000
0000
0000
0000
0000
0000
0000
0000
0000
0000
0000
0000
0000
0000
0000
0000
0000
0000
0000
0000
0000
0000
0000
0000
0000
0000
0000
0000
0000
0000
0000
0000
0000
0000
0000
0000
0000
0000
0000
0000
0000
0000
0000
0000
0000
0000
0000
0000
0000
0000
0000
0000
0000
0000
0000
0000
0000
0000
0000
0000
0000
0000
0000
0000
0000
0000
0000
0000
0000
0000
0000
0000
0000
0000
0000
0000
0000
0000
0000
0000
0000
0000
0000
0000
0000
0000
0000
0000
0000
0000
0000
0000
0000
0000
0000
0000
0000
0000
,  // measure 18
2002
3003
0000
0000
0000
0000
0000
0000
0000
0000
0000
0000
0000
0000
0000
0000
0000
0000
0000
0000
0000
0000
0000
0000
0000
0000
0000
0000
0000
0000
0000
0000
0000
0000
0000
0000
0000
0000
0000
0000
0000
0000
0000
0000
0000
0000
0000
0000
0000
0000
0000
0000
0000
0000
0000
0000
0000
0000
0000
0000
0000
0000
0000
0000
0000
0000
0000
0000
0000
0000
0000
0000
0000
0000
0000
0000
0000
0000
0000
0000
0000
0000
0000
0000
0000
0000
0000
0000
0000
0000
0000
0000
0000
0000
0000
0000
0000
0000
0000
0000
0000
0000
0000
0000
0000
0000
0000
0000
0000
0000
0000
0000
0000
0000
0000
0000
0000
0000
0000
0000
0000
0000
0000
0000
0000
0000
0000
0000
0000
0000
0000
0000
0000
0000
0000
0000
0000
0000
0000
0000
0000
0000
0000
0000
0000
0000
0000
0000
0000
0000
0000
0000
0000
0000
0000
0000
0000
0000
0000
0000
0000
0000
0000
0000
0000
0000
0000
0000
0000
0000
0000
0000
0000
0000
0000
0000
0000
0000
0000
0000
0000
0000
0000
0000
0000
0000
0000
0000
0000
0000
0000
0000
,  // measure 19
0220
0330
0000
0000
0000
0000
0000
0000
0000
0000
0000
0000
0000
0000
0000
0000
0000
0000
0000
0000
0000
0000
0000
0000
0000
0000
0000
0000
0000
0000
0000
0000
0000
0000
0000
0000
0000
0000
0000
0000
0000
0000
0000
0000
0000
0000
0000
0000
0000
0000
0000
0000
0000
0000
0000
0000
0000
0000
0000
0000
0000
0000
0000
0000
0000
0000
0000
0000
0000
0000
0000
0000
0000
0000
0000
0000
0000
0000
0000
0000
0000
0000
0000
0000
0000
0000
0000
0000
0000
0000
0000
0000
0000
0000
0000
0000
0220
0330
0000
0000
0000
0000
0000
0000
0000
0000
0000
0000
0000
0000
0000
0000
0000
0000
0000
0000
0000
0000
0000
0000
0000
0000
0000
0000
0000
0000
0000
0000
0000
0000
0000
0000
0000
0000
0000
0000
0000
0000
0000
0000
0000
0000
0000
0000
0000
0000
0000
0000
0000
0000
0000
0000
0000
0000
0000
0000
0000
0000
0000
0000
0000
0000
0000
0000
0000
0000
0000
0000
0000
0000
0000
0000
0000
0000
0000
0000
0000
0000
0000
0000
0000
0000
0000
0000
0000
0000
0000
0000
0000
0000
0000
0000
,  // measure 20
2000
3000
0000
0000
0000
0000
0000
0000
0000
0000
0000
0000
0000
0000
0000
0000
0000
0000
0000
0000
0000
0000
0000
0000
0000
0000
0000
0000
0000
0000
0000
0000
0000
0000
0000
0000
0000
0000
0000
0000
0000
0000
0000
0000
0000
0000
0000
0000
2000
3000
0000
0000
0000
0000
0000
0000
0000
0000
0000
0000
0000
0000
0000
0000
0000
0000
0000
0000
0000
0000
0000
0000
0000
0000
0000
0000
0000
0000
0000
0000
0000
0000
0000
0000
0000
0000
0000
0000
0000
0000
0000
0000
0000
0000
0000
0000
2002
3003
0000
0000
0000
0000
0000
0000
0000
0000
0000
0000
0000
0000
0000
0000
0000
0000
0000
0000
0000
0000
0000
0000
0000
0000
0000
0000
0000
0000
0000
0000
0000
0000
0000
0000
0000
0000
0000
0000
0000
0000
0000
0000
0000
0000
0000
0000
0000
0000
0000
0000
0000
0000
0000
0000
0000
0000
0000
0000
0000
0000
0000
0000
0000
0000
0000
0000
0000
0000
0000
0000
0000
0000
0000
0000
0000
0000
0000
0000
0000
0000
0000
0000
0000
0000
0000
0000
0000
0000
0000
0000
0000
0000
0000
0000
,  // measure 21
0010
0000
0010
0000
,  // measure 22
1000
0000
1000
0000
,  // measure 23
0010
0000
0010
0000
,  // measure 24
0200
0000
0000
0300
0000
0000
0000
0000
,  // measure 25
0100
0000
0100
0000
,  // measure 26
0001
0000
0001
0000
,  // measure 27
0100
0000
0100
0000
,  // measure 28
0010
0000
0110
0000
,  // measure 29
1001
0000
0000
0000
,  // measure 30
0001
0000
1000
0000
,  // measure 31
0001
0000
0001
0000
,  // measure 32
0020
0000
0000
0030
0000
0000
0000
0000
,  // measure 33
0001
0000
0001
0000
,  // measure 34
1000
0000
1000
0000
,  // measure 35
0010
0000
1000
0000
,  // measure 36
0200
0000
0300
0000
,  // measure 37
2002
0000
0000
0000
,  // measure 38
3003
0000
0000
0000
,  // measure 39
0020
0000
0000
0030
,  // measure 40
0010
0000
0000
0000
,  // measure 41
2002
0000
0000
0000
,  // measure 42
3003
0000
0000
0000
,  // measure 43
0200
0000
0000
0300
,  // measure 44
0100
0000
1000
0000
,  // measure 45
0010
0010
0010
0010
,  // measure 46
0010
0000
1000
0000
,  // measure 47
0001
0001
0001
0001
,  // measure 48
0001
0000
1000
0000
,  // measure 49
0100
0100
0100
0000
,  // measure 50
0010
0010
0010
0000
,  // measure 51
0100
0100
0100
0000
,  // measure 52
0010
0010
0010
0000
,  // measure 53
1001
0000
1000
0000
,  // measure 54
1000
0000
1000
0000
,  // measure 55
1001
0000
0001
0000
,  // measure 56
0001
0000
0001
0000
,  // measure 57
0110
0000
0100
0000
,  // measure 58
0100
0000
0100
0000
,  // measure 59
0110
0000
0010
0000
,  // measure 60
0010
0000
0010
0000
,  // measure 61
2000
0000
0000
0000
,  // measure 62
0000
0000
3000
0000
,  // measure 63
0002
0000
0000
0000
,  // measure 64
0000
0000
0003
0000
,  // measure 65
2000
3000
2000
3000
,  // measure 66
2000
3000
1000
0000
,  // measure 67
0002
0003
0001
0000
,  // measure 68
0100
0000
0010
0000
,  // measure 69
0220
0000
0000
0000
,  // measure 70
0000
0000
0330
0000
,  // measure 71
0220
0000
0000
0000
,  // measure 72
0000
0000
0330
0000
,  // measure 73
2002
0000
0000
0000
,  // measure 74
0000
0000
3003
0000
,  // measure 75
2002
0000
0000
0000
,  // measure 76
3003
0000
0000
0000
,  // measure 77
0200
0000
0000
0000
,  // measure 78
0300
0000
0000
0000
,  // measure 79
0002
0000
0003
0000
,  // measure 80
0001
0000
0100
0000
,  // measure 81
0020
0000
0000
0000
,  // measure 82
0030
0000
0000
0000
,  // measure 83
2000
0000
3000
0000
,  // measure 84
1000
0000
0100
0000
,  // measure 85
0010
0000
0001
0000
,  // measure 86
0010
0000
0100
0000
,  // measure 87
1000
0000
0010
0000
,  // measure 88
0100
0000
0001
0000
,  // measure 89
1000
1000
1000
0000
,  // measure 90
0010
0010
0010
0000
,  // measure 91
0100
0100
0100
0000
,  // measure 92
0001
0001
0001
0000
,  // measure 93
2002
3003
0000
0000
0000
0000
0000
0000
0000
0000
0000
0000
0000
0000
0000
0000
0000
0000
0000
0000
0000
0000
0000
0000
0000
0000
0000
0000
0000
0000
0000
0000
0000
0000
0000
0000
0000
0000
0000
0000
0000
0000
0000
0000
0000
0000
0000
0000
0000
0000
0000
0000
0000
0000
0000
0000
0000
0000
0000
0000
0000
0000
0000
0000
0000
0000
0000
0000
0000
0000
0000
0000
0000
0000
0000
0000
0000
0000
0000
0000
0000
0000
0000
0000
0000
0000
0000
0000
0000
0000
0000
0000
0000
0000
0000
0000
0000
0000
0000
0000
0000
0000
0000
0000
0000
0000
0000
0000
0000
0000
0000
0000
0000
0000
0000
0000
0000
0000
0000
0000
0000
0000
0000
0000
0000
0000
0000
0000
0000
0000
0000
0000
0000
0000
0000
0000
0000
0000
0000
0000
0000
0000
0000
0000
0000
0000
0000
0000
0000
0000
0000
0000
0000
0000
0000
0000
0000
0000
0000
0000
0000
0000
0000
0000
0000
0000
0000
0000
0000
0000
0000
0000
0000
0000
0000
0000
0000
0000
0000
0000
0000
0000
0000
0000
0000
0000
0000
0000
0000
0000
0000
0000
,  // measure 94
2002
3003
0000
0000
0000
0000
0000
0000
0000
0000
0000
0000
0000
0000
0000
0000
0000
0000
0000
0000
0000
0000
0000
0000
0000
0000
0000
0000
0000
0000
0000
0000
0000
0000
0000
0000
0000
0000
0000
0000
0000
0000
0000
0000
0000
0000
0000
0000
0000
0000
0000
0000
0000
0000
0000
0000
0000
0000
0000
0000
0000
0000
0000
0000
0000
0000
0000
0000
0000
0000
0000
0000
0000
0000
0000
0000
0000
0000
0000
0000
0000
0000
0000
0000
0000
0000
0000
0000
0000
0000
0000
0000
0000
0000
0000
0000
0000
0000
0000
0000
0000
0000
0000
0000
0000
0000
0000
0000
0000
0000
0000
0000
0000
0000
0000
0000
0000
0000
0000
0000
0000
0000
0000
0000
0000
0000
0000
0000
0000
0000
0000
0000
0000
0000
0000
0000
0000
0000
0000
0000
0000
0000
0000
0000
0000
0000
0000
0000
0000
0000
0000
0000
0000
0000
0000
0000
0000
0000
0000
0000
0000
0000
0000
0000
0000
0000
0000
0000
0000
0000
0000
0000
0000
0000
0000
0000
0000
0000
0000
0000
0000
0000
0000
0000
0000
0000
0000
0000
0000
0000
0000
0000
,  // measure 95
2002
3003
0000
0000
0000
0000
0000
0000
0000
0000
0000
0000
0000
0000
0000
0000
0000
0000
0000
0000
0000
0000
0000
0000
0000
0000
0000
0000
0000
0000
0000
0000
0000
0000
0000
0000
0000
0000
0000
0000
0000
0000
0000
0000
0000
0000
0000
0000
0000
0000
0000
0000
0000
0000
0000
0000
0000
0000
0000
0000
0000
0000
0000
0000
0000
0000
0000
0000
0000
0000
0000
0000
0000
0000
0000
0000
0000
0000
0000
0000
0000
0000
0000
0000
0000
0000
0000
0000
0000
0000
0000
0000
0000
0000
0000
0000
0220
0330
0000
0000
0000
0000
0000
0000
0000
0000
0000
0000
0000
0000
0000
0000
0000
0000
0000
0000
0000
0000
0000
0000
0000
0000
0000
0000
0000
0000
0000
0000
0000
0000
0000
0000
0000
0000
0000
0000
0000
0000
0000
0000
0000
0000
0000
0000
0000
0000
0000
0000
0000
0000
0000
0000
0000
0000
0000
0000
0000
0000
0000
0000
0000
0000
0000
0000
0000
0000
0000
0000
0000
0000
0000
0000
0000
0000
0000
0000
0000
0000
0000
0000
0000
0000
0000
0000
0000
0000
0000
0000
0000
0000
0000
0000
,  // measure 96
0020
0030
0000
0000
0000
0000
0000
0000
0000
0000
0000
0000
0000
0000
0000
0000
0000
0000
0000
0000
0000
0000
0000
0000
0000
0000
0000
0000
0000
0000
0000
0000
0000
0000
0000
0000
0000
0000
0000
0000
0000
0000
0000
0000
0000
0000
0000
0000
0020
0030
0000
0000
0000
0000
0000
0000
0000
0000
0000
0000
0000
0000
0000
0000
0000
0000
0000
0000
0000
0000
0000
0000
0000
0000
0000
0000
0000
0000
0000
0000
0000
0000
0000
0000
0000
0000
0000
0000
0000
0000
0000
0000
0000
0000
0000
0000
0220
0330
0000
0000
0000
0000
0000
0000
0000
0000
0000
0000
0000
0000
0000
0000
0000
0000
0000
0000
0000
0000
0000
0000
0000
0000
0000
0000
0000
0000
0000
0000
0000
0000
0000
0000
0000
0000
0000
0000
0000
0000
0000
0000
0000
0000
0000
0000
0000
0000
0000
0000
0000
0000
0000
0000
0000
0000
0000
0000
0000
0000
0000
0000
0000
0000
0000
0000
0000
0000
0000
0000
0000
0000
0000
0000
0000
0000
0000
0000
0000
0000
0000
0000
0000
0000
0000
0000
0000
0000
0000
0000
0000
0000
0000
0000
,  // measure 97
2002
0000
0000
0000
,  // measure 98
0000
0000
0000
0000
,  // measure 99
0000
0000
0000
0000
,  // measure 100
0000
0000
0000
0000
,  // measure 101
0000
3003
0000
0000
;
