#VERSION:0.83;
#TITLE:Parallel Tunnel;
#SUBTITLE:;
#ARTIST:Unknown artist;
#TITLETRANSLIT:;
#SUBTITLETRANSLIT:;
#ARTISTTRANSLIT:;
#GENRE:;
#ORIGIN:;
#CREDIT:;
#BANNER:;
#BACKGROUND:;
#PREVIEWVID:;
#JACKET:;
#CDIMAGE:;
#DISCIMAGE:;
#LYRICSPATH:;
#CDTITLE:;
#MUSIC:parallel tunnel.ogg;
#OFFSET:0.600000;
#SAMPLESTART:19.750000;
#SAMPLELENGTH:12.000000;
#SELECTABLE:YES;
#DISPLAYBPM:125.000000:500.000000;
#BPMS:0.000=62.500,
12.000=125.000,
44.000=500.000,
108.000=125.000,
124.000=500.000,
252.000=125.000,
276.000=500.000,
340.000=250.000,
444.000=125.000,
448.000=500.000,
576.000=250.000,
640.000=125.000;
#STOPS:0.000=1.190;
#DELAYS:;
#WARPS:;
#TIMESIGNATURES:0.000=4=4;
#TICKCOUNTS:0.000=4;
#COMBOS:0.000=1;
#SPEEDS:0.000=1.000=0.000=0;
#SCROLLS:0.000=1.000;
#FAKES:;
#LABELS:0.000=Song Start;
#BGCHANGES:;
#KEYSOUNDS:;
#ATTACKS:
;

//---------------dance-single - ----------------
#NOTEDATA:;
#CHARTNAME:;
#STEPSTYPE:dance-single;
#DESCRIPTION:;
#CHARTSTYLE:;
#DIFFICULTY:Hard;
#METER:17;
#RADARVALUES:0.826314,1.107250,0.354725,0.289572,0.036196,799.000000,750.000000,49.000000,40.000000,0.000000,0.000000,0.000000,0.000000,0.000000,0.826314,1.107250,0.354725,0.289572,0.036196,799.000000,750.000000,49.000000,40.000000,0.000000,0.000000,0.000000,0.000000,0.000000;
#CREDIT:;
#DISPLAYBPM:125.000000:500.000000;
#NOTES:
0000
0000
0000
0000
,
0000
0000
0000
0000
,
0000
0000
0000
0000
,
1000
0001
1000
0001
1000
0001
1000
0001
,
0100
0001
0100
0001
0100
0010
0100
0010
,
1000
0001
1000
0001
1000
0001
1000
0001
,
0010
0001
0010
0001
1000
0100
1000
0100
,
1000
0100
0010
0001
0100
0001
0100
0010
,
1000
0100
1000
0010
0100
0001
0010
0001
,
1000
0010
1000
0010
0100
0010
0001
0010
,
1000
0100
0001
0100
1000
0100
0010
0001
,
0100
0001
0010
0001
,
0100
1000
0100
0010
,
0000
1000
0100
1000
,
0010
0001
0010
1000
,
0000
0001
0010
0001
,
1000
0001
0100
0010
,
0000
1000
0001
0100
,
0010
0000
1000
0100
0010
0000
0100
0000
,
1100
1000
0100
0010
,
0001
0100
0010
1000
,
0000
0001
0100
1000
,
0100
0010
1000
0001
,
0100
0010
0100
0010
,
1000
0001
0010
0100
,
0010
0000
1000
0010
0001
0000
0010
0000
,
0200
0020
0330
0000
,
0010
0000
0000
0001
0000
0000
1000
0000
0000
0100
0000
0000
1000
0000
0100
0000
,
0010
0002
2003
3001
,
1200
1000
0310
0000
0201
0001
0310
0000
,
0110
1001
0220
0330
,
0001
0100
0010
0100
,
1000
0100
0000
1010
,
0000
0010
1000
0100
,
1000
0010
1000
0001
,
1000
0100
0010
0100
,
0001
0100
0000
0011
,
0000
0010
0001
0100
,
0001
0010
0001
1000
,
0001
0010
0100
0010
,
1000
0010
0000
1100
,
0000
0100
1000
0010
,
1000
0010
1000
0001
,
1000
0010
0001
0010
,
0100
0010
0000
0101
,
0000
0100
0010
0100
,
0001
1000
0001
1000
,
0001
1000
0001
0000
0010
0000
0001
0000
,
0100
0001
0000
0022
,
0033
0001
0100
0220
,
0330
0010
0100
0010
,
1000
0001
1000
0000
0100
0000
1000
0000
,
0010
1000
0000
0202
,
0303
0100
0010
2020
,
3030
1000
0001
0010
,
0100
0010
0100
0000
1000
0000
0001
0000
,
1000
0100
0000
0220
,
0330
0100
1000
2002
,
3003
0001
0010
0100
,
0010
0100
0010
0000
0001
0000
1000
0000
,
0010
0100
0010
0000
1000
0000
1001
0000
,
0000
0010
0200
0000
,
0302
0000
1003
0000
,
2002
0000
0000
0000
,
0000
0000
0000
3003
,
0001
0000
1000
0000
0100
0000
0010
0000
0001
0000
0100
1000
0000
0100
0001
0000
,
1000
0000
0001
0000
0100
0000
0010
0000
1000
0000
0100
0001
0000
0100
1000
0000
,
0010
0000
0100
0000
0001
0000
0100
0000
0010
0000
1000
0001
0000
0100
0010
0000
,
1000
0000
0100
0000
0010
0000
0100
0000
1000
0000
0001
1000
0000
0100
0010
0000
,
0001
0010
0001
0000
0100
0000
0010
0000
,
1000
0010
1000
0000
0100
0000
0010
0000
,
0001
0010
0001
0000
0100
0000
0010
0000
,
1000
0010
1000
0000
0100
0000
0010
0000
,
0001
0100
0001
0000
0010
0000
0100
0000
,
1000
0100
1000
0000
0010
0000
0100
0000
,
0001
0100
0001
0000
0010
0000
0100
0000
,
1000
0100
1000
0000
0010
0000
0100
0000
,
0001
1000
0100
0000
1000
0000
0001
0000
,
1000
0001
0100
0000
0001
0000
1000
0000
,
0001
1000
0010
0000
1000
0000
0001
0000
,
1000
0001
0010
0000
0001
0000
1000
0000
,
0010
0100
0001
0000
1000
0000
0001
0000
,
0010
0100
1000
0000
0001
0000
1000
0000
,
0100
0010
0002
0000
,
2003
0000
3010
0000
,
0101
0010
0100
1000
0100
0001
1000
0100
,
0010
0100
0001
0100
0010
0100
1000
0001
,
0010
1000
0010
0100
1000
0001
0100
0010
,
1000
0010
0001
0010
0100
0010
1000
0001
,
0101
0101
0000
0000
1100
1100
0000
0110
,
0000
0100
0010
0100
1100
0000
0002
0013
,
0000
0001
0010
0100
1000
0010
0001
1000
,
0100
0001
0010
1000
0001
0100
1000
0001
,
1000
0010
0001
1000
0100
0010
1000
0100
,
0001
1000
0010
0100
1000
0000
1100
0000
,
1000
0000
0001
0010
0000
0001
0100
1000
,
0000
0100
1000
0100
0010
0100
0001
0100
,
0010
0000
1000
0010
0000
1000
0100
0001
,
0000
0100
1000
0010
0100
0010
1000
0100
,
0010
0000
0001
0010
0000
0001
0100
1000
,
0000
0100
1000
0100
1000
0100
0010
1000
,
0010
0000
0100
0010
0000
0100
0000
0010
,
2000
0000
3200
0000
0320
0000
0032
0003
,
0011
0000
0001
0000
0110
1000
0000
1100
,
0000
0100
1000
0100
0010
0100
1000
0010
,
1010
0000
1000
0000
0110
0001
0000
0101
,
0000
0100
0001
0010
0100
1000
0100
0010
,
0011
0000
0100
0000
1001
0010
0000
1100
,
0000
0100
0010
0100
1000
0001
1000
0010
,
1010
0000
0001
0010
0011
0011
0000
1100
,
0000
1000
0010
0001
0010
1000
0001
2000
,
0002
0000
0000
0000
0000
0000
3003
0110
,
0001
1000
0001
0010
,
0000
0001
0100
1000
,
0000
0100
1000
0100
,
0010
0000
0100
0000
0001
0000
0100
0010
,
1000
0001
1000
0010
,
0000
1000
0100
0001
,
0000
0100
0001
0100
,
0010
0000
0001
0000
0010
0000
0100
0010
,
0001
1000
0001
0010
,
0000
0001
0100
1000
,
0000
0100
1000
0100
,
1000
0100
0010
1000
,
0010
0000
0100
0010
,
0000
0100
0000
0010
,
1000
0100
1000
0010
,
0100
0001
0010
0001
,
0100
0010
0100
1000
,
0000
0100
0001
1000
,
0000
0100
1000
0001
,
0100
0000
0001
0000
1000
0000
0100
1000
,
0100
0010
0100
0001
,
0000
0100
1000
0001
,
0000
1000
0010
1000
,
0001
0010
0001
1000
,
0100
0010
0100
0001
,
0000
0100
1000
0100
,
0000
1000
0010
0100
,
0001
1000
0100
0010
,
0011
0000
0100
0000
,
1010
1010
0000
1001
,
0000
1000
0001
0100
,
0010
0100
0001
0000
,
0010
0000
0001
0010
0000
0001
0100
1000
,
0000
0100
1000
0100
0010
0100
0001
0100
,
0010
0000
1000
0010
0000
1000
0100
0001
,
0000
0100
1000
0010
0100
0010
1000
0100
,
0010
0000
0001
0010
0000
0001
0100
1000
,
0000
0100
1000
0100
1000
0100
0010
1000
,
0010
0000
0100
0010
0000
0100
0000
0010
,
2000
0000
3200
0000
0320
0000
0032
0003
,
1001
0000
0001
0010
0000
0001
0100
1000
,
0000
0100
1000
0100
0010
0100
0001
0100
,
0010
0000
1000
0010
0000
1000
0100
0001
,
0000
0100
0001
0100
0010
0100
1000
0100
,
0010
0000
0001
0010
0000
0001
0100
1000
,
0000
0100
1000
0100
0001
1000
0100
0010
,
0110
0000
0001
0000
1010
1000
0000
0011
,
0000
1000
0010
1000
0001
0010
0001
1000
,
0200
0000
0000
0000
0000
0000
0300
2002
,
3003
0000
0000
0000
;

//---------------dance-single - ----------------
#NOTEDATA:;
#CHARTNAME:;
#STEPSTYPE:dance-single;
#DESCRIPTION:;
#CHARTSTYLE:;
#DIFFICULTY:Medium;
#METER:14;
#RADARVALUES:0.659810,0.990698,0.224418,0.340247,0.014479,638.000000,607.000000,31.000000,47.000000,0.000000,0.000000,0.000000,0.000000,0.000000,0.659810,0.990698,0.224418,0.340247,0.014479,638.000000,607.000000,31.000000,47.000000,0.000000,0.000000,0.000000,0.000000,0.000000;
#CREDIT:;
#DISPLAYBPM:125.000000:500.000000;
#NOTES:
0000
0000
0000
0000
,
0000
0000
0000
0000
,
0000
0000
0000
0000
,
0100
0010
0100
0010
0100
0010
0100
0010
,
1000
0100
1000
0100
1000
0010
1000
0010
,
0100
0010
0100
0010
0100
0010
0100
0010
,
0100
0001
0100
0001
0010
0001
0010
0001
,
1000
0100
0010
0001
0000
0100
0001
0010
,
0100
1000
0100
0010
0001
0010
0100
1000
,
0001
0100
0010
1000
0000
0100
1000
0010
,
0100
0001
0100
0010
1000
0010
0100
0001
,
0100
0001
1000
0100
,
1000
0001
0100
0001
,
0000
1000
0010
1000
,
0001
0010
0001
1000
,
0000
0001
0010
0001
,
1000
0100
1000
0001
,
0000
1000
0010
1000
,
0001
0100
0001
1000
,
0000
0001
0010
0100
,
1000
0010
0100
0001
,
0000
1000
0010
0100
,
0001
0010
0100
1000
,
0000
0001
0100
0010
,
1000
0100
0010
0001
,
0000
1000
0100
0010
,
0001
0100
0010
1000
,
0002
0000
0000
0000
,
0000
0000
0000
0003
,
0100
0001
0010
0000
0100
1000
0010
0000
,
0100
0001
0010
0000
0100
0010
0100
0000
,
1000
0000
0010
0000
,
0100
0010
0000
1010
,
0000
1000
0001
1000
,
0001
0010
0001
0000
,
0100
0000
0001
0000
,
1000
0001
0000
0011
,
0000
0001
0010
0100
,
1000
0100
1000
0000
,
0001
0000
0100
0000
,
0010
0100
0000
0101
,
0000
0001
1000
0001
,
1000
0010
1000
0000
,
1100
0000
0100
0000
,
0101
0100
0000
1100
,
0000
0100
0010
0100
,
1000
0100
0010
0000
,
0001
0100
0010
0100
,
1000
0100
0000
0002
,
0000
0013
0100
2000
,
0000
3010
0100
0001
,
1000
0100
0010
0100
,
0001
0100
0000
2000
,
0000
3100
0010
0002
,
0000
0103
0010
1000
,
0001
0010
0001
0100
,
0001
1000
0000
0020
,
0000
0130
0001
0020
,
0000
0130
1000
0001
,
1000
0100
1000
0001
,
1000
0010
0000
1010
,
0000
1000
0200
0000
,
0320
0000
0031
0000
,
2002
0000
0000
0000
,
0000
0000
0000
3003
,
0010
0000
0100
0000
0001
0000
0100
0000
0001
0000
0000
1000
0000
0000
0100
0000
,
0010
0000
0100
0000
1000
0000
0100
0000
1000
0000
0000
0001
0000
0000
0100
0000
,
0010
0000
1000
0000
0001
0000
1000
0000
0001
0000
0000
0010
0000
0000
0100
0000
,
1000
0000
0001
0000
0010
0000
0001
0000
0010
0000
0000
0001
0000
0000
1000
0000
,
0001
0010
0100
1000
,
0001
0100
0010
1000
,
0001
0010
0100
1000
,
0001
0100
0010
1000
,
0001
1000
0010
1000
,
0001
1000
0100
1000
,
0001
1000
0010
1000
,
0001
1000
0100
1000
,
0001
0100
1000
0100
,
0001
0010
1000
0010
,
0001
0100
1000
0100
,
0001
0010
1000
0010
,
0001
0010
0100
0010
,
0001
0100
0010
0100
,
0002
0000
2003
0000
,
3100
0000
0110
0000
,
0010
0000
0100
0010
0001
0000
1000
0001
,
0000
0100
0001
1000
0010
0100
0010
0100
,
0010
0000
0100
0010
1000
0000
0001
1000
,
0000
0100
1000
0001
0010
0100
0010
0100
,
1100
0100
0000
0000
0110
0010
0000
0011
,
0000
0001
0010
0001
0010
0001
1000
0020
,
0000
0100
0100
1030
,
1010
1001
0011
1001
,
2200
0000
0000
0000
,
0000
0000
0000
3300
,
1000
0000
0100
0001
0000
0100
1000
0100
,
0000
0000
0010
0100
1000
0001
0100
0000
,
0001
0000
0100
1000
0000
0100
0001
0010
,
0000
0000
0100
0010
0001
1000
0010
0000
,
1000
0000
0100
0001
0000
0100
1000
0100
,
0000
0000
0010
0100
1000
0001
0100
0000
,
0010
0000
0100
0010
0000
0100
0000
0010
,
2000
3200
0320
0031
,
0202
0000
0000
0303
0220
0000
0330
2020
,
0000
0000
0000
3030
2020
0000
0000
3030
,
0022
0000
0000
0033
2002
0000
3003
2200
,
0000
0000
0000
3300
1000
0000
1000
0000
,
0002
0000
0103
0000
0200
0310
0000
1010
,
0000
0000
1000
0001
0010
0001
1000
0100
,
0010
0000
0100
0010
0000
0100
0000
1001
,
0000
0001
0010
0100
1000
0001
1000
0000
,
0020
0000
0000
0000
0000
0000
0000
0030
,
1000
0000
0100
0001
,
0000
0100
1000
0100
,
0000
0000
0010
0100
,
1000
0001
0100
0000
,
0001
0000
0100
1000
,
0000
0100
0001
0010
,
0000
0000
0100
0010
,
0001
1000
0010
0000
,
1000
0000
0100
0001
,
0000
0100
1000
0100
,
0000
0000
0010
0001
,
1000
0010
0100
0000
,
0010
0000
0100
0010
,
0000
0100
0000
0010
,
2000
0000
3200
0000
,
0320
0000
0031
0000
,
1000
0000
0010
0100
,
0000
0001
0010
0001
,
0000
0000
1000
0100
,
0010
0001
0010
0000
,
0001
0000
0100
0010
,
0000
1000
0100
0010
,
0000
0000
0001
0010
,
1000
0010
0001
0000
,
1000
0000
0100
0001
,
0000
0100
1000
0100
,
0000
0000
0010
0100
,
1000
0001
0100
0000
,
0010
0000
0100
0010
,
0000
0100
0000
1001
,
0000
1000
0200
0000
,
0320
0000
0031
0000
,
1000
0000
0100
0010
0000
0100
1000
0100
,
0000
0000
0010
0001
1000
0010
0100
0000
,
0001
0000
0100
1000
0000
0100
0001
0010
,
0000
0000
0100
0010
0001
1000
0010
0000
,
1000
0000
0100
0001
0000
0100
1000
0100
,
0000
0000
0010
0001
1000
0001
0100
0000
,
0010
0000
0100
0010
0000
0100
0000
0010
,
2000
3200
0320
0031
,
1000
0000
0010
1000
0000
0001
0100
0001
,
0000
0000
0100
0010
1000
0001
0100
0000
,
0001
0000
0010
0001
0000
1000
0001
0010
,
0000
0000
0100
1000
0001
1000
0100
0000
,
1000
0000
0010
1000
0000
0001
0100
0001
,
0000
0000
1000
0010
0100
0001
0010
0000
,
0011
0000
0100
0000
1010
0010
0000
0110
,
0000
0001
0010
0001
1000
0010
1000
0000
,
0200
0000
0000
0000
0000
0000
0300
0220
,
0330
0000
0000
0000
;

//---------------dance-single - ----------------
#NOTEDATA:;
#CHARTNAME:;
#STEPSTYPE:dance-single;
#DESCRIPTION:;
#CHARTSTYLE:;
#DIFFICULTY:Easy;
#METER:9;
#RADARVALUES:0.433324,0.757592,0.195461,0.260615,0.108589,419.000000,392.000000,27.000000,36.000000,0.000000,0.000000,0.000000,0.000000,0.000000,0.433324,0.757592,0.195461,0.260615,0.108589,419.000000,392.000000,27.000000,36.000000,0.000000,0.000000,0.000000,0.000000,0.000000;
#CREDIT:;
#DISPLAYBPM:125.000000:500.000000;
#NOTES:
0000
0000
0000
0000
,
0000
0000
0000
0000
,
0000
0000
0000
0000
,
0010
1000
0010
1000
,
0001
0100
0010
0100
,
0010
1000
0010
1000
,
0100
1000
0001
0010
,
0001
0010
0001
0000
1000
0010
1000
0000
,
0001
0100
0001
0000
1000
0100
1000
0000
,
0001
0010
0001
0000
1000
0010
1000
0000
,
0001
0100
0010
0000
1000
0000
0001
0000
,
1001
0000
0001
0000
,
0100
0000
0000
0010
,
0000
0000
1000
0000
,
0100
0000
0000
0010
,
0000
0000
0001
0000
,
0100
0000
0000
0010
,
0000
0000
1000
0000
,
0010
0000
0100
0000
,
0001
0000
1000
0000
,
0001
0000
0000
0010
,
0000
0000
0001
0000
,
1000
0000
0000
0010
,
0000
0000
1000
0000
,
0001
0000
0000
0100
,
0000
0000
0001
0000
,
1000
0000
0001
0000
,
0200
0000
0000
0000
,
0000
0000
0000
0300
,
0002
0000
0203
0000
,
0320
0000
0000
0030
,
1000
0000
0010
0000
,
1000
0010
0000
0100
,
0000
0000
0001
0100
,
0001
0000
0100
0000
,
0001
0000
0010
0000
,
0001
0010
0000
0100
,
0000
0000
1000
0100
,
1000
0000
0100
0000
,
1000
0000
0001
0000
,
1000
0001
0000
0100
,
0000
0000
0001
1000
,
0001
0000
1000
0000
,
0010
0000
0100
0000
,
0001
0100
0000
0010
,
0000
0000
1000
0001
,
1000
0000
0001
0000
,
1001
0000
0001
0000
,
0100
0001
0000
0010
,
0000
0000
0001
0000
,
1000
0001
1000
0000
,
1001
0000
1000
0000
,
0100
1000
0000
0010
,
0000
0000
1000
0000
,
0001
1000
0001
0000
,
0100
0000
0010
0000
,
1000
0010
0000
1000
,
0000
0000
0001
0000
,
0010
0001
0010
0000
,
0100
0000
0010
0000
,
0001
0010
0000
0110
,
0000
0000
0200
0000
,
2300
0000
3000
0000
,
2002
0000
0000
0000
,
0000
0000
0000
3003
,
0100
0100
0100
0100
,
0010
0010
0010
0010
,
1000
1000
1000
1000
,
0001
0001
0001
0001
,
1000
0000
0000
0000
0100
0000
0000
0000
1000
0000
0000
0000
,
0001
0000
0000
0000
1000
0000
0000
0000
0001
0000
0000
0000
,
1000
0000
0000
0000
0010
0000
0000
0000
1000
0000
0000
0000
,
0010
0000
0000
0000
0100
0000
0000
0000
0010
0000
0000
0000
,
0100
0000
0000
0000
0001
0000
0000
0000
0100
0000
0000
0000
,
0001
0000
0000
0000
1000
0000
0000
0000
0001
0000
0000
0000
,
0010
0000
0000
0000
0001
0000
0000
0000
0010
0000
0000
0000
,
0001
0000
0000
0000
1000
0000
0000
0000
0001
0000
0000
0000
,
1000
0000
0000
0000
0100
0000
0000
0000
1000
0000
0000
0000
,
0001
0000
0000
0000
1000
0000
0000
0000
0001
0000
0000
0000
,
1000
0000
0000
0000
0010
0000
0000
0000
1000
0000
0000
0000
,
0010
0000
0000
0000
0100
0000
0000
0000
0010
0000
0000
0000
,
0100
0000
0000
0000
0001
0000
0000
0000
0100
0000
0000
0000
,
0001
0000
0000
0000
1000
0000
0000
0000
0001
0000
0000
0000
,
0010
0000
0000
0000
0100
0000
0000
0000
1000
0000
0000
0000
,
0002
0000
0003
0000
,
1002
0000
0000
0000
0103
0000
0000
0020
,
0000
0000
2000
3030
,
2000
0000
0000
0000
3100
0000
0000
0020
,
0000
0000
0002
0033
,
0001
1000
0000
0000
0001
1000
0000
0010
,
0000
0100
0010
0100
0010
0000
2000
0002
,
3003
1000
0010
0100
,
0001
0010
0100
1000
,
2002
0000
0000
0000
,
0000
0000
0000
3003
,
1000
0000
0000
0010
0000
0100
0000
0010
,
0000
1000
0100
0010
,
0001
0000
0000
0010
0000
0100
0000
0010
,
0000
0001
0100
0010
,
1000
0000
0000
0010
0000
0100
0000
0010
,
0000
1000
0100
0010
,
0001
0000
0000
1000
0000
0001
0000
0000
,
2000
3200
0320
0031
,
0011
0000
0000
0000
0011
0000
0000
0011
,
0000
0000
1001
0000
,
1100
0000
0000
0000
1100
0000
0000
1100
,
0000
0000
1001
0000
,
0101
0000
0000
0000
0101
0000
0000
0101
,
0000
0000
0100
0010
,
1010
0000
0000
0000
1000
0000
0000
2020
,
0000
0000
0000
3030
,
0020
0000
0000
0000
0000
0000
0000
0030
,
1000
0000
0000
0010
,
0000
0100
0000
0010
,
0000
0000
1000
0000
,
0100
0000
0010
0000
,
0001
0000
0000
0010
,
0000
0100
0000
0010
,
0000
0000
0001
0000
,
0100
0000
0010
0000
,
1000
0000
0000
0010
,
0000
0100
0000
0010
,
0000
0000
1000
0000
,
0100
0000
0010
0000
,
0001
0000
1000
0001
,
0000
1000
0000
0001
,
2000
0000
3200
0000
,
0320
0000
0031
0000
,
1000
0000
0010
0100
,
0000
0010
0000
1000
,
0000
0000
0100
0000
,
1000
0000
1000
0000
,
0001
0000
0010
0100
,
0000
0010
0000
0001
,
0000
0000
0100
0000
,
0001
0000
0001
0000
,
1000
0000
0001
1000
,
0000
0010
0000
1000
,
0000
0000
0001
0000
,
0100
0000
0001
0000
,
1001
0000
0000
0000
,
1001
0000
0000
0110
,
0000
0000
0200
0000
,
0020
0000
0330
0000
,
1000
0000
0000
0010
0000
0100
0000
0010
,
0000
1000
0100
0010
,
0001
0000
0000
0010
0000
0100
0000
0010
,
0000
0001
0100
0010
,
1000
0000
0000
0010
0000
0100
0000
0010
,
0000
1000
0100
1000
,
0010
0000
0100
0010
0000
0100
0000
0010
,
2000
3200
0320
0031
,
1000
0000
0010
0000
0100
0010
0000
1000
,
0000
0001
1000
1000
,
0001
0000
0010
0100
0000
0010
0000
0001
,
0000
1000
0001
0001
,
1000
0000
0010
0100
0000
0010
0000
1000
,
0000
0001
0100
0001
,
0101
0000
0000
0000
0110
0000
0000
1010
,
0000
0000
0000
0000
,
2000
0000
0000
0000
0000
0000
3000
2002
,
3003
0000
0000
0000
;

//---------------dance-single - ----------------
#NOTEDATA:;
#CHARTNAME:;
#STEPSTYPE:dance-single;
#DESCRIPTION:;
#CHARTSTYLE:;
#DIFFICULTY:Beginner;
#METER:6;
#RADARVALUES:0.180982,0.407934,0.079632,0.166504,0.000000,175.000000,164.000000,11.000000,23.000000,0.000000,0.000000,0.000000,0.000000,0.000000,0.180982,0.407934,0.079632,0.166504,0.000000,175.000000,164.000000,11.000000,23.000000,0.000000,0.000000,0.000000,0.000000,0.000000;
#CREDIT:;
#DISPLAYBPM:125.000000:500.000000;
#NOTES:
// measure 0
0000
0000
0000
0000
,  // measure 1
0000
0000
0000
0000
,  // measure 2
0000
0000
0000
0000
,  // measure 3
0010
0010
0010
0000
,  // measure 4
0100
0100
0100
0000
,  // measure 5
0010
0010
0010
0000
,  // measure 6
0100
0100
0100
0000
,  // measure 7
0001
0000
1000
0000
,  // measure 8
0010
0000
1000
0000
,  // measure 9
0001
0000
1000
0000
,  // measure 10
0001
0000
0010
0000
,  // measure 11
0010
0000
0000
0000
,  // measure 12
0000
0000
0000
0000
,  // measure 13
0100
0000
0000
0000
,  // measure 14
0000
0000
0000
0000
,  // measure 15
0010
0000
0000
0000
,  // measure 16
0000
0000
0000
0000
,  // measure 17
0100
0000
0000
0000
,  // measure 18
0000
0000
0000
0000
,  // measure 19
1000
0000
0000
0000
,  // measure 20
0000
0000
0000
0000
,  // measure 21
0001
0000
0000
0000
,  // measure 22
0000
0000
0000
0000
,  // measure 23
1000
0000
0000
0000
,  // measure 24
0000
0000
0000
0000
,  // measure 25
0001
0000
0000
0000
,  // measure 26
0000
0000
0000
0000
,  // measure 27
2002
0000
0000
0000
,  // measure 28
0000
0000
0000
3003
,  // measure 29
1000
0000
0100
0000
,  // measure 30
0001
0000
0000
0000
,  // measure 31
1000
0000
0000
0000
,  // measure 32
0100
0000
0000
0000
,  // measure 33
1000
0000
0000
0000
,  // measure 34
0100
0000
0000
0000
,  // measure 35
1000
0000
0000
0000
,  // measure 36
0001
0000
0000
0000
,  // measure 37
1000
0000
0000
0000
,  // measure 38
0001
0000
0000
0000
,  // measure 39
0010
0000
0000
0000
,  // measure 40
0001
0000
0000
0000
,  // measure 41
0010
0000
0000
0000
,  // measure 42
0001
0000
0000
0000
,  // measure 43
1000
0000
0000
0000
,  // measure 44
0001
0000
0000
0000
,  // measure 45
1000
0000
0000
0000
,  // measure 46
0001
0000
0000
0000
,  // measure 47
0100
0000
0000
0000
,  // measure 48
0001
0000
0000
0000
,  // measure 49
0100
0000
0000
0000
,  // measure 50
0001
0000
0000
0000
,  // measure 51
1000
0000
0000
0000
,  // measure 52
0001
0000
0000
0000
,  // measure 53
1000
0000
0000
0000
,  // measure 54
0001
0000
0000
0000
,  // measure 55
1000
0000
0000
0000
,  // measure 56
0010
0000
0000
0000
,  // measure 57
1000
0000
0000
0000
,  // measure 58
0010
0000
0000
0000
,  // measure 59
0100
0000
0000
0000
,  // measure 60
0010
0000
0000
0000
,  // measure 61
0100
0000
0000
0000
,  // measure 62
0010
0000
0000
0000
,  // measure 63
0220
0000
0000
0000
,  // measure 64
0000
0000
0000
0330
,  // measure 65
0010
0000
0000
0000
,  // measure 66
1000
0000
0000
0000
,  // measure 67
0001
0000
0000
0000
,  // measure 68
0100
0000
0000
0000
,  // measure 69
2002
0000
0000
0000
,  // measure 70
0000
0000
0000
0000
,  // measure 71
3003
0000
0000
0000
,  // measure 72
0000
0000
0000
0000
,  // measure 73
0220
0000
0000
0000
,  // measure 74
0000
0000
0000
0000
,  // measure 75
0330
0000
0000
0000
,  // measure 76
0000
0000
0000
0000
,  // measure 77
2002
0000
0000
0000
,  // measure 78
0000
0000
0000
0000
,  // measure 79
3003
0000
0000
0000
,  // measure 80
0000
0000
0000
0000
,  // measure 81
0220
0000
0000
0000
,  // measure 82
0000
0000
0000
0000
,  // measure 83
0330
0000
0000
0000
,  // measure 84
0000
0000
0000
0000
,  // measure 85
2002
0000
0000
0000
,  // measure 86
3003
0000
0000
0000
,  // measure 87
0001
0000
0000
0000
,  // measure 88
0000
0000
0000
0000
,  // measure 89
1000
0000
0001
0000
,  // measure 90
1000
0000
0100
0000
,  // measure 91
0000
1000
1000
0000
,  // measure 92
0001
0000
1000
0000
,  // measure 93
0020
0000
0000
0030
,  // measure 94
0000
0000
0000
0000
,  // measure 95
0010
0000
0010
0000
,  // measure 96
0100
0000
0100
0000
,  // measure 97
0010
0000
0100
0000
,  // measure 98
0001
0000
0001
0000
,  // measure 99
0010
0000
0010
0000
,  // measure 100
0100
0000
0100
0000
,  // measure 101
0010
0000
0100
0000
,  // measure 102
1000
0000
1000
0000
,  // measure 103
0010
0000
0010
0000
,  // measure 104
0100
0000
0100
0000
,  // measure 105
0010
0000
0100
0000
,  // measure 106
0001
0000
0001
0000
,  // measure 107
0010
0000
0010
0000
,  // measure 108
0100
0000
0100
0000
,  // measure 109
0010
0000
0100
0000
,  // measure 110
1000
0000
1000
0000
,  // measure 111
2002
0000
3003
0000
,  // measure 112
0010
0000
0000
0000
,  // measure 113
0000
0000
0000
0000
,  // measure 114
0100
0000
0000
0000
,  // measure 115
0100
0000
0000
0000
,  // measure 116
0010
0000
0000
0000
,  // measure 117
0100
0000
0000
0000
,  // measure 118
0001
0000
0000
0000
,  // measure 119
0001
0000
0000
0000
,  // measure 120
0010
0000
0000
0000
,  // measure 121
0010
0000
0000
0000
,  // measure 122
0100
0000
0000
0000
,  // measure 123
0100
0000
0000
0000
,  // measure 124
0010
0000
0000
0000
,  // measure 125
0100
0000
0000
0000
,  // measure 126
1000
0000
0000
0000
,  // measure 127
1000
0000
0000
0000
,  // measure 128
0010
0000
0000
0000
,  // measure 129
0010
0000
0000
0000
,  // measure 130
0100
0000
0000
0000
,  // measure 131
0100
0000
0000
0000
,  // measure 132
0010
0000
0000
0000
,  // measure 133
0100
0000
0000
0000
,  // measure 134
0001
0000
0000
0000
,  // measure 135
0001
0000
0000
0000
,  // measure 136
0010
0000
0000
0000
,  // measure 137
0010
0000
0000
0000
,  // measure 138
0100
0000
0000
0000
,  // measure 139
0100
0000
0000
0000
,  // measure 140
0010
0000
0000
0000
,  // measure 141
0100
0000
0000
0000
,  // measure 142
2000
0000
0000
0000
,  // measure 143
3000
0000
0000
0000
,  // measure 144
2002
0000
0000
0000
,  // measure 145
0000
0000
0000
0000
,  // measure 146
3003
0000
0000
0000
,  // measure 147
0000
0000
0000
0000
,  // measure 148
1000
0000
0000
0000
,  // measure 149
0100
0000
0000
0000
,  // measure 150
0010
0000
0000
0000
,  // measure 151
0001
0000
0000
0000
,  // measure 152
1001
0000
0000
0000
,  // measure 153
0000
0000
0000
0000
,  // measure 154
0100
0000
0000
0000
,  // measure 155
0000
0000
0000
0000
,  // measure 156
0010
0000
0010
0000
,  // measure 157
0100
0000
0100
0000
,  // measure 158
0010
0000
0100
0000
,  // measure 159
0001
0000
1000
0000
,  // measure 160
0002
0000
0000
0000
0000
0000
0003
2002
,  // measure 161
3003
0000
0000
0000
;
