#VERSION:0.83;
#TITLE:Panic Holic;
#SUBTITLE:(VIP);
#ARTIST:C Show;
#TITLETRANSLIT:;
#SUBTITLETRANSLIT:;
#ARTISTTRANSLIT:;
#GENRE:;
#ORIGIN:;
#CREDIT:;
#BANNER:bn.png;
#BACKGROUND:bg.png;
#PREVIEWVID:;
#JACKET:jacket.png;
#CDIMAGE:;
#DISCIMAGE:;
#LYRICSPATH:;
#CDTITLE:;
#MUSIC:C-Show - Panic Holic (VIP) (DDR Edit).ogg;
#OFFSET:0.000000;
#SAMPLESTART:52.374966;
#SAMPLELENGTH:17.454548;
#SELECTABLE:YES;
#DISPLAYBPM:110.000000:440.000000;
#BPMS:0.000=110.000,
7.500=220.000,
8.000=110.000,
11.500=220.000,
16.000=110.000,
19.500=220.000,
20.000=110.000,
23.500=220.000,
24.000=110.000,
27.500=220.000,
32.000=110.000,
64.000=440.000,
184.000=110.000,
186.000=220.000,
250.000=110.000,
253.500=220.000,
254.000=110.000,
256.000=220.000,
258.000=110.000,
261.500=220.000,
262.000=110.000,
264.000=220.000,
266.000=110.000,
269.500=220.000,
270.000=110.000,
272.000=220.000,
273.500=110.000,
297.500=1150.000,
300.000=440.000,
431.000=110.000;
#STOPS:7.500=0.136,
11.500=0.136,
12.000=0.273,
13.000=0.273,
14.000=0.205,
14.750=0.205,
15.500=0.136,
19.500=0.136,
23.500=0.136,
27.500=0.136,
28.000=0.273,
29.000=0.273,
30.000=0.205,
30.750=0.205,
31.500=0.136,
253.500=0.136,
256.000=0.205,
256.750=0.205,
257.500=0.136,
261.500=0.136,
264.000=0.136,
264.500=0.205,
265.250=0.205,
269.500=0.136,
272.000=0.205,
272.750=0.205,
297.500=0.136,
425.000=0.136,
427.000=1.500,
429.000=0.136;
#DELAYS:;
#WARPS:;
#TIMESIGNATURES:0.000=4=4;
#TICKCOUNTS:0.000=4;
#COMBOS:0.000=1;
#SPEEDS:0.000=1.000=0.000=0;
#SCROLLS:0.000=1.000,
34.000=1.125,
36.000=1.250,
38.000=1.375,
40.000=1.500,
42.000=1.675,
44.000=1.750,
46.000=1.875,
48.000=2.000,
52.000=2.250,
56.000=2.500,
60.000=2.750,
62.000=1.000,
234.000=1.175,
236.000=1.250,
238.000=1.375,
240.000=1.500,
242.000=1.675,
244.000=1.750,
246.000=1.875,
248.000=2.000,
250.000=1.000,
281.250=0.875,
281.500=0.750,
281.750=0.625,
282.000=0.500,
282.500=0.625,
283.000=0.750,
283.500=0.875,
284.000=1.000,
284.500=1.125,
285.000=1.250,
285.500=1.375,
286.000=1.500,
286.500=1.625,
287.000=1.750,
287.500=1.875,
288.000=2.000,
288.500=2.125,
289.000=2.250,
289.500=2.375,
290.000=2.500,
290.500=2.625,
291.000=2.750,
291.500=2.875,
292.000=3.000,
292.500=3.125,
293.000=3.250,
293.500=3.375,
294.000=3.500,
294.500=3.750,
295.000=4.000,
295.500=4.250,
296.000=4.500,
296.500=4.750,
297.000=5.000,
297.500=0.500,
300.000=1.000;
#FAKES:;
#LABELS:0.000=Song Start,
7.500=start,
32.000=first build,
48.000=quick,
64.000=drop1,
128.000=drop1.5,
234.000=build to slow,
250.000=chil,
264.000=alright get go'n,
282.000=build2,
297.500=crap,
300.000=fast 2,
364.000=fast 2.5;
#BGCHANGES:;
#KEYSOUNDS:;
#ATTACKS:
;

//---------------dance-single - ----------------
#NOTEDATA:;
#CHARTNAME:Is it a 17;
#STEPSTYPE:dance-single;
#DESCRIPTION:;
#CHARTSTYLE:Pad;
#DIFFICULTY:Hard;
#METER:18;
#RADARVALUES:0.859344,1.970067,0.627842,0.492093,0.373312,709.000000,635.000000,74.000000,58.000000,2.000000,0.000000,0.000000,0.000000,0.000000,0.859344,1.970067,0.627842,0.492093,0.373312,709.000000,635.000000,74.000000,58.000000,2.000000,0.000000,0.000000,0.000000,0.000000;
#CREDIT:Elik;
#DISPLAYBPM:110.000000:440.000000;
#NOTES:
// measure 0
0000
0000
0000
0000
,  // measure 1
0000
0000
0000
0000
0000
0000
0000
1100
,  // measure 2
1001
0000
0001
0010
0001
0000
0010
0100
1000
0100
1000
0000
0001
0000
1100
0000
,  // measure 3
1100
0000
0000
0000
0101
0000
0000
0000
1100
0000
0000
1010
0000
0000
0011
0000
,  // measure 4
1010
0000
1000
0100
1000
0000
0010
0100
0001
0100
0010
0000
1000
0000
1100
0000
,  // measure 5
1001
0000
0001
0010
0001
0001
1000
0010
0100
0100
0010
1000
0001
0000
0011
0000
,  // measure 6
0110
0010
0100
1000
0001
0100
0010
0001
0010
1000
0100
1000
0010
0000
0101
0000
,  // measure 7
0101
0000
0000
0000
1100
0000
0000
0000
0101
0000
0000
0011
0000
0000
1010
0000
,  // measure 8
0011
0001
0101
0100
1100
1000
1001
0001
,  // measure 9
0011
0000
0010
0000
0110
0000
0100
0000
0101
0000
0001
0000
0011
0010
0000
0000
,  // measure 10
1010
1000
1001
0001
0101
0100
0110
0010
,  // measure 11
0021
0130
1200
0310
0021
1030
2010
3010
,  // measure 12
0100
0010
0100
0010
1000
0001
1000
0001
0010
0100
0010
0100
1000
0100
1000
0001
,  // measure 13
0100
0010
0100
0001
1000
0100
0010
0001
0010
0100
0001
0100
0010
0001
1000
0010
,  // measure 14
0100
1000
0100
0010
1000
0001
0010
1000
0010
0001
0100
1000
0100
0001
0010
0001
,  // measure 15
0100
1000
0100
0010
1000
0100
0001
0100
0020
0000
0000
0000
0032
0000
0000
0000
,  // measure 16
1003
0010
0100
1000
,  // measure 17
0100
0000
0001
0000
0010
0000
0100
0010
,  // measure 18
0001
1000
0010
0001
,  // measure 19
0010
0000
0100
0000
0001
0000
0010
0100
,  // measure 20
1000
0100
0010
1000
,  // measure 21
0010
0000
0001
0000
0100
0000
1000
0100
,  // measure 22
0010
0010
0100
0100
,  // measure 23
0001
0000
0010
0000
0100
0000
1000
0001
,  // measure 24
0010
1000
0010
0001
,  // measure 25
1000
0000
0010
0000
1000
0000
0001
0010
,  // measure 26
0100
0010
0001
0100
,  // measure 27
1000
0000
0100
0000
1000
0000
0100
0001
,  // measure 28
0010
0010
0010
0100
,  // measure 29
1000
0000
0010
0000
0100
0000
0001
0010
,  // measure 30
0001
0001
0001
0001
,  // measure 31
0001
0001
0001
0001
,  // measure 32
2002
3003
0000
0000
0001
0000
0010
0000
,  // measure 33
1000
0000
0010
0000
0100
0000
0010
0100
,  // measure 34
1000
0001
0100
0010
,  // measure 35
1000
0000
0100
0000
0001
0000
0100
0010
,  // measure 36
0001
0100
1000
0100
,  // measure 37
0010
0000
1000
0000
0001
0000
0010
0100
,  // measure 38
2000
3020
0230
2300
,  // measure 39
3200
0302
0023
0230
,  // measure 40
0310
0001
0010
1000
,  // measure 41
0001
0000
1000
0000
0010
0000
0100
0010
,  // measure 42
0001
1000
0010
0001
,  // measure 43
1000
0000
0001
0000
0010
0000
0100
0010
,  // measure 44
2100
0100
3000
0000
,  // measure 45
0012
0010
0000
0003
,  // measure 46
2002
0000
0000
3003
1001
0000
0001
0000
,  // measure 47
0012
0003
0010
0100
0010
1000
0001
1000
,  // measure 48
0010
0100
0010
0001
2001
3000
0010
0100
,  // measure 49
0010
0001
1000
0001
0010
0001
0010
0100
,  // measure 50
0001
1000
0100
0010
1020
0030
0100
0010
,  // measure 51
0001
1000
0010
0001
0010
1000
0100
0001
,  // measure 52
0100
0010
0001
0010
2100
0100
0100
3000
,  // measure 53
0201
0001
0001
0300
1020
1000
1000
0030
,  // measure 54
0012
0010
0010
0003
0021
0030
0001
1000
,  // measure 55
2010
3000
0010
0100
0102
0003
1000
0100
,  // measure 56
0010
0100
0001
0100
0210
0300
0010
0001
,  // measure 57
1002
0003
1000
0010
0120
0030
0001
0000
,  // measure 58
2020
3030
1000
0100
,  // measure 59
0001
0100
1000
0100
,  // measure 60
0001
0000
0100
0000
1000
0010
0100
0010
,  // measure 61
0001
0010
0100
0010
1000
0010
0100
0001
,  // measure 62
0010
0100
0010
0100
2002
0000
0000
0000
,  // measure 63
3003
0000
0000
1100
0022
0000
0033
0000
,  // measure 64
1010
0000
0000
0011
0000
0000
1100
0000
0202
0000
0000
0000
0000
0000
0000
0000
,  // measure 65
0303
0000
0000
0110
2002
0000
3003
0000
,  // measure 66
0110
0000
0110
0000
0000
1001
0000
0000
1010
0000
0010
0000
0100
0000
1000
0000
,  // measure 67
0100
0001
0010
1000
0010
0100
1000
0010
,  // measure 68
0100
0000
0000
0001
0000
0000
0001
0000
1000
0100
0010
0100
1000
0100
0010
0100
,  // measure 69
1000
0001
0100
0001
1000
0001
0100
0001
1000
0000
0010
0000
0001
0000
0010
0000
,  // measure 70
1000
0000
0200
0000
0000
0001
0000
0000
1300
0000
0100
0000
0010
0000
0001
1000
,  // measure 71
1000
0000
0100
0000
0100
0000
0010
0001
0001
0000
1000
0000
1000
0000
0010
0100
,  // measure 72
0100
0000
1000
0000
1000
0000
0100
0010
0010
0000
1000
0100
0010
0000
0001
0100
,  // measure 73
1000
0000
0000
0000
0100
0000
0010
0000
1000
0000
0000
0000
0100
0000
1000
0000
0001
1000
0001
1000
0001
1000
0001
1000
0001
1000
0010
1000
0010
1000
0010
1000
,  // measure 74
0010
0100
0010
0100
0010
0100
0010
0100
0001
1000
0001
0000
2002
0000
0000
0000
0000
0000
0000
0000
3003
0000
0000
0000
0000
0000
0000
0000
0000
0000
0000
0000
,  // measure 75
1000
0000
0010
0000
0100
0000
1000
0100
,  // measure 76
0010
0000
1000
0000
0100
0000
0001
0100
,  // measure 77
0010
0000
0001
0010
1000
0000
0010
0000
,  // measure 78
0001
1000
0010
0100
,  // measure 79
0010
0000
0001
0000
0010
0000
0100
0010
,  // measure 80
1000
0000
0100
0000
0001
0000
0100
0010
,  // measure 81
0001
0000
1000
0000
0010
0000
0100
0010
,  // measure 82
1000
0000
0001
1000
0020
0000
0030
0000
,  // measure 83
0010
0000
0100
0000
1000
0000
0100
0010
,  // measure 84
1000
0000
0001
0000
0010
0000
0100
0010
,  // measure 85
0001
0000
0010
0001
1000
0000
0010
0000
,  // measure 86
0100
0001
0100
1000
,  // measure 87
0100
0100
0100
0001
,  // measure 88
0010
0100
0010
0001
,  // measure 89
2100
0100
0100
0100
,  // measure 90
0100
0200
0000
3300
,  // measure 91
1100
0000
1000
0000
0001
0000
0010
0100
,  // measure 92
1000
0000
0010
0000
0100
0000
0001
0010
,  // measure 93
0100
0000
1000
0000
0010
0000
0100
0001
,  // measure 94
0010
0000
0100
0010
0001
0000
0010
0000
,  // measure 95
0010
0100
0001
0100
,  // measure 96
0010
0001
0100
0010
,  // measure 97
1000
1000
0100
0001
,  // measure 98
0001
0100
0020
0030
,  // measure 99
0001
0000
1000
0000
0010
0000
0100
0010
,  // measure 100
1000
0000
0100
0000
0001
0000
0100
0010
,  // measure 101
0001
0000
1000
0010
0100
0000
0001
0000
,  // measure 102
0010
0100
0001
0100
,  // measure 103
0010
0010
0010
0010
,  // measure 104
0010
0010
0010
0010
,  // measure 105
0010
0100
0010
1000
0010
0001
0010
0100
,  // measure 106
0010
0000
2002
3003
0000
0000
0220
0000
,  // measure 107
0330
0000
2002
3003
0000
0000
0220
M00M
,  // measure 108
0330
0000
0000
0000
;

//---------------dance-single - ----------------
#NOTEDATA:;
#CHARTNAME:;
#STEPSTYPE:dance-single;
#DESCRIPTION:;
#CHARTSTYLE:Pad;
#DIFFICULTY:Medium;
#METER:15;
#RADARVALUES:0.622994,1.328650,0.118781,0.449671,0.089086,514.000000,500.000000,14.000000,53.000000,0.000000,0.000000,0.000000,0.000000,0.000000,0.622994,1.328650,0.118781,0.449671,0.089086,514.000000,500.000000,14.000000,53.000000,0.000000,0.000000,0.000000,0.000000,0.000000;
#CREDIT:Elik;
#DISPLAYBPM:110.000000:440.000000;
#NOTES:
0000
0000
0000
0000
,
0000
0000
0000
0000
0000
0000
0000
1100
,
1100
1000
0100
0010
0100
0010
0001
0010
,
0020
0000
0030
0000
0002
0000
0003
0000
0020
0000
0030
0200
0000
0300
2000
0000
,
3100
0010
0100
1000
0001
0100
0010
0110
,
0110
0000
0100
0000
0001
0100
0001
0000
1000
0000
0100
0000
1000
0000
1001
0000
,
1001
0000
0001
0000
0010
0100
0010
0000
0100
0010
0100
0000
0010
0000
0001
0000
,
0020
0000
0030
0000
0200
0000
0300
0000
2000
0000
3000
0020
0000
0030
0200
0000
,
0301
0010
0100
0010
0100
0001
0100
0010
,
0001
1000
0010
0100
0010
0100
0010
0001
,
0010
0100
0001
1000
0100
0010
0100
0001
,
0100
0010
0001
1000
0010
0100
0010
0001
,
0010
0100
0001
1000
0100
0001
0100
1000
,
0010
0001
0010
1000
0100
0001
0100
1000
,
0100
1000
0100
0010
0100
0010
0001
1000
0001
1000
0010
0100
0010
0100
0001
1000
,
0001
0010
0100
0010
0001
1000
0010
0100
0002
0000
0000
0000
0000
0000
0003
0000
,
0100
0010
0100
0001
,
0100
0010
1000
0100
,
0001
0100
1000
0010
,
0100
0010
0001
0010
,
0100
0010
1000
0100
,
0010
1000
0010
0001
,
1000
0200
0300
0010
,
0002
0003
0010
0100
,
0010
1000
0010
0100
,
1000
0001
0100
0010
,
1000
0010
0001
0010
,
0100
0001
0010
0100
,
1000
2000
3000
0100
,
1000
0001
0100
0010
,
1000
1000
0001
0001
,
0010
0010
0100
0100
,
2000
3000
0100
0010
,
1000
0010
0100
0001
,
0100
0010
0001
0100
,
1000
0100
0001
0010
,
1000
0010
0001
0010
,
1000
0010
0001
0010
,
2000
3020
0032
0203
,
2300
3002
2003
3200
,
0310
1000
0001
0010
,
1000
0010
0001
0100
,
1000
0100
0010
0100
,
1000
0100
0001
0010
,
2200
0000
3300
0000
,
0022
0000
0033
0000
,
2020
3030
0010
1000
,
0100
0000
0100
0010
0100
0001
0100
1000
,
0001
0100
0010
1000
0100
0000
0010
0000
,
1000
0000
0010
0100
0010
1000
0010
0001
,
1000
0010
0100
1000
0100
0000
0010
0000
,
1000
0000
1000
0010
1000
0001
0010
1000
,
0010
0100
1000
0000
2200
0000
3300
0000
,
0022
0000
0003
0000
0130
0000
1000
0010
,
0100
0000
0010
1000
0100
0000
0010
0000
,
0100
0000
0100
1000
0100
0001
0100
1000
,
0010
0001
0010
1000
0010
0000
0100
0000
,
0001
0000
0001
0010
0001
1000
0001
0100
,
0200
0300
0010
0010
,
1000
1000
0001
0001
,
0010
0000
1000
0000
0010
0100
0010
0001
,
1000
0001
1000
0010
0200
0000
0000
0000
,
0000
0300
0110
0000
,
0000
0000
0000
0100
0200
0000
0300
0000
,
0020
0030
0000
0020
0030
0000
0001
0000
0002
0000
0000
0000
0000
0000
0000
0000
,
0000
0000
0003
1000
2000
0000
3000
0000
,
0200
0300
0020
0030
0000
0002
0003
0000
0100
0000
0000
0000
0010
0000
0000
0000
,
1000
0000
0100
0010
0010
0000
0100
0000
,
0002
0003
0000
0200
0300
0000
0010
0000
0001
0000
1000
0000
0010
0000
1000
0000
,
0001
0010
0100
0010
0001
0010
0000
0100
,
1000
0000
1000
0000
0000
0010
0000
0000
0100
0000
0001
0000
0100
0000
0001
0000
,
1000
0100
1000
0100
0010
0001
0010
0001
,
1000
0010
1000
0010
1000
0001
1000
0010
,
0100
0001
0100
0010
2002
0000
0000
0000
,
0000
0000
0000
3003
0000
0000
0000
0000
,
1001
0000
0001
0010
,
0100
1000
0001
0010
,
0100
0010
1000
0010
,
0001
0100
0010
1000
,
1000
0010
0100
0001
,
0100
1000
0100
0010
,
1000
1000
0100
0010
,
0010
1000
0010
0100
,
0001
0100
0010
0001
,
0100
1000
0100
0001
,
0100
1000
0100
0010
,
1000
0001
0010
0001
,
0100
0100
0100
0010
,
1000
0100
0010
0100
,
0010
0010
0100
0100
,
1000
2000
0000
3000
,
0100
0001
0100
1000
,
0100
0001
0100
1000
,
0010
0100
1000
0100
,
0001
0100
1000
0100
,
0001
0010
1000
0010
,
0001
1000
0010
0100
,
1000
2000
3000
0100
,
0100
0010
1000
0100
,
0001
0100
0010
1000
,
0010
1000
0010
0001
,
0100
0001
0100
0010
,
1000
0010
0100
0000
,
0100
0100
0100
0100
,
1000
1000
1000
1000
,
0010
0010
0010
0010
,
0000
0000
0020
0030
0000
0000
2000
3000
,
0000
0000
0200
0300
0000
0000
0020
0000
,
0030
0000
0000
0000
;

//---------------dance-single - ----------------
#NOTEDATA:;
#CHARTNAME:;
#STEPSTYPE:dance-single;
#DESCRIPTION:;
#CHARTSTYLE:Pad;
#DIFFICULTY:Easy;
#METER:12;
#RADARVALUES:0.420582,0.778864,0.084844,0.373312,0.029695,347.000000,337.000000,10.000000,44.000000,0.000000,0.000000,0.000000,0.000000,0.000000,0.420582,0.778864,0.084844,0.373312,0.029695,347.000000,337.000000,10.000000,44.000000,0.000000,0.000000,0.000000,0.000000,0.000000;
#CREDIT:Elik;
#DISPLAYBPM:110.000000:440.000000;
#NOTES:
0000
0000
0000
0000
,
0000
0000
0000
0000
0000
0000
0000
0100
,
0200
0000
0300
0000
1000
0000
0010
0100
,
0020
0000
0030
0000
0200
0000
0300
0000
0002
0000
0003
2000
0000
3000
0100
0000
,
0100
0000
0010
0000
0001
0000
1000
0100
,
0200
0000
0310
0000
0100
0000
1000
0001
,
0002
0000
1003
0000
0010
0000
0100
0010
,
0020
0000
0030
0000
0200
0000
0300
0000
0002
0000
0003
0200
0000
0300
0010
0000
,
0010
0110
0100
0101
,
0001
0000
0000
0000
1001
0000
0000
0000
1000
0000
0000
0000
0100
0100
0000
0000
,
1100
1000
1010
0010
,
0110
0000
0100
0000
0101
0000
0001
0010
,
0100
1000
0100
0010
0001
1000
0010
0100
,
0001
0100
0010
1000
0100
0010
0100
0010
,
0001
0010
1000
0010
0001
0100
1000
0100
,
0001
0010
1000
0010
0002
0000
0003
0000
,
1000
0000
0001
0000
,
0010
0000
0100
0010
,
0001
0000
1000
0000
,
0010
0000
0100
0010
,
1000
0000
0001
0000
,
0010
0000
0100
1000
,
0001
0000
1000
0100
,
0010
0000
0100
0010
,
0001
0000
1000
0000
,
0010
0000
0100
0010
,
1000
0000
0001
0000
,
0010
0000
0100
0010
,
0001
0000
1000
0000
,
0010
0000
0100
0000
,
0001
0100
0001
0100
,
0001
0100
0001
0100
,
0001
0000
1000
0000
,
0001
0000
0100
0010
,
1000
0000
0100
0000
,
0010
0000
0100
1000
,
0100
0000
0010
0000
,
0001
0000
1000
0010
,
0200
0000
0320
0000
,
2030
0000
3200
0000
,
0310
0000
0100
0000
,
1000
0000
0001
0010
,
0100
0000
0010
0000
,
0001
0000
1000
0010
,
0200
0300
0000
0000
,
0020
0030
0000
0000
,
0220
0330
0100
0000
,
0010
1000
0100
0001
,
0100
1000
0001
0000
,
0100
0000
0010
0100
,
1000
0100
0001
0000
,
0010
0000
0100
0001
,
0100
1000
0020
0000
,
0230
0000
0302
0003
,
0202
0303
0001
0010
,
0100
0010
0001
1000
,
0010
0100
0010
1000
,
0010
1000
0100
0010
,
0002
0003
0010
0100
,
0010
0001
1000
0010
,
0100
0010
1000
0100
,
0001
0100
2000
0000
,
3000
0000
1001
0000
,
0000
0000
0000
0002
1003
0000
0000
0000
,
0020
0000
0030
0200
0000
0300
0020
0000
1030
0000
0000
0000
0000
0000
0000
0000
,
0000
0000
0000
0002
0013
0000
0000
0000
,
0200
0000
2300
0000
3000
0002
0000
0003
0100
0000
0000
0000
0100
0000
0000
0000
,
0100
0000
0100
0010
0010
0000
0010
0000
,
0020
0000
0030
0200
0000
0300
0001
0000
0020
0000
0000
0000
0100
0000
0000
0000
,
0001
0000
0130
0100
0010
0000
0001
0000
,
1000
0000
0001
0000
0000
0100
0000
0000
0010
0000
0000
0000
1000
0000
0000
0000
,
0010
0100
0010
0001
,
0010
0000
0100
0000
0010
1000
0010
1000
,
0001
1000
0001
0010
0200
0000
0000
0000
,
0000
0000
0000
0300
0000
0000
0000
0000
,
0100
0000
1000
0000
,
0100
0000
0010
0000
,
0001
0000
1000
0000
,
0010
0000
0100
0010
,
1000
0000
0100
0000
,
0010
0000
0100
0000
,
1000
0100
0010
0000
,
0001
0000
1000
0010
,
0100
0000
0010
0000
,
1000
0000
0010
0000
,
0100
0000
0001
0000
,
0010
0000
0100
1000
,
0100
1000
0100
0000
,
0010
0000
0001
0010
,
0001
0010
0001
0010
,
0001
0010
0001
1000
,
0001
0000
0100
0000
,
0010
0000
0100
0000
,
0001
0000
1000
0000
,
0100
0000
0010
0001
,
0100
0000
0010
0000
,
1000
0000
0010
0000
,
0100
0010
1000
0000
,
0010
0000
0100
0010
,
0100
0000
0010
0000
,
0100
0000
0001
0000
,
0100
0000
0010
0000
,
1000
0000
0010
0000
,
0100
0010
0100
0010
,
0100
0001
0100
0001
,
1000
0001
1000
0002
,
0003
2000
3000
0002
,
0003
2000
3000
0002
,
0003
0000
0000
0000
;

//---------------dance-single - ----------------
#NOTEDATA:;
#CHARTNAME:;
#STEPSTYPE:dance-single;
#DESCRIPTION:;
#CHARTSTYLE:Pad;
#DIFFICULTY:Beginner;
#METER:7;
#RADARVALUES:0.241198,0.549786,0.093328,0.322405,0.004242,199.000000,188.000000,11.000000,38.000000,0.000000,0.000000,0.000000,0.000000,0.000000,0.241198,0.549786,0.093328,0.322405,0.004242,199.000000,188.000000,11.000000,38.000000,0.000000,0.000000,0.000000,0.000000,0.000000;
#CREDIT:Elik;
#DISPLAYBPM:110.000000:440.000000;
#NOTES:
0000
0000
0000
0000
,
0000
0000
0000
0000
0000
0000
0000
0200
,
0300
0100
0100
0200
,
0300
0000
0000
0000
0020
0000
0030
0000
0000
0000
0000
0002
0000
0003
0000
0000
,
0001
0010
0100
2000
,
3001
0000
1000
0020
,
0130
0010
1000
0002
,
0023
0230
2300
0000
,
3100
0010
0001
0010
,
0100
1000
0001
0100
,
0010
1000
0010
0100
,
0010
1000
0001
0010
,
0100
0100
1000
1000
,
0100
0100
0010
0010
,
0001
0010
0001
0000
0010
0001
0010
0000
,
0100
0010
0100
0000
2000
0000
0000
3000
,
0100
0000
0000
0000
,
0100
0000
0000
0000
,
0010
0000
0000
0000
,
0010
0000
0000
0000
,
0001
0000
0000
0000
,
0001
0000
0000
0000
,
1000
0000
0001
0000
,
1000
0000
0000
0000
,
0001
0000
0000
0000
,
0100
0000
0000
0000
,
0001
0000
0000
0000
,
0100
0000
0000
0000
,
0010
0000
0000
0000
,
1000
0000
0000
0000
,
0010
0000
1000
0000
,
0010
0000
1000
0000
,
0010
0000
0000
0000
,
0100
0000
0000
0000
,
0001
0000
0000
0000
,
1000
0000
0000
0000
,
0100
0000
0000
0000
,
0010
0000
0000
0000
,
0200
0000
0000
0000
,
0320
0000
0000
0000
,
0031
0000
0000
0000
,
1000
0000
0000
0000
,
0001
0000
0000
0000
,
0100
0000
0000
0000
,
0020
0030
0000
0000
,
2000
3000
0000
0000
,
0020
0030
0000
0000
0110
0000
0000
0000
,
0010
0000
1000
0000
,
0010
0000
1010
0000
,
1000
0000
0001
0000
,
0010
0000
0011
0000
,
0001
0000
0100
0000
,
0001
0000
0101
0000
,
0100
0000
0010
0000
,
0100
0000
0110
0000
,
0010
0000
1000
0000
,
0100
0000
1100
0000
,
1000
0000
0100
0000
,
0010
0000
1001
0000
,
0000
0000
0110
0000
,
0000
0000
1001
0000
,
0000
0000
1100
0000
,
0000
0000
0011
0000
,
0000
0000
0000
0000
0200
0300
0000
0000
,
2000
3000
0200
0300
,
0000
0000
0000
0000
0020
0030
0000
0000
,
0002
0000
0000
0000
0003
0000
0000
0000
0020
0030
0000
0000
0020
0030
0000
0000
,
0020
0030
0000
0000
0020
0000
0030
0000
0200
0300
0000
0000
0200
0300
0000
0000
,
0200
0000
0300
0000
2000
3000
0200
0300
,
0020
0030
0002
0003
2000
3000
0020
0030
,
0200
0300
0000
0000
0001
0000
0010
0000
,
0100
0010
0001
1000
,
0010
0100
0001
0100
,
0010
1000
0020
0000
,
0000
0000
0000
0000
,
0030
0000
0000
0000
,
0100
0000
0000
0000
,
0001
0000
0000
0000
,
1000
0000
0000
0000
,
0100
0000
0000
0000
,
0010
0000
0000
0000
,
0100
0000
1000
0000
,
0100
0000
1000
0000
,
0100
0000
0000
0000
,
0010
0000
0000
0000
,
0001
0000
0000
0000
,
1000
0000
0000
0000
,
0010
0000
0000
0000
,
0100
0000
0000
0000
,
0010
0000
0100
0000
,
0010
0000
0100
0000
,
0001
0000
0000
0000
,
1000
0000
0000
0000
,
0100
0000
0000
0000
,
0010
0000
0000
0000
,
0100
0000
0000
0000
,
1000
0000
0000
0000
,
0001
0000
0000
0000
,
0100
0000
0000
0000
,
0001
0000
0000
0000
,
1000
0000
0000
0000
,
0100
0000
0000
0000
,
0010
0000
0000
0000
,
0100
0000
1000
0000
,
0100
0000
1000
0000
,
0001
0000
1000
0000
,
0002
0000
0000
0000
,
0000
0003
0000
0002
,
0003
0000
0000
0000
;
