#VERSION:0.83;
#TITLE:PARANOiA (ERROR 205 mix);
#SUBTITLE:no cmod;
#ARTIST:Zach Bell;
#TITLETRANSLIT:;
#SUBTITLETRANSLIT:;
#ARTISTTRANSLIT:;
#GENRE:;
#ORIGIN:;
#CREDIT:;
#BANNER:error205-bn.png;
#BACKGROUND:error205-bg.png;
#PREVIEWVID:;
#JACKET:error205-jacket.png;
#CDIMAGE:;
#DISCIMAGE:;
#LYRICSPATH:;
#CDTITLE:;
#MUSIC:paranoia-error205.ogg;
#OFFSET:0.000000;
#SAMPLESTART:9.364853;
#SAMPLELENGTH:18.731709;
#SELECTABLE:YES;
#BPMS:0.000=205.000;
#STOPS:;
#DELAYS:;
#WARPS:;
#TIMESIGNATURES:0.000=4=4;
#TICKCOUNTS:0.000=4;
#COMBOS:0.000=1;
#SPEEDS:0.000=1.000=0.000=0;
#SCROLLS:0.000=1.000,
47.000=0.000,
48.000=1.000,
96.000=0.500,
112.000=0.525,
113.000=0.550,
114.000=0.575,
115.000=0.600,
116.000=0.625,
117.000=0.650,
118.000=0.675,
119.000=0.700,
120.000=0.725,
121.000=0.750,
122.000=0.775,
123.000=0.800,
124.000=0.825,
125.000=0.850,
126.000=0.750,
126.250=0.700,
126.500=0.600,
126.750=0.500,
127.500=0.750,
127.750=0.800,
128.000=1.000,
192.000=0.750,
199.500=0.825,
200.000=1.000,
271.000=0.000,
272.000=1.000,
319.000=0.000,
320.000=0.500;
#FAKES:;
#LABELS:0.000=Song Start,
32.000=Intro,
64.000=Intro 2,
80.000=build 1,
96.000=slow 1,
128.000=main 1,
160.000=main 2,
192.000=main 3,
224.000=main 4,
256.000=outro 1,
288.000=outro 2,
320.000=end;
#BGCHANGES:;
#KEYSOUNDS:;
#ATTACKS:
;

//---------------dance-single - ----------------
#NOTEDATA:;
#CHARTNAME:;
#STEPSTYPE:dance-single;
#DESCRIPTION:;
#CHARTSTYLE:Pad;
#DIFFICULTY:Challenge;
#METER:17;
#RADARVALUES:0.860140,1.013633,0.324363,0.010136,0.263545,594.000000,562.000000,32.000000,1.000000,0.000000,0.000000,1.000000,0.000000,0.000000,0.860140,1.013633,0.324363,0.010136,0.263545,594.000000,562.000000,32.000000,1.000000,0.000000,0.000000,1.000000,0.000000,0.000000;
#CREDIT:Zach Bell;
#NOTES:
0000
0000
0000
0000
,
0000
0000
0000
0000
,
0000
0000
0000
0000
,
0000
0000
0000
0000
,
0000
0000
0000
0000
,
0000
0000
0000
0000
,
0000
0000
0000
0000
,
0000
0000
0000
0000
,
0001
1000
0100
0010
1000
0010
0001
1000
,
0010
0100
1000
0100
0001
1000
0100
0001
,
0001
0100
1000
0001
0100
0010
0001
0010
,
1000
0001
0010
0100
1000
1000
1000
0000
,
1000
0001
0100
0010
0001
1000
0100
0010
,
1000
0001
0010
0100
0001
1000
0010
0010
,
0010
0001
1000
0010
0100
1000
0100
0001
,
1000
0000
1000
0000
0010
0000
0010
0000
1000
0100
1000
0100
0010
0001
1000
0001
,
0010
0001
0010
1000
0010
0100
1000
0001
,
0100
0010
0001
0010
1000
0001
0010
0010
,
0010
0001
1000
0010
0100
1000
0100
0001
,
1000
0100
0001
0100
1000
1000
0001
0001
,
0100
0010
0001
1000
0100
0001
1000
0100
,
0001
1000
0010
0001
1000
0010
0100
0100
,
0001
0010
0100
0100
1000
0010
0100
0100
,
0001
1000
0010
1000
0001
0100
0010
0100
0001
1000
0010
1000
0001
0100
0000
0000
,
0101
0000
0001
0000
0010
0000
0100
1000
,
0010
0100
0010
0000
1000
0000
0010
1000
,
0100
0000
0100
0000
1000
0000
0001
0100
,
0010
0100
0001
0000
1000
0000
0100
0010
,
0100
0000
0100
0000
1000
0000
0001
0010
,
0100
1000
0010
0000
0100
0000
0001
1000
,
0100
0000
0010
0000
0001
0000
1000
0010
,
0100
0001
0010
0000
0400
0000
0000
0300
,
1000
0011
0100
1010
,
0001
0000
1100
0000
0001
0000
0011
0001
,
1000
0101
0010
1100
,
0010
0000
0101
0000
0010
1000
1010
0010
,
0100
0011
0100
1010
,
0100
0000
1001
0000
0001
0000
0110
0010
,
1000
1010
0001
0110
,
1000
0000
0001
0000
0101
0000
0010
0000
1000
0010
0100
0010
1000
0001
0100
0001
,
1000
0100
1100
1000
0001
0010
0011
0001
,
1000
0010
0110
0100
0001
1000
1100
0100
,
0010
0001
0101
0100
0010
1000
1010
0001
,
1000
0100
1100
1000
0001
0001
1000
1000
,
0100
0010
1100
0010
0001
0100
1010
0100
,
0001
1000
0110
0001
0010
0100
1001
0010
,
0100
1000
0011
0100
0010
1000
0101
0010
,
0100
0000
1000
0000
0110
0000
1000
0000
0001
1000
0100
1000
0001
0100
0001
0100
,
0002
0000
0000
0000
,
0000
0000
0000
0000
0000
0000
0003
1000
,
0001
0010
0100
1000
0010
0100
0001
0010
,
0100
1000
0100
1000
0001
1000
0001
0100
0001
0100
0010
0100
0010
1000
0010
1000
,
0001
0100
0001
0010
0100
1000
0010
0100
,
0001
0100
0001
1000
0010
1000
0001
0100
0001
1000
0010
1000
0001
0100
0001
1000
,
0010
1000
0100
0010
0001
0100
0010
1000
,
0100
1000
0100
0010
0100
1000
0001
0010
0001
1000
0010
0100
0001
1000
0100
0010
,
0001
0010
0100
0010
0001
1000
0010
0001
,
0010
1000
0001
0010
1000
0010
0100
1000
,
0001
0100
0010
1000
0001
0010
1000
0001
,
0100
1000
0001
0100
0010
1000
0001
0001
,
1000
0100
0001
1000
0010
0001
1000
0010
,
0100
1000
0100
0001
1000
0100
0001
0100
,
0010
0001
1000
0010
0100
1000
0100
0010
,
1000
0010
0100
1000
0100
0100
0000
0000
,
0101
0001
1000
0100
0010
1000
0010
0001
,
1000
0010
0100
1000
0100
0001
1000
1000
,
1000
0001
0010
0100
0001
0100
0010
0001
,
1000
0100
0010
0001
1000
1000
1000
0000
,
1000
0010
0100
0001
1000
0100
0001
0100
,
0010
1000
0010
0001
1000
0010
0100
1000
,
1000
0100
0001
1000
0100
0010
0100
1000
,
0001
0000
0001
0000
1000
0000
1000
0000
0010
1000
0001
1000
0001
0100
0010
0100
,
0001
1000
0100
0001
1000
0010
0001
1000
,
0010
0100
1000
0100
0001
1000
0100
0001
,
0001
0100
0010
0001
1000
0010
0100
1000
,
0100
0001
0010
0100
1000
1000
0001
0001
,
0010
1000
0001
0100
1000
0001
0100
1000
,
0001
0010
1000
0001
0010
0100
0010
1000
,
1000
0010
0001
1000
0010
0100
0001
1000
,
0001
1000
0001
1000
0010
1000
0010
0100
0001
0100
0001
0000
0000
0000
0000
0000
,
1001
0000
0000
0000
;

//---------------dance-single - ----------------
#NOTEDATA:;
#CHARTNAME:;
#STEPSTYPE:dance-single;
#DESCRIPTION:;
#CHARTSTYLE:Pad;
#DIFFICULTY:Hard;
#METER:15;
#RADARVALUES:0.816699,0.891997,0.304090,0.010136,0.167250,564.000000,534.000000,30.000000,1.000000,0.000000,0.000000,1.000000,0.000000,0.000000,0.816699,0.891997,0.304090,0.010136,0.167250,564.000000,534.000000,30.000000,1.000000,0.000000,0.000000,1.000000,0.000000,0.000000;
#CREDIT:Zach Bell;
#NOTES:
0000
0000
0000
0000
,
0000
0000
0000
0000
,
0000
0000
0000
0000
,
0000
0000
0000
0000
,
0000
0000
0000
0000
,
0000
0000
0000
0000
,
0000
0000
0000
0000
,
0000
0000
0000
0000
,
1000
0001
0100
0010
0100
1000
0100
0010
,
1000
0001
0010
0100
0001
0100
0010
0001
,
0001
1000
0010
0100
0001
0010
0100
1000
,
0010
0100
0001
0010
0001
0001
0001
0000
,
0001
1000
0001
0010
0100
0001
0100
0010
,
0001
1000
0010
0100
1000
0100
0010
1000
,
1000
0010
0100
0001
1000
0100
0010
0001
,
0010
0000
0010
0000
0100
0000
0100
0000
1000
0100
1000
0000
0001
0010
0001
0000
,
0010
0001
1000
0010
0100
1000
0100
0010
,
1000
0001
1000
0010
0100
0001
0010
0100
,
0100
1000
0100
1000
0010
0100
0001
1000
,
0010
0100
0010
1000
0010
0010
1000
1000
,
1010
0010
0100
0001
0010
0100
0010
0001
,
0100
0010
1000
0100
0001
0100
0010
0001
,
0010
0010
0100
0100
1000
1000
0001
0001
,
0100
0001
0100
0001
0100
0000
0010
0000
1000
0010
1000
0010
1000
0000
0000
0000
,
0101
0000
0100
0000
0010
0000
1000
0001
,
0010
0100
0010
0000
0001
0000
1000
0010
,
0100
0000
0100
0000
0001
0000
1000
0100
,
0010
0100
1000
0000
0010
0000
0100
0010
,
1000
0000
0010
0000
0100
0000
0001
0010
,
0100
1000
0010
0000
0100
0000
0010
1000
,
0100
0000
0010
0000
0001
0000
0100
0001
,
0010
0100
1000
0000
0040
0000
0000
0030
,
1000
1010
0010
0110
,
0100
0101
0001
0011
,
0010
0110
0100
1100
,
1000
0000
1001
0000
0001
0001
0101
0100
,
0010
0101
1000
0011
,
0100
1001
0010
1100
,
0010
0101
1000
0011
,
1000
0000
1000
0000
1010
0000
0010
0000
1000
0010
1000
0010
0100
0010
1000
0000
,
0001
0000
0011
0010
0001
1000
1010
0000
,
0010
0000
0110
0100
0001
0010
0011
0000
,
0100
0000
0011
0001
1000
0010
0110
0000
,
1000
0000
0011
0001
1000
1000
1010
0010
,
0100
0010
1000
0001
0010
0100
0110
0010
,
0001
1000
0010
0100
1000
0100
0110
0010
,
1000
0100
0001
0100
0010
0001
0011
0010
,
0100
0000
0100
0000
1000
0000
1000
0000
0001
0010
0001
0010
0001
0010
0001
0000
,
0020
0000
0000
0000
,
0000
0000
0000
0000
0000
0000
0030
0001
,
0001
1000
0010
0001
1000
0100
0001
1000
,
0100
1000
0100
0000
0010
0100
0010
0000
0001
0010
0001
0000
1000
0001
1000
0000
,
0010
0100
1000
0100
0001
0010
0100
0010
,
0001
0010
0001
0000
1000
0001
1000
0000
0010
0100
0010
0000
1000
0001
1000
0000
,
0001
0010
1000
0001
0100
0010
0001
1000
,
0010
0100
0001
0000
1000
0010
0100
0000
0001
1000
0100
0000
0010
0001
1000
0000
,
0001
0010
0100
0001
0100
0010
0001
1000
,
0010
0100
1000
0100
0010
1000
0100
0001
,
0100
0010
0001
1000
0100
0001
0100
0010
,
0001
0010
1000
0010
0100
0010
0001
1000
,
1000
0010
0100
1000
0100
0010
0001
0010
,
1000
0010
0001
0010
0100
1000
0100
0001
,
1000
0100
0010
1000
0010
0100
0010
0001
,
1000
0010
0100
0001
1000
1000
0000
0000
,
0101
0001
1000
0100
0001
0100
1000
0001
,
1000
0010
0100
0010
0001
0010
1000
0001
,
0001
0010
1000
0010
0001
0010
0100
0001
,
0100
1000
0010
0100
0001
0001
0001
0000
,
0001
0100
0010
1000
0001
0010
0100
0001
,
0100
0010
1000
0010
0100
0010
0001
1000
,
1000
0010
0100
0001
0010
0100
1000
0010
,
1000
0000
1000
0000
0001
0000
0001
0000
1000
0100
1000
0001
1000
0100
1000
0001
,
0100
0001
0100
0010
1000
0010
0001
0010
,
1000
0100
0001
0100
0010
0001
0010
1000
,
1000
0010
0001
1000
0010
0100
0001
1000
,
0010
0100
1000
0100
0010
0010
0001
0001
,
0010
1000
0001
0010
0100
0010
0001
0010
,
1000
0010
0001
1000
0010
0100
0001
0100
,
0100
0001
0100
0010
1000
0001
0010
0001
,
1000
0001
1000
0001
1000
0001
1000
0001
1000
0001
1000
0000
0000
0000
0000
0000
,
1001
0000
0000
0000
;

//---------------dance-single - ----------------
#NOTEDATA:;
#CHARTNAME:;
#STEPSTYPE:dance-single;
#DESCRIPTION:;
#CHARTSTYLE:Pad;
#DIFFICULTY:Medium;
#METER:13;
#RADARVALUES:0.722576,0.729816,0.334499,0.070954,0.000000,499.000000,466.000000,33.000000,7.000000,0.000000,0.000000,0.000000,0.000000,0.000000,0.722576,0.729816,0.334499,0.070954,0.000000,499.000000,466.000000,33.000000,7.000000,0.000000,0.000000,0.000000,0.000000,0.000000;
#CREDIT:Zach Bell;
#NOTES:
0000
0000
0000
0000
,
0000
0000
0000
0000
,
0000
0000
0000
0000
,
0000
0000
0000
0000
,
0000
0000
0000
0000
,
0000
0000
0000
0000
,
0000
0000
0000
0000
,
0000
0000
0000
0000
,
0001
1000
0100
1000
0001
0100
0010
0100
,
0001
1000
0010
1000
0001
0010
0100
0010
,
0010
0001
1000
0010
0100
0001
1000
0010
,
1000
0001
0010
0100
1000
1000
0001
0000
,
0000
0000
0001
1000
0010
0100
0010
0100
,
0001
1000
0010
1000
0001
0010
0100
1000
,
1000
0001
0100
0001
1000
0010
0100
0010
,
1000
1000
0010
0010
0100
1000
0100
0001
,
1000
0100
0010
0100
0010
0001
1000
0010
,
0100
0010
0100
0001
1000
0010
1000
0100
,
0100
0010
0001
0100
0001
0010
0100
1000
,
0010
1000
0100
0010
0001
0001
1000
1000
,
0010
0100
0010
1000
0100
1000
0010
0100
,
0001
0010
0001
0100
0010
1000
0001
0010
,
0100
0010
0001
1000
0010
0100
0001
2000
,
0200
0000
0000
3300
,
1100
0000
1000
0000
0001
0000
0010
0001
,
1000
0100
1000
0000
0010
0000
0100
0001
,
0100
0000
0010
0000
1000
0000
0001
0010
,
0100
0010
0001
0000
1000
0000
0100
0010
,
0100
0000
1000
0000
0001
0000
1000
0010
,
0100
0010
1000
0000
0001
0000
0010
0100
,
1000
0000
0100
0000
0010
0000
0001
1000
,
0010
0100
0001
0000
0200
0000
0300
0000
,
0001
0101
0100
0110
,
0010
1010
1000
1001
,
0001
0011
0010
0110
,
0100
0000
1100
0000
1000
1000
0001
0001
,
0100
0101
0001
1001
,
1000
1100
0100
0110
,
0010
0011
0001
1001
,
1000
1000
0010
0010
0100
1000
0100
0001
,
1000
1100
0010
0101
,
1000
0011
1000
0110
,
0001
1100
0010
0101
,
0001
0000
1010
0000
1000
1000
0010
0010
,
0100
1001
0010
1100
,
0010
1100
0001
1010
,
0100
0011
0100
0011
,
0001
0001
1000
1000
0100
0001
0100
1000
,
0002
0000
0000
0000
,
0000
0000
0000
0000
0000
0000
0003
1000
,
1000
0100
0010
0100
1000
0100
0010
0100
,
1000
0100
0001
0100
0010
0100
0001
0100
,
1000
0010
0100
0001
0100
0010
0100
0001
,
0100
1000
0100
0010
0100
1000
0100
0010
,
1000
0010
0100
0010
1000
0010
0100
0010
,
1000
0010
0001
0010
0100
0010
0001
0010
,
0100
0001
1000
0100
0010
0100
1100
0000
,
1000
0001
0100
0010
0100
0001
0101
0000
,
1000
0100
0010
0001
1000
0010
0110
0000
,
1000
0001
1000
0100
0010
0001
1000
0001
,
0001
0100
0010
1000
0010
0100
0101
0000
,
0001
0100
0010
1000
0001
0010
1100
0000
,
1000
0100
0010
0001
1000
0010
0101
0000
,
0001
0100
0010
1000
0100
0200
0000
0300
,
1000
0100
0010
0100
0010
0001
1000
0001
,
1000
0010
0100
0010
0100
0001
1000
0010
,
0010
1000
0001
1000
0100
0010
0001
0010
,
0100
0010
0001
1000
0001
0001
1000
0000
,
0000
0000
1000
0001
0100
0010
0100
0001
,
0010
0100
1000
0010
0100
0010
1000
0100
,
0100
1000
0010
0100
0001
0010
0100
0010
,
0001
0001
1000
1000
0010
0100
1000
0100
,
0001
1000
0100
1000
0100
0010
0100
0001
,
0100
0010
0100
1000
0001
0100
0010
0100
,
0100
0010
0100
1000
0100
0010
0100
0001
,
1000
0100
0010
0100
1000
1000
0001
0001
,
1000
0100
0010
0100
0001
0100
0010
0100
,
1000
0001
0100
0010
0001
0010
0100
0010
,
0010
0100
0001
1000
0100
0010
0100
0001
,
0100
0010
1000
0010
0100
0020
0002
0000
,
0033
0000
0000
0000
;

//---------------dance-single - ----------------
#NOTEDATA:;
#CHARTNAME:;
#STEPSTYPE:dance-single;
#DESCRIPTION:;
#CHARTSTYLE:Pad;
#DIFFICULTY:Easy;
#METER:10;
#RADARVALUES:0.537226,0.689271,0.354772,0.050682,0.000000,371.000000,336.000000,35.000000,5.000000,0.000000,0.000000,0.000000,0.000000,0.000000,0.537226,0.689271,0.354772,0.050682,0.000000,371.000000,336.000000,35.000000,5.000000,0.000000,0.000000,0.000000,0.000000,0.000000;
#CREDIT:Zach Bell;
#NOTES:
0000
0000
0000
0000
,
0000
0000
0000
0000
,
0000
0000
0000
0000
,
0000
0000
0000
0000
,
0000
0000
0000
0000
,
0000
0000
0000
0000
,
0000
0000
0000
0000
,
0000
0000
0000
0000
,
1000
0001
0100
0001
,
0100
0000
0010
0000
1000
0000
0001
1000
,
0100
0010
0100
1000
,
0010
0000
0100
0000
0001
1000
0001
0000
,
0000
1000
0001
0010
,
0100
0000
1000
0000
0010
0000
0100
0001
,
1000
0001
0010
0100
,
1000
0001
1000
0001
0100
0001
0100
0010
,
1000
0001
0010
0100
,
0010
0000
0001
0000
1000
0000
0010
0100
,
0001
1000
0010
1000
,
0001
0000
0010
0000
0100
0010
0001
0010
,
0001
0010
0100
1000
,
0010
0000
0100
0000
0010
0000
1000
0001
,
0100
0001
0100
0001
1000
0010
1000
0010
,
1000
0001
0010
0100
1000
0001
0010
0000
,
0001
0000
1000
0000
0001
0100
0000
0010
,
0100
0000
0100
0000
0001
1000
0000
0001
,
1000
0000
0001
0000
0010
0100
0000
1000
,
0100
0000
0100
0000
1000
0001
0000
1000
,
0001
0000
0100
0000
0010
1000
0000
0010
,
1000
0000
0001
0000
1000
0010
0000
0100
,
0001
0000
1000
0000
0100
0010
0000
0100
,
0010
0000
0001
0000
0010
0002
0000
0003
,
0000
1001
0000
0110
,
0000
1100
0000
0101
,
0000
0011
0000
1100
,
0000
0000
0001
0000
1000
0001
1000
0001
,
0100
0010
0000
0101
,
0000
1010
0000
1100
,
0000
0011
0000
1000
,
0001
0100
0001
0100
0001
1000
0010
1000
,
0001
1001
0000
1010
,
0010
0110
0000
0101
,
0100
0110
0000
1001
,
0001
0000
0011
0000
0010
0100
0010
0001
,
1000
1001
0000
1100
,
0100
1100
0000
1010
,
1000
1001
0000
0001
,
1000
0001
0100
0001
1000
0100
1000
0001
,
0020
0000
0000
0000
,
0000
0000
0000
0000
0000
0000
0030
0001
,
0010
0001
0010
0001
1000
0001
1000
0001
,
1000
0010
0100
0001
1000
0010
1000
0001
,
1000
0100
1000
0100
0010
0100
0010
0100
,
0010
0001
1000
0010
0100
0001
1000
0100
,
0010
0001
0010
0001
0010
0100
1000
0100
,
1000
0001
1000
0010
0100
0001
2000
3000
,
0001
0101
0100
0110
,
0010
1010
1000
1001
,
0001
0011
0010
0110
,
0100
0000
1100
0000
1000
0000
0100
1000
,
0100
1100
1000
1001
,
0001
0101
0100
0110
,
0010
1010
1000
1001
,
0001
0000
0010
0000
0001
2000
0000
3000
,
0001
1000
0100
0010
,
0001
0000
0010
0000
0100
0000
1000
0100
,
1000
0001
0100
0001
,
1000
0000
0100
0000
0010
0100
0010
0000
,
0000
0001
1000
0010
,
0100
0000
0010
0000
1000
0000
0001
1000
,
0100
0010
0001
1000
,
0010
1000
0010
0100
0001
1000
0001
0100
,
0010
0100
0001
0010
,
0100
0000
1000
0000
0010
0000
0100
0010
,
1000
0001
0010
0100
,
0010
0000
0001
0000
1000
0010
0100
0010
,
1000
0001
0010
0100
,
0010
0000
0001
0000
1000
0000
0100
1000
,
0001
1000
0010
0100
,
0010
1000
0001
0010
0100
2000
0000
0000
,
3000
0000
0000
0000
;

//---------------dance-single - ----------------
#NOTEDATA:;
#CHARTNAME:;
#STEPSTYPE:dance-single;
#DESCRIPTION:;
#CHARTSTYLE:Pad;
#DIFFICULTY:Beginner;
#METER:8;
#RADARVALUES:0.399661,0.486544,0.020273,0.131772,0.000000,276.000000,274.000000,2.000000,13.000000,0.000000,0.000000,0.000000,0.000000,0.000000,0.399661,0.486544,0.020273,0.131772,0.000000,276.000000,274.000000,2.000000,13.000000,0.000000,0.000000,0.000000,0.000000,0.000000;
#CREDIT:Zach Bell;
#NOTES:
// measure 0
0000
0000
0000
0000
,  // measure 1
0000
0000
0000
0000
,  // measure 2
0000
0000
0000
0000
,  // measure 3
0000
0000
0000
0000
,  // measure 4
0000
0000
0000
0000
,  // measure 5
0000
0000
0000
0000
,  // measure 6
0000
0000
0000
0000
,  // measure 7
0000
0000
0000
0000
,  // measure 8
0001
1000
0001
1000
,  // measure 9
0100
1000
0100
1000
,  // measure 10
0100
0010
0001
1000
,  // measure 11
0010
1000
0010
0100
,  // measure 12
0000
0001
1000
0100
,  // measure 13
0010
0100
0010
0001
,  // measure 14
1000
0001
1000
0010
,  // measure 15
0100
0001
2000
0000
,  // measure 16
3000
0001
0100
0001
,  // measure 17
1000
0000
0100
0000
0010
0000
0100
1000
,  // measure 18
0100
1000
0001
0100
,  // measure 19
0010
1000
0001
0010
,  // measure 20
0100
0010
0100
1000
,  // measure 21
0001
1000
0010
1000
,  // measure 22
0001
1000
0001
0010
,  // measure 23
0002
0000
0000
0000
,  // measure 24
0003
0000
0010
0000
,  // measure 25
0001
0000
1000
0000
,  // measure 26
0010
0000
0100
0000
,  // measure 27
0010
0000
0100
0000
,  // measure 28
0001
0000
1000
0000
,  // measure 29
0100
0000
0010
0000
,  // measure 30
0100
0000
1000
0000
,  // measure 31
0001
0000
0200
0000
,  // measure 32
0301
0100
0001
1000
,  // measure 33
0100
0010
0100
1000
,  // measure 34
0100
0010
0100
1000
,  // measure 35
0001
0000
0100
0000
0010
0000
1000
0010
,  // measure 36
1000
0001
1000
0100
,  // measure 37
0010
0100
0010
0001
,  // measure 38
1000
0010
0100
0001
,  // measure 39
0010
0100
2000
0000
,  // measure 40
3001
0000
0100
0000
0001
0100
0000
0001
,  // measure 41
0100
0000
0010
0000
1000
0010
0000
1000
,  // measure 42
0010
0000
1000
0000
0100
1000
0000
0100
,  // measure 43
1000
0000
0001
0000
0010
0100
0000
0010
,  // measure 44
0100
0000
0010
0000
0001
0010
0000
0001
,  // measure 45
0010
0000
0001
0000
1000
0001
0000
1000
,  // measure 46
0001
0000
0100
0000
0010
1000
0000
0010
,  // measure 47
1000
0000
0010
0000
1000
0001
0000
0000
,  // measure 48
2002
0000
0000
0000
,  // measure 49
0000
0000
0000
3003
,  // measure 50
0001
1000
0001
1000
0001
1000
0001
1000
,  // measure 51
0002
0000
0000
0000
,  // measure 52
0103
0001
0100
0001
0100
0001
0100
0001
,  // measure 53
0200
0000
0000
0000
,  // measure 54
0310
0100
0010
0100
0010
0100
0010
0100
,  // measure 55
0020
0000
0000
0000
,  // measure 56
1030
0010
1000
0001
,  // measure 57
0010
0100
0010
0001
,  // measure 58
0100
0010
1000
0100
,  // measure 59
1000
0000
0010
0000
0100
0000
0001
0100
,  // measure 60
0001
0100
0010
1000
,  // measure 61
0100
0010
0001
0100
,  // measure 62
0001
0010
0100
0010
,  // measure 63
0001
0000
1000
0000
0001
2000
0000
0000
,  // measure 64
3001
0100
0010
0100
,  // measure 65
0001
0000
0010
0000
0100
0000
1000
0001
,  // measure 66
1000
0100
0010
0001
,  // measure 67
0100
0000
0010
0000
1000
0001
0100
0000
,  // measure 68
0000
0001
1000
0100
,  // measure 69
0010
0000
0001
0000
0100
0000
0010
1000
,  // measure 70
0010
0100
0001
0010
,  // measure 71
0100
1000
0001
1000
0200
0000
0000
0000
,  // measure 72
1300
0100
1000
0010
,  // measure 73
0100
0000
0001
0000
0010
0000
0100
1000
,  // measure 74
0001
1000
0010
0100
,  // measure 75
0010
0000
1000
0000
0001
0010
0100
0010
,  // measure 76
0001
1000
0010
0100
,  // measure 77
0001
0000
0010
0000
0100
0000
0010
0001
,  // measure 78
1000
0010
0100
0001
,  // measure 79
2002
0000
0000
0000
,  // measure 80
3003
0000
0000
0000
;
