#TITLE:Midnight;
#SUBTITLE:;
#ARTIST:Caravan Palace;
#TITLETRANSLIT:;
#SUBTITLETRANSLIT:;
#ARTISTTRANSLIT:;
#GENRE:;
#CREDIT:;
#BANNER:mid-bn.png;
#BACKGROUND:mid-bg.png;
#LYRICSPATH:;
#CDTITLE:;
#MUSIC:Midnight.ogg;
#OFFSET:0.000000;
#SAMPLESTART:32.507000;
#SAMPLELENGTH:12.000000;
#SELECTABLE:YES;
#BPMS:0.000000=95.000000
;
#STOPS:48.000000=1.875000
;
#BGCHANGES:;
#KEYSOUNDS:;
#ATTACKS:;

//---------------dance-single - ----------------
#NOTES:
     dance-single:
     :
     Beginner:
     1:
     0.098005,0.107254,0.000000,0.077300,0.000000,71.000000,71.000000,0.000000,8.000000,0.000000,0.000000,0.098005,0.107254,0.000000,0.077300,0.000000,71.000000,71.000000,0.000000,8.000000,0.000000,0.000000:
// measure 0
0000
0000
0000
0010
,  // measure 1
0010
0000
0010
0000
,  // measure 2
0010
0000
0000
0100
,  // measure 3
0100
0000
0100
0000
,  // measure 4
0100
0000
0000
1000
,  // measure 5
1000
0000
0001
0000
,  // measure 6
1000
0000
0000
0010
,  // measure 7
0010
0000
0001
0000
,  // measure 8
1000
0000
0000
0100
,  // measure 9
0100
0000
1000
0000
,  // measure 10
0001
0000
0000
0010
,  // measure 11
0010
0000
0100
0000
,  // measure 12
0010
0000
0000
0000
,  // measure 13
0000
0001
0000
1000
,  // measure 14
0000
0001
0001
0001
,  // measure 15
0000
0100
0000
0010
,  // measure 16
0000
0100
0100
0100
,  // measure 17
0000
1000
0000
0010
,  // measure 18
0000
0001
0000
0100
,  // measure 19
0000
0001
0000
0010
,  // measure 20
0000
1000
0000
0100
,  // measure 21
0200
0000
0300
0000
,  // measure 22
0002
0000
0003
0000
,  // measure 23
2000
0000
3000
0000
,  // measure 24
0020
0000
0030
0000
,  // measure 25
2000
0000
3000
0000
,  // measure 26
0002
0000
0003
0000
,  // measure 27
0200
0000
0300
0000
,  // measure 28
0020
0000
0030
0000
,  // measure 29
0010
0010
0000
1000
,  // measure 30
0000
0001
0000
0100
,  // measure 31
0100
0100
0000
0010
,  // measure 32
0000
0001
0000
1000
,  // measure 33
1000
1000
0000
0001
,  // measure 34
0000
0100
0000
1000
,  // measure 35
1000
1000
0000
0010
,  // measure 36
0000
0001
0000
0010
,  // measure 37
0010
0000
0000
0000
;

//---------------dance-single - ----------------
#NOTES:
     dance-single:
     :
     Easy:
     2:
     0.154600,0.178756,0.000000,0.260887,0.000000,112.000000,112.000000,0.000000,27.000000,0.000000,0.000000,0.154600,0.178756,0.000000,0.260887,0.000000,112.000000,112.000000,0.000000,27.000000,0.000000,0.000000:
0000
0000
0000
0020
,
0130
0000
0100
0000
,
0001
0000
0001
2000
,
3010
0000
0010
0000
,
1000
0000
1000
0002
,
0013
0000
0010
0000
,
0100
0000
0100
2000
,
3001
0000
0001
0000
,
0010
0000
0010
0200
,
1300
0000
0001
0000
,
1000
0000
0010
0200
,
0310
0010
0010
0010
,
0010
0000
0000
0000
,
0000
1000
0100
0001
,
0001
0100
1000
0020
,
0031
0100
1000
0100
,
0001
0100
1000
0020
,
1030
0010
0001
0010
,
1000
0010
0001
0200
,
0301
0010
1000
0010
,
0001
0010
0100
1000
,
2000
0000
3002
0000
,
0203
0000
0320
0000
,
2030
0000
3200
0000
,
0320
0000
0032
0000
,
2003
0000
3200
0000
,
0302
0000
0203
0000
,
2300
0000
3020
0000
,
0032
0000
0023
0000
,
0130
0100
0100
0000
0000
0000
0001
0000
,
0010
1000
0010
0200
,
0310
0010
0010
0000
0000
0000
0001
0000
,
1000
0100
1000
0001
,
0010
0010
0010
0000
0000
0000
0001
0000
,
1000
0010
0001
0020
,
0130
0100
0100
0000
0010
0000
0010
0000
,
0001
0001
1000
1000
,
0100
0000
0000
0000
;

//---------------dance-single - ----------------
#NOTES:
     dance-single:
     :
     Medium:
     5:
     0.212575,0.303885,0.135275,0.154600,0.000000,154.000000,140.000000,14.000000,16.000000,0.000000,0.000000,0.212575,0.303885,0.135275,0.154600,0.000000,154.000000,140.000000,14.000000,16.000000,0.000000,0.000000:
0000
0000
0000
1001
,
0000
0000
0000
0000
,
0000
0000
0000
0110
,
0000
0000
0000
0000
,
0000
0000
0000
0101
,
0200
0000
0300
0100
0000
0020
0000
0000
,
0000
0030
0000
1010
,
2000
0000
3000
1000
0020
0000
0000
0000
,
0000
0000
0030
0011
,
0002
0000
0003
0001
0000
0020
0000
0000
,
0000
0030
0000
1100
,
0200
0000
0300
0100
0020
0000
0030
0000
,
1001
0100
0010
0100
,
0001
0000
0001
0000
1000
1000
0001
0000
,
0100
0100
0010
0000
1000
0100
0010
0000
,
0100
0000
0100
0000
0001
0001
0100
0000
,
0010
0010
0100
0000
1000
0010
0001
0000
,
1000
0000
1000
0000
0100
0010
0001
0000
,
0001
0010
0100
0000
0010
0100
1000
0000
,
0001
0000
0001
0000
1000
0010
0100
0000
,
0010
0100
0001
0000
0010
1000
0001
0100
,
0020
0000
0130
0100
,
0002
0000
0103
0100
,
0020
0000
1030
1000
,
0002
0000
1003
1000
,
0200
0000
0310
0010
,
0020
0000
0031
0001
,
2000
0000
3001
0001
,
0020
0000
0130
0100
,
1001
0001
0001
0000
1000
0010
1000
0000
,
0010
1000
0010
0000
0100
0000
0101
0000
,
0001
0100
0010
0000
1000
0010
0100
0000
,
0001
0010
0100
0000
1000
0100
0010
0000
,
1001
1001
0110
0000
1000
0001
0100
0000
,
0001
1000
0100
0000
1000
0001
0010
0000
,
1001
0000
1100
0000
0100
0010
0001
0000
,
0001
0010
0100
1000
0010
0100
0010
1000
,
0001
0000
0000
0000
;

//---------------dance-single - ----------------
#NOTES:
     dance-single:
     :
     Hard:
     9:
     0.346469,0.429015,0.106287,0.338187,0.135275,251.000000,240.000000,11.000000,35.000000,0.000000,0.000000,0.346469,0.429015,0.106287,0.338187,0.135275,251.000000,240.000000,11.000000,35.000000,0.000000,0.000000:
0000
0000
0000
1001
,
0001
0001
0001
0001
,
1000
1000
1000
1001
,
0010
0010
0010
0010
,
0100
0100
0100
0110
,
0001
1000
0001
0000
0001
1000
0001
0000
,
0001
1000
0001
0000
0001
1000
1001
0000
,
0010
0100
0010
0000
0010
0100
0010
0000
,
0010
0100
0010
0000
0010
0100
0110
0000
,
0010
1000
0010
0000
0010
1000
0010
0000
,
0010
1000
0010
0000
0010
1000
0101
0000
,
0010
0001
0010
0001
0010
0001
0010
0001
,
0010
0001
0010
0100
,
1000
0000
0001
0000
1000
0000
0010
1000
0001
0000
1000
0000
0001
0000
0010
0001
,
1000
0000
0001
0000
1000
0000
0010
1000
0001
0000
1000
0000
0020
0000
0030
0000
,
0001
0000
1000
0000
0001
0000
0100
0001
1000
0000
0001
0000
1000
0000
0100
1000
,
0001
0000
1000
0000
0001
0000
0100
0001
1000
0000
0010
0000
0200
0000
0300
0000
,
0010
0000
0100
0000
0010
0000
1000
0010
0100
0000
0010
0000
0100
0000
1000
0010
,
0100
0000
0010
0000
0100
0000
1000
0010
0100
0000
0001
0000
0020
0000
0030
0000
,
0001
0000
1000
0000
0001
0000
0010
0001
0100
0000
0001
0000
0100
0000
0001
0100
,
0010
0000
1000
0000
0010
0000
1000
0100
0010
0001
0010
0100
1000
0001
0100
0010
,
2000
3020
0032
0023
,
0230
0302
0023
0230
,
2300
3020
2030
3200
,
0320
2030
3002
0203
,
0320
0032
0203
2300
,
3200
0320
0032
2003
,
3200
0302
0023
2030
,
3020
0032
0203
0320
,
1030
0000
1000
0010
1000
0000
0000
0000
0001
0000
0001
0010
0001
0000
0000
0000
,
1000
0000
1000
0100
1000
0000
0000
0000
0001
0000
0100
0000
0101
0000
0000
0000
,
0001
0000
0100
0010
1000
0000
0000
0000
1000
0000
0010
0100
0001
0000
0000
0000
,
0001
0000
0010
0100
1000
0000
0000
0000
1000
0100
0010
0001
0010
0001
0010
0100
,
1000
1000
1000
0000
0101
0001
0001
0000
,
1010
1000
1000
0000
0110
0100
0100
0000
,
1001
0001
0010
1000
0010
0001
0100
0010
,
1000
0000
0010
0000
0100
0000
0001
0000
1000
0000
0100
0000
0010
0001
1000
0001
,
0100
0000
0000
0000
;

//---------------dance-single - ----------------
#NOTES:
     dance-single:
     :
     Challenge:
     10:
     0.409966,0.482641,0.318862,0.135275,0.256056,297.000000,264.000000,33.000000,14.000000,0.000000,0.000000,0.409966,0.482641,0.318862,0.135275,0.256056,297.000000,264.000000,33.000000,14.000000,0.000000,0.000000:
0000
0000
0000
1010
,
0000
0100
0000
0001
0000
1000
0000
0100
,
0000
0001
0000
1000
0000
0010
0011
0000
,
0000
1000
0000
0100
0000
0010
0000
1000
,
0000
0000
0001
0000
0000
0000
0100
0000
0002
0000
0000
0000
1000
0000
0003
0001
,
0200
0000
0000
0000
0000
0000
0300
0001
0000
1000
0000
0001
0000
1000
0000
0010
0000
0000
0000
0000
0000
0000
0000
0000
,
0000
0000
0000
1100
,
2000
0000
0000
0000
0000
0000
0000
0000
0000
0000
0000
0000
0000
0000
0000
3000
0100
0000
0000
0000
0000
0000
0010
0000
0000
0000
0001
0000
0000
0000
0000
0000
0000
0000
0000
0000
0000
0000
0000
0000
0000
0000
0000
0000
0000
0000
0000
0000
,
0000
0000
0020
0130
,
0110
0100
0010
0100
0010
0100
0010
0100
,
0001
1000
0001
1000
0001
1000
0001
1000
,
0100
0010
0100
0010
0100
0010
0100
0010
,
1001
0001
0100
0010
,
1000
0001
1010
0001
1010
1000
1010
0001
,
0011
1000
0011
1000
0011
0001
0022
0033
,
1010
0001
1010
0001
1010
1010
1010
0001
,
0011
1000
0011
1000
0011
0011
0022
0033
,
0001
1000
0100
0000
1000
0001
0100
0000
0001
1000
0100
1000
0001
0100
0001
0000
,
1000
0001
0010
0000
0001
1000
0010
0000
1000
0001
0010
0001
2000
0000
3000
0000
,
0011
1000
0011
1000
1010
0001
1010
0001
,
0011
0000
1000
0000
0011
0000
1000
0000
0010
1000
0001
1000
0100
0010
0001
0010
,
0200
0000
0000
0000
,
1300
0000
0000
0000
0000
0000
1000
0000
0000
0000
0000
0000
0002
0000
0000
0000
0000
0000
0003
0000
0100
0000
0000
0010
,
0000
1000
0000
0000
0010
0000
0010
0000
1000
0000
1000
0000
0001
0000
0001
0000
,
0100
0000
0100
0000
0001
0000
0001
0000
0010
0000
0010
0000
0100
0000
1000
0001
,
0100
0100
0010
0010
0100
0100
0001
0001
,
1000
1000
0001
0001
0010
0010
0100
0100
,
1001
1001
0001
0001
1000
1000
0100
0100
,
0110
0110
0010
0010
0001
0001
0100
0100
,
0010
1000
0010
1000
0010
0000
0000
0000
0010
0001
0010
0001
0010
0000
0000
0000
,
0100
1000
0100
1000
0100
0000
0000
0000
0001
0000
0000
0000
0101
0000
0000
0000
,
0010
1000
0001
1000
0100
0000
0000
0000
0010
0001
1000
0001
0100
0000
0000
0000
,
0010
1000
0100
0010
0001
0000
0000
0000
0010
0001
0100
0010
1000
0010
0100
0001
,
0020
0000
0000
0000
0030
0000
0000
0000
0010
1000
0001
1000
0100
0000
0000
0000
,
0010
0001
1000
0001
0100
0000
0000
0000
0200
0000
0000
0000
0300
0000
0100
0010
,
0100
0000
0010
1000
0010
0000
1000
0001
1000
0000
0100
1000
0100
0000
0010
0100
,
0010
0000
0001
0010
0001
0000
1000
0001
1000
0100
0010
0001
0200
0000
0000
0000
,
0300
0000
0000
0000
;
