#TITLE:Kirby's Dreamland;
#SUBTITLE:;
#ARTIST:HAL Laboratory;
#TITLETRANSLIT:;
#SUBTITLETRANSLIT:;
#ARTISTTRANSLIT:;
#GENRE:;
#CREDIT:;
#BANNER:kd-bn.png;
#BACKGROUND:kd-bg.png;
#LYRICSPATH:;
#CDTITLE:;
#MUSIC:DDR songs.ogg;
#OFFSET:0.001000;
#SAMPLESTART:0.020000;
#SAMPLELENGTH:12.000000;
#SELECTABLE:YES;
#BPMS:0.000000=186.800003
;
#STOPS:
;
#BGCHANGES:;
#KEYSOUNDS:;
#ATTACKS:;

//---------------dance-single - ----------------
#NOTES:
     dance-single:
     :
     Beginner:
     3:
     0.237161,0.251958,0.000000,0.014691,0.000000,113.000000,113.000000,0.000000,1.000000,0.000000,0.000000,0.237161,0.251958,0.000000,0.014691,0.000000,113.000000,113.000000,0.000000,1.000000,0.000000,0.000000:
0000
0000
0000
0000
,
0000
0000
0000
0000
,
0001
0000
1000
0000
,
0001
0001
0001
0000
,
1000
0000
0001
0000
,
1000
1000
1000
0000
,
0010
0000
0100
0000
,
0010
0010
0010
0000
,
0100
0100
0100
0000
,
0010
0010
0010
0000
,
0001
0000
0010
0000
,
0100
0000
1000
0000
,
1000
0000
0010
0000
,
0100
0000
0001
0000
,
0001
0000
0100
0000
,
0010
0000
1000
0000
,
1000
0000
0100
0000
,
0020
0000
0030
0000
,
0100
0100
0100
0000
,
0100
0100
0100
0000
,
0100
0100
0100
0000
,
0100
0100
0100
0000
,
1000
0000
0010
0000
,
1000
0000
0010
0000
,
0001
0000
0100
0000
,
0001
0000
0100
0000
,
0010
0010
0010
0000
,
0010
0010
0010
0000
,
0010
0010
0010
0000
,
0010
0010
0010
0000
,
1000
0000
0100
0000
,
1000
0000
0100
0000
,
0010
0000
0001
0000
,
0010
0000
0000
0000
,
1000
1000
0000
0000
,
0001
0001
0000
0000
,
0010
0010
0000
0000
,
1000
1000
0000
0000
,
0100
0100
0000
0000
,
0010
0010
0000
0000
,
0001
0001
0000
0000
,
0001
0001
0001
0000
,
0010
0010
0010
0000
,
1000
1000
1000
0000
,
0100
0100
0100
0000
,
0001
0001
0001
0000
,
0010
0010
0010
0000
,
0001
0001
0001
0000
,
1000
0000
1000
0000
,
0100
0000
0000
0000
;

//---------------dance-single - ----------------
#NOTES:
     dance-single:
     :
     Easy:
     5:
     0.346297,0.363612,0.014691,0.014691,0.000000,165.000000,164.000000,1.000000,1.000000,0.000000,0.000000,0.346297,0.363612,0.014691,0.014691,0.000000,165.000000,164.000000,1.000000,1.000000,0.000000,0.000000:
0000
0000
0000
0000
,
0000
0000
0000
0000
,
0010
0000
0010
0000
,
0001
1000
0100
0000
,
0100
1000
0001
0010
,
0001
1000
0100
0000
,
0010
0000
0010
0000
,
1000
0001
0100
0100
,
0010
0010
1000
0001
,
1000
0100
1000
0000
,
0001
0000
1000
0000
,
0100
0010
0001
0000
,
0001
0010
0100
1000
,
0100
0010
0001
0000
,
1000
0000
0001
0000
,
1000
0010
0100
0001
,
0001
0100
0010
1000
,
0200
0000
0000
0300
,
0100
0100
0100
0001
,
0010
0010
0001
0001
,
1000
1000
1000
0010
,
0100
0100
0001
0001
,
0010
0000
0010
0100
,
0001
0000
0001
1000
,
0100
0000
0100
1000
,
0010
1000
0100
0000
,
0100
0100
0100
1000
,
0010
0010
1000
1000
,
0001
0001
0001
0010
,
1000
0010
0001
0000
,
1000
0000
1000
0010
,
0100
0000
0100
0010
,
0001
0000
0001
1000
,
0010
0000
0000
0110
,
0001
0001
0001
0001
,
1000
1000
1000
1000
,
0100
0100
0100
0100
,
0010
0010
0010
0010
,
1000
0100
0001
0100
,
1000
0010
0100
0001
,
0010
0001
1000
0010
,
0100
0010
0100
0000
,
1000
1000
1000
1000
,
0100
0100
0100
0100
,
0010
0010
0010
0010
,
0001
0001
0001
0001
,
0100
1000
0010
1000
,
0001
0100
1000
0010
,
1000
0001
0010
0100
,
1000
0100
0010
0000
;

//---------------dance-single - ----------------
#NOTES:
     dance-single:
     :
     Medium:
     6:
     0.438643,0.472696,0.190988,0.000000,0.000000,209.000000,196.000000,13.000000,0.000000,0.000000,0.000000,0.438643,0.472696,0.190988,0.000000,0.000000,209.000000,196.000000,13.000000,0.000000,0.000000,0.000000:
0000
0000
0000
0000
,
0000
0000
0000
0000
,
0010
0000
1000
0000
,
0010
1000
0100
0000
,
0100
0001
1000
0010
,
1000
0001
0100
0000
,
0010
0000
0001
0000
,
0010
0001
0010
0100
,
0001
1000
0100
0001
,
0100
1000
0100
1001
,
0010
0000
0010
0000
,
1000
0001
0010
0000
,
0010
0100
0001
0100
,
1000
0100
0010
0000
,
1000
0000
0100
0000
,
0010
0010
0001
1000
,
0001
0100
0001
1000
,
0001
0010
0100
0000
,
1100
1000
1000
0100
,
0110
0010
0010
0001
,
0101
0100
0100
0010
,
1001
1000
0010
0000
,
1000
0000
0000
0100
1000
0000
0000
0001
,
0100
0010
0100
0000
,
0100
0000
0000
0010
0100
0000
0000
0001
,
1000
0001
1000
1000
,
1001
1000
0100
0010
,
1001
0010
0100
0010
,
0101
0010
1000
0100
,
1100
0010
0001
0000
,
0001
0000
0000
0001
1000
0000
0000
1000
,
0001
1000
0001
0010
,
0100
0000
0100
1000
0100
0000
0010
0000
,
1001
0000
0000
0000
,
0010
0100
0010
0000
0100
0010
0100
0000
,
0001
1000
0001
0000
1000
0001
1000
0000
,
0001
0100
0001
0000
0100
0001
0100
0000
,
0010
1000
0010
0000
1000
0010
1000
0000
,
0001
0010
0001
0000
0010
0001
0010
0000
,
0100
1000
0100
0000
1000
0100
1000
0000
,
0001
0100
0010
1000
,
0010
0100
0001
0000
,
1000
0010
1000
0000
0001
0010
0001
0000
,
1000
0100
1000
0000
0001
0100
0001
0000
,
0100
0010
0100
0000
0001
1000
0001
0000
,
0010
0100
0010
0000
1000
0001
1000
0000
,
0010
1000
0010
0000
0100
0001
0100
0000
,
0010
0001
0010
0000
0100
1000
0100
0000
,
0010
0010
0010
0010
,
1001
0110
1001
0000
;

//---------------dance-single - ----------------
#NOTES:
     dance-single:
     :
     Hard:
     8:
     0.537286,0.618141,0.323211,0.000000,0.000000,256.000000,234.000000,22.000000,0.000000,0.000000,0.000000,0.537286,0.618141,0.323211,0.000000,0.000000,256.000000,234.000000,22.000000,0.000000,0.000000,0.000000:
// measure 0
0010
0000
0001
0010
0100
1000
0100
0000
,  // measure 1
1000
0010
0100
0001
0100
0000
1001
0000
,  // measure 2
1010
0000
1100
0000
,  // measure 3
0011
1001
0101
0000
,  // measure 4
0001
0010
0100
1000
,  // measure 5
0100
0010
0001
0000
,  // measure 6
1010
0000
0110
0000
,  // measure 7
0101
0000
0110
0000
1010
0000
0010
1000
,  // measure 8
0010
1000
0001
1000
,  // measure 9
0100
1000
0100
0000
,  // measure 10
1100
0000
0101
0000
,  // measure 11
1100
0101
1100
0000
,  // measure 12
0001
0100
1000
0100
,  // measure 13
0001
0100
1000
0000
,  // measure 14
0011
0000
1010
0000
,  // measure 15
0011
1010
0011
0001
,  // measure 16
0100
0001
1000
0100
,  // measure 17
1000
0000
0000
0000
,  // measure 18
1000
0100
1000
0100
1000
0100
0010
0001
,  // measure 19
0010
0100
0010
0100
0010
0100
1000
0001
,  // measure 20
0100
0001
0100
0001
0100
0001
1000
0001
,  // measure 21
1000
0010
1000
0010
1000
0000
0000
0000
,  // measure 22
0001
0000
0000
1000
0001
0000
0010
1000
,  // measure 23
0001
0100
0001
0000
,  // measure 24
1000
0000
0000
0001
1000
0000
0010
0001
,  // measure 25
1000
0100
1000
0100
,  // measure 26
0001
1000
0001
1000
0001
1000
0010
1000
,  // measure 27
0010
0100
0010
0100
0010
0100
0001
0100
,  // measure 28
0001
0010
0001
0010
0001
0010
0100
1000
,  // measure 29
0100
0010
0100
0010
0100
0000
0000
0000
,  // measure 30
0010
0000
0000
0100
0010
0000
0001
1000
,  // measure 31
0010
0100
0010
0100
,  // measure 32
1000
0010
0100
0001
0100
0010
1000
0001
,  // measure 33
0100
0000
0000
0000
,  // measure 34
1000
1000
0001
0010
0100
0000
0000
0000
,  // measure 35
0010
0010
0001
0100
1000
0000
0000
0000
,  // measure 36
0010
0010
0100
0001
1000
0000
0000
0000
,  // measure 37
0001
0001
0010
0100
1000
0000
0000
0000
,  // measure 38
0100
0100
0010
0001
1000
0000
0000
0000
,  // measure 39
0010
0010
1000
0100
0001
0000
0000
0000
,  // measure 40
0100
0100
0010
0010
,  // measure 41
0100
0100
0010
0000
,  // measure 42
0100
0100
0010
1000
0001
0000
0000
0000
,  // measure 43
0001
0001
0010
1000
0100
0000
0000
0000
,  // measure 44
0001
0001
1000
0010
0100
0000
0000
0000
,  // measure 45
1000
1000
0100
0010
0001
0000
0000
0000
,  // measure 46
1000
1000
0001
0100
0010
0000
0000
0000
,  // measure 47
0010
0010
0100
1000
0001
0000
0000
0000
,  // measure 48
0100
0001
0010
0100
1000
0010
0100
0001
,  // measure 49
0010
0100
1000
0010
0110
0000
0000
0000
;
