#TITLE:Kick-ass Kung-fu Carnival;
#SUBTITLE:;
#ARTIST:t+pazolite;
#TITLETRANSLIT:;
#SUBTITLETRANSLIT:;
#ARTISTTRANSLIT:;
#GENRE:;
#CREDIT:;
#BANNER:;
#BACKGROUND:;
#LYRICSPATH:;
#CDTITLE:;
#MUSIC:kakfc.ogg;
#OFFSET:0.000000;
#SAMPLESTART:69.814003;
#SAMPLELENGTH:12.000000;
#SELECTABLE:YES;
#BPMS:0.000000=220.000000
,30.500000=440.000000
,160.000000=220.000000
,224.000000=440.000000
,288.000000=55.000000
,304.000000=110.000000
,320.000000=220.000000
,384.000000=440.000000
,448.000000=110.000000
,456.500000=100.000000
,457.000000=88.000000
,459.500000=70.000000
,460.500000=60.000000
,461.000000=50.000000
,461.500000=48.000000
,462.000000=110.000000
,464.000000=130.000000
,465.000000=140.000000
,466.000000=180.000000
,467.000000=220.000000
,472.500000=180.000000
,473.500000=130.000000
,474.000000=110.000000
,475.000000=90.000000
;
#STOPS:30.000000=0.100000,
30.500000=0.100000
;
#BGCHANGES:;
#KEYSOUNDS:;
#ATTACKS:;

//---------------dance-single - ----------------
#NOTES:
     dance-single:
     :
     Challenge:
     19:
     0.953440,1.845448,0.153149,0.233754,0.544083,828.000000,809.000000,19.000000,29.000000,0.000000,0.000000,0.953440,1.845448,0.153149,0.233754,0.544083,828.000000,809.000000,19.000000,29.000000,0.000000,0.000000:
0010
1000
1000
0001
1000
1000
0010
1000
,
1000
0000
0100
0000
1000
0000
1000
0000
0100
0010
0100
0000
1000
0000
0010
0000
,
0100
0001
0001
1000
0001
0001
0100
0001
,
0001
0000
0010
0000
0001
0000
0001
0000
0100
0010
0100
0000
0010
0000
1000
0000
,
0001
0100
0100
1000
0100
0100
0001
0010
,
0010
0000
0001
0000
1000
0000
1000
0000
0010
1000
0010
0000
1000
0000
0100
0000
,
2000
0000
0000
0100
0000
0000
3001
0000
0020
0000
0000
0001
0000
0000
0130
0000
,
2000
3100
0200
1300
0001
0100
0000
0000
,
0100
0001
0010
0001
,
0100
0010
0100
0000
0001
0000
1000
0000
,
0100
1000
0010
1000
,
0100
0010
0100
0000
1000
0000
0001
0000
,
0100
0010
1000
0001
,
0010
0001
1000
0000
0100
0000
0010
0000
,
1000
0001
0100
1000
,
0010
1000
0010
0000
0100
0000
0001
0000
,
0100
0010
0010
1000
,
0100
0010
0100
0000
1000
0000
0001
0000
,
0010
0100
0100
0010
,
0100
1000
0100
0000
0010
0000
0100
0000
,
1000
0001
0010
0001
,
0100
0001
0010
0000
0100
0000
1000
0000
,
0020
0000
1000
0100
,
0001
0000
1030
0000
,
0010
1000
0001
0100
,
0010
0100
0010
0000
1000
0000
0001
0000
,
0010
0001
1000
0100
,
1000
0001
1000
0000
0010
0000
0100
0000
,
0001
0010
0001
1000
,
0100
0010
0001
0000
0100
0000
0001
0000
,
1000
0010
1000
1000
,
1000
0001
1000
0100
,
0010
0100
1000
0100
,
0010
0001
0010
0000
0100
0000
1000
0000
,
0001
0100
0010
0100
,
0001
0010
0001
0000
1000
0000
0010
0000
,
0100
0010
1000
0001
,
0100
0010
0100
0000
0010
0000
1000
0000
,
0100
1000
0010
0010
,
0001
1000
0100
0001
,
1000
0001
1000
0000
0010
0100
0010
1000
,
0010
0001
0010
1000
0100
1000
0001
0000
,
1100
0000
0000
0000
0010
0001
0010
0000
0100
0000
0100
0000
0010
0000
1000
0000
,
0001
0100
1000
0001
0020
0032
2003
3020
,
0130
0001
0100
0001
0100
0000
0000
0000
1000
0000
0000
0000
0100
0000
0010
1000
,
0100
0000
0001
0000
0100
0000
1000
0000
0001
0000
0100
0000
1000
0100
0001
0000
,
1000
0001
0010
0001
1000
0100
1000
1000
,
0101
0010
0100
0010
0200
0302
2003
3200
,
1300
0010
1000
0100
0010
0100
0001
0010
,
0010
0010
0100
0010
0001
0010
1000
0010
,
0001
1000
0001
1000
0001
0000
0100
0000
0010
0000
1000
0000
0100
0000
0020
0000
,
0030
0010
0001
0100
1000
0100
0010
0100
,
0001
0100
1000
0100
0001
0000
1000
0000
0010
0000
1000
0000
0001
0000
0100
0001
,
0100
0100
1000
0100
0010
0100
0001
0010
,
1000
0001
0100
1000
0100
0010
1000
0010
,
0001
0000
0100
0000
0001
0000
1000
0000
0010
1000
0001
0000
0010
0000
0100
0000
,
0110
0001
1000
0010
,
1000
0010
0001
0010
,
0001
1000
0100
0001
,
0010
0001
1000
1000
,
0001
0000
0001
0000
0100
0000
0010
0100
,
1000
0000
1100
0000
0100
0010
0100
0000
,
0110
0001
0110
0010
,
0001
0100
0001
0000
0010
0000
0100
0000
,
1000
1000
0001
0010
,
1000
0010
0001
0100
,
0001
0001
1000
0001
,
1000
0100
0001
0001
,
0200
1300
0000
0020
,
1030
0000
0002
1003
,
0000
1000
0001
1000
,
0100
0010
1000
0000
0010
0000
0001
0000
,
1000
0000
0010
0000
0010
1000
0000
0100
0000
0100
1000
0000
0001
0001
0100
0000
1000
0000
0100
0000
0001
0010
0000
0100
0010
0000
0000
0000
0000
0000
0010
0001
,
0010
0000
0100
0000
1000
0000
0001
0010
0000
0001
0000
1000
0100
0010
0001
0100
1000
0000
0010
0000
0001
0000
0010
0001
0000
0000
0000
0000
1000
0000
0000
0000
,
0100
0000
1000
0000
0100
0010
0000
0001
0000
0001
0010
0010
0100
0100
1000
0000
0001
0000
1000
0000
0100
0010
0000
0001
0010
0000
0000
0000
0000
0000
0001
0100
,
0010
0000
1000
0000
0100
0000
1000
0010
0000
0100
0000
0010
1000
0010
0100
0001
0100
0000
0010
0000
0100
0001
0010
0100
0000
0000
0000
0000
0000
0000
0000
0000
,
1000
0100
0001
0100
0010
0001
0100
0010
0100
0010
1000
0100
0010
0001
0010
0100
,
0010
0001
0010
1000
0010
0100
1000
0001
0010
0001
1000
0001
0010
0001
1000
0010
,
1000
0001
0100
0010
0100
0001
0010
0001
1000
0100
0010
0100
1000
0001
0010
0100
,
1000
0001
0100
0001
0010
0001
1000
0010
0100
0010
0100
1000
0100
0001
1000
0001
,
1001
0000
0110
0000
0010
0001
1000
0010
,
0100
0010
1000
0001
0010
0100
0010
0100
,
1000
0100
0001
0100
1000
0010
1000
0001
,
0100
0001
0100
0001
0100
0001
1000
0010
,
0100
1000
0100
0010
1000
0100
0010
0100
,
1000
0001
0010
0100
1000
0100
0010
0001
,
1000
0001
0100
0001
0010
0001
1000
0100
,
1000
0010
1000
0001
1000
0100
1000
1000
,
0011
0001
1000
0110
0000
0100
0010
0100
,
0101
0010
1000
1100
0000
1000
0100
0001
,
0101
0100
1000
0011
0000
0011
0000
0010
,
0110
0001
1000
0110
0000
0100
0001
0010
,
1000
0010
0001
0010
1000
0010
0001
0010
,
1000
0001
0100
1000
0100
0001
0100
1000
,
0100
0010
0100
0010
1000
0010
1000
0010
0100
0001
0100
0001
0010
0100
1000
0100
,
0020
0001
1000
0031
,
1000
0100
0001
0100
,
0010
0100
1000
0100
,
0010
0001
0010
1000
,
0010
0100
0010
0001
,
1000
0010
1000
0010
0100
0000
0000
0000
,
0010
1000
0001
0010
,
0001
0000
0100
0010
0100
0000
0010
1000
,
0010
0000
0100
0001
0100
0000
0010
1000
,
0001
0100
0010
0100
,
1000
0100
0010
1000
,
0001
0010
0100
0001
,
0100
0010
0001
1000
,
0200
0320
2030
3002
,
0023
0230
2300
3002
,
0203
0000
0310
0000
0100
0010
0100
0000
,
0001
1000
0001
1000
,
0010
1000
0001
0000
0010
0001
0100
1000
0000
1000
0100
0001
0010
0100
1000
0000
,
0010
0000
0001
0000
1000
0001
0000
0010
0100
0010
0100
0010
0100
0010
0100
0010
,
0001
1000
0010
1000
0100
1000
0010
0100
0000
0001
0000
0010
0001
1000
0010
0100
,
0001
0100
1000
0100
0001
0100
0020
0000
1030
0000
0000
0000
0100
0000
0000
0000
,
0010
0100
0010
0001
,
0010
0000
0100
0010
0001
1000
0100
0010
0001
1000
0100
0010
0001
0000
1000
0000
,
0001
0000
0000
1000
0000
0000
1001
0000
0000
0001
0000
0000
1000
0000
0000
1001
0000
0000
0010
0000
1000
0001
0000
0000
,
0100
0000
0000
0000
0000
0000
1000
0000
0001
0000
0000
0000
0000
0000
0000
0000
0000
0000
0100
0000
0000
0000
0000
0000
0000
0000
0000
0000
0000
0000
0000
0000
0000
0000
0000
0000
0000
0000
0000
0020
0000
0000
0000
0000
0000
0000
0000
0000
,
0000
0000
0030
0000
;

//---------------dance-single - ----------------
#NOTES:
     dance-single:
     :
     Easy:
     11:
     0.436418,0.724310,0.048363,0.145089,0.004030,379.000000,373.000000,6.000000,18.000000,0.000000,0.000000,0.436418,0.724310,0.048363,0.145089,0.004030,379.000000,373.000000,6.000000,18.000000,0.000000,0.000000:
0010
0000
0000
1000
0000
0000
0001
0000
,
0000
0100
0000
0000
0001
0010
0001
0000
,
1000
0000
0000
0100
0000
0000
0010
0000
,
0000
0001
0000
0000
1000
0001
0010
0000
,
0100
0000
0000
0010
0000
0000
0001
0000
,
0000
0010
0000
0000
0010
0100
0010
0100
,
2000
0001
0100
0001
,
0100
0000
0001
0000
3010
0010
0000
0000
,
0010
0000
0010
0000
,
0010
0000
1000
0100
,
0010
0000
0010
0000
,
0010
0000
0001
0100
,
0010
0000
0010
0000
,
0010
0000
1000
0100
,
0010
0000
0001
0010
,
0100
0000
0010
0100
,
1000
0000
1000
0000
,
1000
0000
1000
0001
,
1000
0000
0001
0000
,
0010
0000
0001
0000
,
0100
0000
1000
0000
,
0100
0000
0001
0000
,
0010
0000
0010
0000
,
0011
0000
1000
0000
,
0100
1000
0100
0000
,
1000
0100
1000
0000
,
0010
0100
0010
0000
,
0100
0001
0100
0000
,
0001
0010
0001
0000
,
0010
0001
0010
0000
,
0100
0010
0100
0000
,
0010
0001
1000
0000
,
0010
0000
0010
0000
,
1000
0100
0010
0000
,
0010
0000
0010
0000
,
0001
0100
0010
0000
,
1000
0100
0010
0000
,
0001
0010
0100
0000
,
1000
0010
0100
0000
,
0010
0100
0001
0000
,
1000
1000
0100
0001
,
0100
1000
0100
0010
,
0001
0001
0100
1000
,
0100
0001
0100
0010
,
1000
0010
1000
0000
0000
0000
0001
0000
,
0100
0001
0010
0100
,
0010
0001
0001
1000
,
0000
0010
0000
0100
0000
0010
0000
0000
,
1000
0000
0100
0000
0010
0000
0100
1000
,
0000
1000
0001
0000
0010
0000
0001
0000
,
1000
0000
0010
1000
0100
0000
1000
0010
,
0000
0010
0100
0000
0100
0000
0100
0000
,
0001
0100
0001
0000
1000
0000
0100
1000
,
0000
1000
0100
0000
0010
0000
0001
0000
,
2000
0000
0000
3020
0000
0000
1030
0000
,
0000
0001
0000
0001
0010
0100
1000
0000
,
1000
0000
1000
0000
,
0001
0000
0010
0000
,
0100
0000
0100
0000
,
0010
0000
0001
0000
,
1000
0000
1000
0000
,
0010
0000
0100
0000
,
0001
0000
0010
0000
,
0100
0000
1000
0000
,
0001
0000
0001
0000
,
1000
0000
0100
0000
,
0010
0000
0010
0000
,
0100
0000
1000
0000
,
0001
0000
0000
1000
,
0000
0000
0001
0000
,
0000
1000
0000
0001
,
0100
0010
0100
0000
,
0002
2003
3200
0320
,
0230
0000
2300
0000
3002
0000
0013
0010
,
2000
3020
0230
0302
,
2003
3020
2030
3001
,
0010
0000
0010
1000
0010
0100
0001
0000
,
0100
0001
0010
0000
0100
1000
0100
0000
,
1000
0001
0010
0000
0100
1000
0001
0000
,
0100
0001
0010
0000
0100
0100
0010
0010
,
0110
0000
1000
0000
,
1000
0010
1000
0000
,
0001
0010
0001
0000
,
1000
0100
1000
0001
,
0010
0100
0010
0001
,
1000
0100
0010
0001
,
0100
0001
0010
0001
,
1000
1000
0010
1000
,
1000
0000
0000
0001
0000
0000
0000
0000
,
0001
0000
0000
0100
0000
0000
0100
0000
,
0100
0000
0000
0010
0000
0000
0000
0000
,
0010
0000
0000
0100
0000
0000
0100
0000
,
0001
1000
0001
0000
1000
0001
1000
0000
,
0010
0100
0010
0000
0100
0010
0100
0000
,
0001
0100
0010
1000
0100
0010
0001
0100
,
0010
0010
1010
0001
,
0001
0000
0001
0000
,
0010
0000
0100
0000
,
0010
0000
0001
0000
,
1000
0000
0100
0000
,
0010
0100
0010
0000
,
0100
0000
1000
0000
,
0010
0000
0100
0000
,
0010
0000
0010
0000
,
1000
0000
0001
0000
,
1000
0000
0100
0000
,
1000
0000
0001
0000
,
0010
0000
0001
0000
,
1001
0000
0000
0000
,
0110
0000
0000
0000
,
1001
0000
0100
0000
,
0001
0000
0100
0000
,
0010
0000
1000
0000
0010
0100
0001
0000
,
0010
0100
1000
0000
0100
0010
0001
0000
,
1000
0100
1000
0000
0001
0010
0001
0010
,
0100
0010
0001
1000
0020
0000
0000
0000
,
0000
0000
0000
0000
,
0000
0000
0000
0000
,
0000
0000
0000
0000
,
0000
0000
0000
0000
0030
0000
0000
0000
0000
0000
0000
0000
0000
0010
0000
0000
;

//---------------dance-single - ----------------
#NOTES:
     dance-single:
     :
     Hard:
     16:
     0.732353,1.214111,0.080605,0.265996,0.209573,636.000000,626.000000,10.000000,33.000000,0.000000,0.000000,0.732353,1.214111,0.080605,0.265996,0.209573,636.000000,626.000000,10.000000,33.000000,0.000000,0.000000:
0001
0000
1000
0010
0000
0001
0010
0000
,
1000
0000
0100
0000
0000
0000
0001
0000
0010
0001
0010
0000
0100
0000
0000
0000
,
1000
0000
0100
0001
0000
0100
0010
0000
,
1000
0000
0001
0000
0000
0000
0010
0000
0100
1000
0100
0000
0010
0000
0000
0000
,
0110
0000
1000
0001
0000
0010
0100
0000
,
1000
0001
0000
0010
0001
1000
0100
1000
,
0002
0010
2003
0100
,
3020
0000
0100
0000
0001
1030
0000
0000
,
0001
0100
0001
0100
,
0010
1000
0010
0100
,
0001
0010
0001
0010
,
0100
1000
0100
0010
,
0001
0100
0001
0100
,
1000
0100
0001
0100
,
0010
1000
0010
1000
,
0100
0010
0001
0010
,
0100
1000
0100
1000
,
0001
0010
0001
1000
,
0010
1000
0010
1000
,
0100
0001
0100
0010
,
1000
0100
1000
0100
,
0010
0001
1000
0100
,
0010
0000
1100
0000
,
0101
0000
1100
0000
,
0001
0010
0100
0010
,
0001
1000
0100
0010
,
0001
0100
0010
0100
,
0001
1000
0010
0100
,
0001
0010
0100
1000
,
0100
0010
0001
1000
,
0010
1000
0001
0100
,
0010
0100
0001
0100
,
0010
1000
0010
1000
,
0100
0001
0100
0010
,
1000
0100
1000
0100
,
0010
0001
0010
0001
,
0100
0001
0100
0001
,
0010
0100
1000
0010
,
0100
0001
0100
0001
,
0010
0100
0001
0100
,
1000
0000
1000
0010
0001
0010
1000
0000
,
0001
0000
1000
0100
0001
0100
1000
0000
,
0001
0000
0000
0000
0010
0001
0010
0000
0100
0000
1000
0000
0100
0000
0000
0000
,
0010
0001
1000
0010
1000
0001
0010
0100
,
2000
0001
3001
0000
0100
0010
0100
0010
,
1000
0010
0100
0001
0100
0010
1000
0100
,
0010
0000
0001
0100
1000
0100
0001
0000
,
1000
0100
0001
0100
1000
0010
0100
0010
,
1010
0000
0100
0001
0100
1000
0100
0100
,
0000
0010
1000
0001
0100
0001
1000
0010
,
0100
1000
0100
0001
0010
0001
0100
0010
,
0000
0010
1000
0001
0100
0001
0010
0100
,
2000
0001
3001
0000
0010
0000
0001
0100
,
0000
0000
0100
0010
1000
0010
0100
0001
,
0020
0031
0000
2000
3010
0000
0200
0301
,
0000
2000
0000
0010
3001
0010
0100
1000
,
0100
1000
0100
0010
,
0001
0010
0100
1000
,
0100
1000
0001
0100
,
0010
1000
0001
0100
,
0001
1000
0100
1000
,
0001
0100
0001
1000
,
0200
0000
0302
0000
,
0023
0000
2030
0000
,
3100
1000
0100
0010
,
0001
0010
0100
1000
,
0100
1000
0001
0010
,
0100
0010
0001
1000
,
0020
1030
0000
0002
,
0103
0000
2000
3100
,
0000
0001
0000
0001
,
1000
0001
1000
0001
,
2000
0000
0010
0000
3001
0100
1000
0000
1000
0100
0001
0000
2000
0000
0000
0000
,
3001
0010
1000
0000
0001
0100
1000
0000
0001
0100
1000
0100
0002
0000
0010
0000
,
1003
0100
1000
0000
0001
0010
0100
0000
0010
0100
1000
0000
0020
0000
0000
0100
,
1030
0002
1000
0000
0203
0010
0001
0000
0310
1000
0100
0010
0001
0000
0000
0000
,
1000
0010
1000
0010
1000
0000
0000
0000
0010
0100
0001
0010
0100
0000
0000
0000
,
1000
0010
0100
0001
1000
0000
0000
0000
0010
0100
0010
0100
0001
0100
0010
0100
,
0001
1000
0100
1000
0001
0000
0000
0000
1000
0001
0010
0001
0100
0000
0000
0000
,
0010
1000
0100
0010
0001
0000
0001
0010
0000
1000
0000
0010
0001
0000
1000
0000
,
0010
1000
0001
0100
0001
0000
0000
0000
,
1000
0100
1000
0001
0010
0000
0000
0000
,
0010
0001
0100
1000
0100
0000
0000
0000
,
0001
0010
1000
0010
0001
0010
1000
0010
,
0001
0100
0001
1000
0100
0000
0000
0000
,
0010
0001
1000
0010
0100
0000
0000
0000
,
0100
0010
1000
0010
0100
0010
0100
0001
,
0100
0001
0100
0001
0001
0100
0001
0100
,
0002
0010
0000
1003
0000
0100
1000
0000
,
0020
0001
0000
0130
0000
1000
0100
1000
,
0002
0100
0000
0013
0000
0001
0010
0000
,
0200
1000
0000
0301
0000
1000
0001
0000
,
0100
0001
0010
0100
1000
0100
0010
0001
,
1000
0010
0100
0001
0100
0010
1000
0100
,
0010
0100
0010
0100
0001
0100
1000
0100
,
0002
0203
2300
3020
,
0130
0001
0100
0010
,
1000
0010
0000
0000
,
1000
0001
0010
0001
,
1000
0100
1000
0000
,
0002
0013
0100
1000
,
0100
0001
0100
1000
,
1000
0001
1000
0001
,
1000
0000
0000
0000
,
0001
0010
0100
0010
,
0001
0000
0000
0000
,
1000
0010
0100
0010
,
1000
0000
0000
0000
,
0101
0000
1000
0010
,
0110
0000
1000
0001
,
0011
0000
0010
0100
,
1100
0000
0101
0000
,
0010
0000
1000
0000
0010
0100
0000
0001
0000
0001
0100
0010
1000
0010
0100
0000
,
0001
0000
0001
0000
0010
0100
0000
0010
0001
0000
1000
0001
1000
0000
0001
1000
,
0010
0000
1000
0000
0001
0000
0010
0100
1000
0000
0100
0010
0001
0000
0010
0100
,
1000
0100
0001
0100
1000
0010
0200
0000
0301
0000
0000
0000
1000
0000
0000
0000
,
0001
1000
0001
1000
,
0001
1000
0001
1000
0001
1000
0001
1000
,
0001
1000
0001
0000
0000
1000
0000
0001
,
0000
0000
1000
0000
0000
0000
0000
0000
0000
0000
0000
0000
0000
0020
0000
0000
,
0000
0000
0030
0000
;

//---------------dance-single - ----------------
#NOTES:
     dance-single:
     :
     Medium:
     13:
     0.535447,0.820885,0.104786,0.282117,0.004030,465.000000,452.000000,13.000000,35.000000,0.000000,0.000000,0.535447,0.820885,0.104786,0.282117,0.004030,465.000000,452.000000,13.000000,35.000000,0.000000,0.000000:
2000
0000
0000
3200
0000
0000
0302
0000
,
0000
0203
0000
0000
1300
0001
1000
0000
,
0002
0000
0000
0203
0000
0000
2300
0000
,
0000
3200
0000
0000
0301
0010
0100
0000
,
0002
0000
0000
0203
0000
0000
2300
0000
,
0000
3200
0000
0000
0310
0001
1000
0000
,
0010
0010
0100
0010
,
1000
0000
0010
0000
0001
0100
0000
0000
,
1000
0010
1000
0010
,
1000
0000
0100
0000
,
0001
0000
0001
0000
,
0010
0000
0001
0000
,
0100
0001
0100
0001
,
0100
0000
0010
0000
,
1000
0000
1000
0000
,
0010
0000
0100
0000
,
0001
0010
0001
0010
,
0001
0000
0010
0000
,
0100
0000
1000
0000
,
0100
0000
0010
0000
,
0001
0000
0001
0000
,
1000
0000
1000
0000
,
1100
0000
0110
0000
,
0011
0000
0000
0000
,
1000
0100
1000
0100
,
1000
0000
0100
0010
,
0001
0000
0010
0100
,
1000
0000
0001
0000
,
0100
0001
0100
0001
,
0100
0000
0001
0100
,
0010
0000
1000
0010
,
0100
0000
0001
0000
,
0010
0001
0010
0001
,
0010
0000
0100
0000
,
1000
0000
1000
0000
,
0100
0000
0010
0000
,
0001
0000
0010
0000
,
1000
0000
0010
0000
,
0001
0000
0100
0000
,
1000
0000
0100
0000
,
0001
0000
0001
0000
1000
0010
1000
0010
,
0100
0000
0100
0000
0001
0010
0001
1000
,
0010
0100
0010
0000
1000
0000
0001
0010
,
0100
0010
0001
0000
1000
0100
0010
0000
,
0001
0001
1000
0000
0100
0000
1000
0000
,
0001
0010
0100
1000
0100
0010
0001
0000
,
1000
0010
1000
0000
0001
0100
0001
0000
,
0000
0100
0000
0001
0000
0100
0000
0000
,
0110
0000
0100
0010
0100
0000
0001
1000
,
0000
0100
0010
0000
0002
0000
2003
0000
,
3010
0000
0100
0001
0100
0000
0010
1000
,
0000
1000
0010
1000
0001
0010
0100
0010
,
0100
0010
0100
0000
1000
0000
1000
0001
,
0000
0010
0001
0000
0100
0010
1000
0100
,
2000
0000
0000
3200
0000
0000
0301
0000
,
0000
0100
0000
1000
0010
0001
0010
1000
,
0001
1000
0001
1000
,
0010
1000
0001
1000
,
0001
0100
0001
0100
,
0001
1000
0010
1000
,
0001
0010
0001
0010
,
0100
1000
0100
0010
,
0001
0000
0001
0000
,
0001
0000
0000
0000
,
0010
1000
0010
1000
,
0001
1000
0001
0100
,
0001
0010
0001
0010
,
0001
1000
0100
1000
,
0100
0010
0100
0010
,
0001
1000
0001
1000
,
0000
0010
0000
0010
,
0000
0010
0000
0000
,
1002
0000
0203
0000
0320
1000
0230
0000
,
0302
0000
0023
0000
0230
0001
2300
0001
,
3200
0000
0320
0000
0032
1000
0203
0000
,
0302
0010
0203
0010
0301
1000
0100
0000
,
0001
0010
0001
0000
1000
0000
1000
0000
,
0100
0000
0100
0000
1000
0100
0010
0000
,
0001
0010
0100
0000
0010
0100
1000
0000
,
0001
0100
0001
0100
0001
0000
0001
0000
,
1000
0010
1000
0001
0010
0000
0000
0000
,
0001
0010
0001
1000
0100
0000
0000
0000
,
1000
0100
1000
0001
0100
0000
0001
0010
,
0100
0000
0010
0100
1000
0000
0000
0000
,
0001
0010
0100
1000
0100
0010
0001
0000
,
1000
0010
0100
0001
0100
0010
1000
0000
,
0010
0100
0010
0100
0001
0100
0010
1000
,
0010
1000
0010
1000
0001
0100
0001
0000
,
1001
0000
0000
1100
0000
0000
0000
0000
,
1001
0000
0000
0101
0000
0000
1000
0000
,
1001
0000
0000
1010
0000
0000
0000
0000
,
1001
0000
0000
0011
0000
0000
0001
0000
,
0010
0001
0010
0001
0100
0010
0100
0010
,
1000
0100
1000
0100
1000
0010
1000
0010
,
0100
0001
0100
0001
1000
0001
1000
0001
,
0200
0010
0001
0310
,
1000
0010
0100
0010
,
1000
0010
0100
0000
,
0001
0010
0100
0010
,
0001
0000
1000
0000
,
0010
1000
0010
0000
,
0100
0001
0010
0000
,
0100
1000
0100
1000
,
0100
0000
0100
0010
,
0001
0000
0010
0100
,
1000
0000
0001
0010
,
0100
0000
1000
0010
,
0100
0000
0001
0100
,
0020
0000
0000
0000
,
2030
0000
0000
0000
,
3002
0000
0000
0000
,
0013
0000
0010
0000
,
0001
1000
0001
0000
0100
0010
0100
0000
,
0001
0010
0100
1000
0100
0000
0000
0000
,
1000
0010
0100
0001
0010
0100
1000
0100
,
0010
0001
1000
0010
0200
0000
0000
0000
,
0000
0000
0000
0000
,
0000
0000
0000
0000
,
0000
0000
0000
0000
,
0000
0000
0000
0000
0000
0000
0000
0000
0000
0000
0300
0000
0000
0010
0000
0000
;

//---------------dance-single - ----------------
#NOTES:
     dance-single:
     :
     Beginner:
     6:
     0.151998,0.338011,0.008060,0.161210,0.000000,132.000000,131.000000,1.000000,20.000000,0.000000,0.000000,0.151998,0.338011,0.008060,0.161210,0.000000,132.000000,131.000000,1.000000,20.000000,0.000000,0.000000:
// measure 0
0020
0000
0000
0000
,  // measure 1
0000
0000
0000
0000
,  // measure 2
2030
0000
0000
0000
,  // measure 3
0000
0000
0000
0000
,  // measure 4
3002
0000
0000
0000
,  // measure 5
0000
0000
0000
0000
,  // measure 6
0203
0000
0000
0000
,  // measure 7
0000
0000
0000
0000
0000
0300
0000
0000
,  // measure 8
0010
0000
0000
0000
,  // measure 9
0010
0000
0000
0000
,  // measure 10
1000
0000
1000
0000
,  // measure 11
1000
0000
0000
0000
,  // measure 12
0100
0000
0000
0000
,  // measure 13
0100
0000
0000
0000
,  // measure 14
0001
0000
0001
0000
,  // measure 15
0001
0000
0000
0000
,  // measure 16
0010
0000
0000
0000
,  // measure 17
0010
0000
0000
0000
,  // measure 18
0100
0000
0000
0000
,  // measure 19
0001
0000
0000
0000
,  // measure 20
0100
0000
0000
0000
,  // measure 21
0010
0000
0000
0000
,  // measure 22
1000
0000
0000
0000
,  // measure 23
0000
0000
0000
0000
,  // measure 24
0001
0000
0000
0000
,  // measure 25
0001
0000
0000
0000
,  // measure 26
1000
0000
0000
0000
,  // measure 27
0001
0000
0000
0000
,  // measure 28
0100
0000
0000
0000
,  // measure 29
0100
0000
0000
0000
,  // measure 30
0010
0000
0000
0000
,  // measure 31
0100
0000
0000
0000
,  // measure 32
0001
0000
0000
0000
,  // measure 33
0001
0000
0000
0000
,  // measure 34
0010
0000
0000
0000
,  // measure 35
0001
0000
0000
0000
,  // measure 36
1000
0000
0000
0000
,  // measure 37
1000
0000
0000
0000
,  // measure 38
0100
0000
0000
0000
,  // measure 39
1000
0000
0000
0000
,  // measure 40
0100
0000
0000
0000
,  // measure 41
0000
0000
0010
0000
,  // measure 42
0100
0000
0000
0000
,  // measure 43
0000
0000
0010
0000
,  // measure 44
0100
0100
0000
0000
,  // measure 45
0001
0000
0000
0000
,  // measure 46
0100
0100
0000
0000
,  // measure 47
0010
0000
0010
0000
,  // measure 48
1000
0000
1000
0000
,  // measure 49
0001
0000
1000
0000
,  // measure 50
0010
0000
0010
0000
,  // measure 51
1000
0000
0010
0000
,  // measure 52
0100
0000
0100
0000
,  // measure 53
0010
0000
0100
0000
,  // measure 54
0002
0000
0000
0000
,  // measure 55
0000
0003
0000
0000
,  // measure 56
0001
0000
0000
0000
,  // measure 57
0001
0000
0000
0000
,  // measure 58
1000
0000
0000
0000
,  // measure 59
1000
0000
0000
0000
,  // measure 60
0001
0000
0000
0000
,  // measure 61
0001
0000
0000
0000
,  // measure 62
0001
0000
0000
0000
,  // measure 63
0000
0000
0000
0000
,  // measure 64
0100
0000
0000
0000
,  // measure 65
0100
0000
0000
0000
,  // measure 66
0010
0000
0000
0000
,  // measure 67
0010
0000
0000
0000
,  // measure 68
0100
0000
0000
0000
,  // measure 69
0100
0000
0000
0000
,  // measure 70
0100
0000
0000
0000
,  // measure 71
0100
0000
0000
0000
,  // measure 72
2000
3000
0200
0300
,  // measure 73
0020
0030
0002
0003
,  // measure 74
0020
0030
0200
0300
,  // measure 75
2000
3000
0002
0003
,  // measure 76
0001
0000
0001
0000
,  // measure 77
0001
0001
0001
0000
,  // measure 78
0010
0000
0100
0000
,  // measure 79
1000
0000
0100
0000
,  // measure 80
0001
0000
0000
0000
,  // measure 81
0001
0000
0000
0000
,  // measure 82
0001
0000
0001
0000
,  // measure 83
0001
0000
0000
0000
,  // measure 84
1000
1000
1000
0000
,  // measure 85
1000
1000
1000
0000
,  // measure 86
0100
0000
0100
0000
,  // measure 87
1000
0000
0000
0000
,  // measure 88
0020
0000
0000
0000
,  // measure 89
0000
0000
0030
0000
,  // measure 90
0020
0000
0000
0000
,  // measure 91
0000
0000
0030
0000
,  // measure 92
0020
0000
0000
0000
,  // measure 93
0000
0000
0030
0000
,  // measure 94
2002
0000
0000
0000
,  // measure 95
0000
0000
3003
0000
,  // measure 96
0001
0000
0000
0000
,  // measure 97
0001
0000
0000
0000
,  // measure 98
0001
0000
0000
0000
,  // measure 99
1000
0000
0000
0000
,  // measure 100
1000
0000
0000
0000
,  // measure 101
0001
0000
0000
0000
,  // measure 102
1000
0000
0000
0000
,  // measure 103
0000
0000
0000
0000
,  // measure 104
0010
0000
0000
0000
,  // measure 105
0010
0000
0000
0000
,  // measure 106
0100
0000
0000
0000
,  // measure 107
0100
0000
0000
0000
,  // measure 108
0010
0000
0000
0000
,  // measure 109
0100
0000
0000
0000
,  // measure 110
0010
0000
0000
0000
,  // measure 111
0000
0000
0000
0000
,  // measure 112
0100
0000
0100
0000
,  // measure 113
0001
0000
0001
0000
,  // measure 114
2000
0000
0000
0000
,  // measure 115
0000
3000
0020
0000
,  // measure 116
0000
0000
0000
0000
,  // measure 117
0000
0000
0000
0000
,  // measure 118
0000
0000
0000
0000
,  // measure 119
0000
0000
0000
0000
0000
0000
0000
0000
0000
0000
0000
0000
0000
0030
0000
0000
;
