#TITLE:Kaerimichi;
#SUBTITLE:;
#ARTIST:Emiri Katou;
#TITLETRANSLIT:;
#SUBTITLETRANSLIT:;
#ARTISTTRANSLIT:;
#GENRE:;
#CREDIT:;
#BANNER:bake-bn.png;
#BACKGROUND:bake-bg.png;
#LYRICSPATH:;
#CDTITLE:;
#MUSIC:kaerimichi.ogg;
#OFFSET:0.000000;
#SAMPLESTART:0.000000;
#SAMPLELENGTH:12.000000;
#SELECTABLE:YES;
#BPMS:0.000000=175.000000
;
#STOPS:
;
#BGCHANGES:;
#KEYSOUNDS:;
#ATTACKS:;

//---------------dance-single - ----------------
#NOTES:
     dance-single:
     :
     Beginner:
     4:
     0.181030,0.207710,0.020439,0.000000,0.000000,124.000000,122.000000,2.000000,0.000000,0.000000,0.000000,0.181030,0.207710,0.020439,0.000000,0.000000,124.000000,122.000000,2.000000,0.000000,0.000000,0.000000:
0000
0000
0000
0000
,
0000
0000
0000
0000
,
0000
0000
0000
0000
,
0000
0000
0000
0000
,
1000
0000
1000
0000
,
0001
0000
0010
0000
,
0010
0000
0001
0000
,
1000
0000
1000
0000
,
0010
0000
0010
0000
,
0100
0000
0001
0000
,
0100
0000
0000
0000
,
1001
0000
0000
0000
,
0001
0000
1000
0000
,
0001
0000
1000
0000
,
0010
0000
1000
0000
,
0001
0000
0100
0000
,
0010
0000
0100
0000
,
0010
0000
0100
0000
,
0001
0000
0100
0000
,
0010
0000
1000
0000
,
1000
0000
1000
0000
,
0001
0000
0001
0000
,
1000
0000
1000
0000
,
0001
0001
0001
0000
,
0100
0000
0010
0000
,
1000
0000
0001
0000
,
0100
0000
0010
0000
,
1000
0000
0001
0000
,
0010
0000
0001
0000
,
1000
0000
0100
0000
,
0010
0000
0001
0000
,
1000
0000
0001
0000
,
0001
0000
0000
0000
,
1000
0000
0000
0000
,
0100
0000
0000
0000
,
0001
0000
0001
0000
,
0010
0000
0000
0000
,
1000
0000
0000
0000
,
0100
0000
0000
0100
,
0000
0000
0100
0100
,
0100
0000
0010
0000
,
0100
0000
0010
0000
,
1000
0000
0010
0000
,
0100
0000
0001
0000
,
1000
0000
0001
0000
,
1000
0000
0001
0000
,
0010
0000
0100
0000
,
1000
0000
0100
0000
,
1000
0000
0001
0000
,
1000
0000
0001
0000
,
0100
0000
0010
0000
,
1000
0000
0001
0000
,
0100
0000
0010
0000
,
0100
0000
0010
0000
,
1000
0000
0100
0000
,
0010
0000
0001
0000
,
0001
0000
1000
0000
,
0000
0000
0100
0100
,
0000
0010
0000
1000
,
0000
0001
0000
0001
,
0000
1000
0000
1000
,
0000
0001
0000
0100
,
0000
0010
0000
0100
,
0000
0010
0000
1000
,
0000
0010
0000
0100
,
0000
0001
0000
1000
,
0000
0100
0000
0010
,
0000
0001
0000
1001
;

//---------------dance-single - ----------------
#NOTES:
     dance-single:
     :
     Easy:
     6:
     0.348920,0.450037,0.153291,0.010219,0.000000,239.000000,224.000000,15.000000,1.000000,0.000000,0.000000,0.348920,0.450037,0.153291,0.010219,0.000000,239.000000,224.000000,15.000000,1.000000,0.000000,0.000000:
0000
0000
0000
0000
,
0000
0000
0000
0000
,
0000
0000
0000
0000
,
0000
0000
0000
0000
,
0010
0001
0010
0001
,
1000
0001
1000
0000
,
0010
0000
1000
0000
,
0100
0001
0010
1000
,
0100
1000
0100
1000
,
0010
0100
0010
0000
,
1001
0000
0000
1001
0000
0000
1001
0000
,
0000
0010
0000
0010
0000
0010
0000
0000
,
1000
1000
0001
0100
,
0010
0010
1000
0001
,
0010
0010
0100
1000
,
0000
0100
0000
0000
0001
0000
0000
0000
,
0010
0001
1000
0100
,
0010
1000
0001
0100
,
1000
0001
0100
0010
,
0000
0100
0000
0000
1001
0000
0000
0000
,
0000
0100
0000
0100
0000
0100
0000
0010
,
0000
0010
0000
1000
0000
1000
0000
0001
,
0000
1000
0000
0010
0000
0001
0000
0200
,
0000
0000
0000
0300
,
1001
0010
0010
0010
,
0001
1000
0100
1000
,
0010
0010
0100
0010
,
0000
0001
0000
0000
1000
0000
0000
0000
,
1001
0100
1000
0100
,
0010
0001
0010
0001
,
1000
0100
0010
0001
,
0000
0100
0000
0000
0010
0000
0000
0000
,
0010
0000
1000
0100
,
0001
0000
0001
0100
,
1000
0000
1000
0010
,
0001
0010
1000
0000
,
0100
0100
0001
0000
,
0001
0001
0100
0000
,
1000
1000
0000
0010
0010
0000
0100
0100
,
0000
0001
1000
0001
1000
0000
1001
0000
,
0010
1000
0100
0010
,
1000
0100
0010
0000
,
0010
0001
0100
0010
,
0001
0100
0010
0000
,
1000
0100
0001
1000
,
0010
0001
0100
0000
,
0100
0100
1000
0001
,
0010
0001
1000
1001
,
0010
0100
0010
1000
,
0100
0010
0100
0000
,
1000
0001
0100
0001
,
1000
0100
1000
0000
,
1001
0010
0010
0010
,
0100
0001
1000
1000
,
0010
1000
0100
0001
,
0100
1000
0010
0100
,
0001
0000
0000
0001
0000
0001
0000
0001
,
0000
0001
1000
0000
0001
0000
1001
0000
,
0000
0100
0000
0100
0000
0100
0000
0100
,
0010
0010
1001
0100
,
1000
0100
1000
0001
,
1000
0001
0000
0010
,
0000
1000
0000
0100
,
0001
0010
1000
0100
,
1000
0100
1000
0001
,
0010
0001
0000
0110
,
0000
0110
0000
0000
0110
0000
0000
1000
,
0000
0100
0000
0010
0000
0000
1001
0000
;

//---------------dance-single - ----------------
#NOTES:
     dance-single:
     :
     Medium:
     9:
     0.483232,0.553892,0.316802,0.061316,0.000000,331.000000,300.000000,31.000000,6.000000,0.000000,0.000000,0.483232,0.553892,0.316802,0.061316,0.000000,331.000000,300.000000,31.000000,6.000000,0.000000,0.000000:
0000
0000
0000
0000
,
0000
0000
0000
0000
,
0000
0000
0000
0000
,
0000
0000
0000
0010
,
0100
0000
0100
0001
0000
1000
0000
0001
,
0000
0010
0100
0010
0000
0100
1000
0010
,
0000
0100
0001
0010
0000
0001
1000
0001
,
0020
0000
0000
0130
0000
0000
0000
0000
,
1001
0000
1000
0010
0000
0100
0000
0001
,
0000
1000
0100
1000
0000
0001
1000
0000
,
1010
0000
0000
0101
0000
0000
1020
0000
,
0130
0010
0000
0010
0000
0010
0000
0000
,
1000
0001
1000
0000
0001
1000
0001
0000
,
0100
0001
0100
0000
0010
1000
0010
0000
,
0100
0010
0100
0000
0001
0010
0001
0000
,
0000
1100
0000
0010
0100
0000
0000
0000
,
0010
1000
0010
0000
1000
0100
1000
0000
,
0001
0100
0001
0000
1000
0001
1000
0000
,
0010
1000
0010
0000
0100
0001
1000
0000
,
0000
0011
0000
0100
0010
0000
2000
0000
,
3000
1000
0100
1000
0001
0100
0000
0010
,
0000
0010
0000
0010
0000
0010
0000
0010
,
0000
0100
0001
1000
0100
1000
0000
0020
,
0000
0000
0000
0030
,
1000
0001
0100
0000
0100
0000
0000
0100
,
0001
0010
0100
0000
0100
0000
0000
0100
,
1000
0001
0100
0010
0100
0000
0010
0000
,
0000
1100
0000
0001
1000
0000
0000
0010
,
0001
0010
0001
0000
1000
0000
0000
0010
,
1000
0010
1000
0000
0100
0000
0000
0100
,
0010
0001
0010
0100
1000
0100
0010
0000
,
0000
1010
0000
0100
0001
0000
0002
0000
,
1003
0000
0000
0001
0000
0100
0000
1000
,
0000
0000
0000
0000
0000
1000
0100
0001
,
0010
0000
0001
0100
0000
0010
0000
0100
,
0000
0010
1000
0000
0010
0000
0000
0000
,
0101
0000
0100
0010
0000
1000
0010
0000
,
1010
0000
1000
0001
0000
0100
0001
0100
,
0001
0010
0000
1000
0010
0000
0001
1000
,
0000
0100
0010
1000
1000
0000
0101
0000
,
1000
0100
1000
0100
1000
0000
0001
0010
,
0001
0010
0000
0001
0000
0000
0000
0010
,
0000
0000
0100
0001
0010
0000
0010
0001
,
1000
0010
0000
0100
0000
0000
0000
0000
,
1001
0000
0100
0010
0100
0000
0001
0010
,
0000
0100
0010
0001
0010
0000
0000
0000
,
1000
0010
1000
0010
1000
0000
0001
0100
,
0000
0001
0100
0010
1000
0000
0110
0000
,
0001
0100
0001
1010
,
1000
0100
1000
0011
,
0010
0100
1000
0101
,
0010
0000
0001
0100
0000
0000
0000
0000
,
0110
0000
1000
0001
1000
0000
0001
1000
,
0000
0100
1000
0001
1000
0000
0001
0000
,
0100
0000
0000
0010
0000
0000
0000
0000
,
1000
0100
0001
0010
,
1100
0000
0000
1001
0000
1010
0000
0110
,
0000
0100
0001
0000
1010
0000
0101
0000
,
0000
0011
0000
0110
0000
1100
0000
1000
,
0001
0100
0011
0001
,
0001
0010
0000
0100
0000
0010
0000
1000
,
0001
1000
0000
0001
0010
1000
0000
0001
,
0100
1000
0000
0100
1000
0001
0020
0000
,
0031
1000
0000
0000
0000
0000
1010
0000
,
0100
0001
0000
0010
0000
1000
0000
0010
,
1000
0010
0000
0100
0001
0010
0010
0000
,
0000
1100
0000
0000
0101
0000
0000
1000
,
0000
0010
0000
0100
0000
0000
1001
0000
;

//---------------dance-single - ----------------
#NOTES:
     dance-single:
     :
     Challenge:
     17:
     0.779595,0.871843,0.592726,0.255485,0.301473,534.000000,476.000000,58.000000,25.000000,0.000000,0.000000,0.779595,0.871843,0.592726,0.255485,0.301473,534.000000,476.000000,58.000000,25.000000,0.000000,0.000000:
// measure 0
0000
0000
0000
0000
,  // measure 1
0000
0000
0000
0000
,  // measure 2
0000
0000
0000
0000
,  // measure 3
0000
0000
0000
0011
,  // measure 4
0100
0000
1000
0001
0100
0000
0001
1000
0010
0000
1000
0001
0010
0000
0100
0000
,  // measure 5
0010
0000
0001
0010
0001
0000
1000
0000
0000
0000
0100
1000
0001
0000
0010
0000
,  // measure 6
0000
0000
0010
0001
1000
0000
0010
0000
0000
0000
0010
1000
0100
0001
0100
0000
,  // measure 7
2000
3020
0032
0203
0000
0000
1300
0000
,  // measure 8
0011
0000
0100
1000
0010
0000
1000
0010
0100
0000
0100
0001
1000
0000
0010
0000
,  // measure 9
0010
0000
1000
0100
1000
0000
0001
0000
0000
0000
0001
0100
0010
0000
0100
0000
,  // measure 10
1010
0010
0100
0011
0010
0100
1001
0010
,  // measure 11
0110
1100
0000
0011
0000
2200
3300
0000
,  // measure 12
0100
0000
1000
0000
0001
0000
1000
0000
0100
0000
0010
0000
0001
0000
1000
0001
,  // measure 13
0010
0000
0001
0000
1000
0000
0001
0000
0010
0000
0100
0000
1000
0000
0010
1000
,  // measure 14
0001
0000
1000
0000
0100
0000
0100
1000
0010
0000
0010
1000
0100
0000
0010
0000
,  // measure 15
0100
0011
0001
1000
1010
0000
0000
0100
,  // measure 16
0001
0000
1000
0000
0010
0000
0100
0000
0010
0000
1000
0000
0001
0000
0100
0010
,  // measure 17
0100
0000
0001
0000
1000
0000
0001
0000
0010
0000
0001
0000
1000
0000
0100
1000
,  // measure 18
0010
0000
0100
0001
0100
0000
0010
1000
0010
0000
0100
0001
0100
0000
0010
0000
,  // measure 19
1000
0101
0001
0010
1100
0000
0110
0000
,  // measure 20
0000
1000
0100
1000
0001
1000
0000
0101
,  // measure 21
0000
1001
0000
1100
0000
1010
0000
0011
,  // measure 22
0000
0000
0100
0000
0010
0000
0100
0000
1000
0000
0001
0000
0000
0000
1000
0001
,  // measure 23
0010
0001
1000
0100
0010
0100
1000
0001
0010
0100
1000
0010
0100
0001
1000
0000
,  // measure 24
0200
0000
0010
0000
0310
0000
0001
0000
1000
0000
0010
0000
1000
0000
0001
0010
,  // measure 25
0200
0000
0010
0000
0310
0000
0001
0000
1000
0000
0100
0000
0001
0000
0100
0010
,  // measure 26
0002
1000
1003
0010
1000
0100
1000
0010
,  // measure 27
0100
1001
0100
0010
1001
0000
0000
0010
,  // measure 28
0200
0000
0010
0000
0310
0000
1000
0000
0100
0000
0001
0000
0100
0000
1000
0010
,  // measure 29
0200
0000
0010
0000
0310
0000
1000
0000
0010
0000
0001
0000
1000
0000
0100
0001
,  // measure 30
0020
0100
0130
1000
0010
0100
0001
0010
,  // measure 31
0001
1100
1000
0010
0101
0000
0001
1000
,  // measure 32
0001
0000
0010
0200
0000
0302
0000
0013
,  // measure 33
0000
0000
1000
0000
0001
0000
0010
0000
0000
0000
0001
1000
0100
0000
0010
0000
,  // measure 34
1001
0010
0010
1000
0010
0001
0000
1010
,  // measure 35
0000
0000
0110
0000
0002
0000
0000
0000
1003
0000
0000
0000
0000
0000
1000
0100
,  // measure 36
0010
0000
0100
0000
1000
0000
0010
0000
0000
0000
1000
0000
0001
0000
0010
0100
,  // measure 37
0001
0100
1000
0010
0000
0100
0010
0100
,  // measure 38
0101
1100
0000
1100
0011
0000
0011
1010
,  // measure 39
0000
1020
0230
0302
1003
0000
0110
0000
,  // measure 40
0010
0000
1000
0100
0010
0000
0001
0100
0010
0000
1000
0100
0010
0000
1000
0000
,  // measure 41
0001
0200
0000
1300
0000
0000
0000
0110
,  // measure 42
0000
0000
0001
0010
0100
0000
1000
0010
0100
0000
0001
0010
0100
0000
0010
0000
,  // measure 43
0001
2000
0000
3100
0000
0000
0000
0000
,  // measure 44
1010
0010
0001
0100
1000
0000
0010
1000
,  // measure 45
0000
0000
1000
0001
0100
0000
0010
0000
1000
0000
1000
0000
0100
0000
0000
0000
,  // measure 46
0101
0000
0010
1000
0100
1000
0010
0001
,  // measure 47
0010
0100
0010
1000
0001
0000
1001
0110
,  // measure 48
0100
0010
0100
0001
0100
1000
0001
0010
,  // measure 49
1000
0000
0100
0000
0010
0000
0100
0000
0010
0000
0001
1000
0010
0000
0200
0000
,  // measure 50
0000
0310
1000
0001
1000
0100
0010
1000
,  // measure 51
0010
0000
0001
0000
0100
0000
0010
0000
0100
0000
0001
1000
0100
0000
0000
0000
,  // measure 52
0011
0001
0100
1000
0100
0000
0010
1000
,  // measure 53
0001
0000
1000
0010
0100
0000
0001
0000
0010
0000
0000
1000
0010
0000
0000
0100
,  // measure 54
0002
0000
0000
1003
0000
0000
0000
0010
,  // measure 55
1000
0100
0001
0100
1000
0010
0100
0000
,  // measure 56
1010
0000
0100
0011
0000
1010
0000
1100
,  // measure 57
0000
0100
0010
0000
0001
0000
0101
0000
,  // measure 58
0000
1010
0000
1100
0000
0110
0000
0001
,  // measure 59
0010
0000
0000
0000
0100
0000
0000
0000
0110
0000
0000
0000
0100
0000
0001
1000
,  // measure 60
0100
0000
1000
0001
0100
0000
0001
1000
0010
0000
0100
0000
0001
0000
0100
0000
,  // measure 61
0001
0000
0010
0000
0000
0000
0010
0001
0100
0000
0010
0000
0000
0000
0010
1000
,  // measure 62
0100
0000
0010
0000
0000
0000
0010
0001
1000
0010
0100
0000
1000
0000
0100
0000
,  // measure 63
0001
0000
0020
0000
0000
0000
0000
0000
0030
0000
0000
0000
1100
0000
0010
0001
,  // measure 64
0100
0000
0010
1000
0001
0000
0100
0010
1000
0000
0100
0000
0001
0000
0100
0000
,  // measure 65
0010
0001
0000
1000
0100
0010
0011
0100
,  // measure 66
0010
1010
0100
0010
1001
0100
0110
0011
,  // measure 67
0000
1100
0000
0101
0000
0000
2002
0000
,  // measure 68
0000
3003
0000
0000
;

//---------------dance-single - ----------------
#NOTES:
     dance-single:
     :
     Hard:
     14:
     0.635063,0.767222,0.470093,0.153291,0.076646,435.000000,389.000000,46.000000,15.000000,0.000000,0.000000,0.635063,0.767222,0.470093,0.153291,0.076646,435.000000,389.000000,46.000000,15.000000,0.000000,0.000000:
0000
0000
0000
0000
,
0000
0000
0000
0000
,
0000
0000
0000
0000
,
0000
0000
0000
1010
,
0010
0100
0010
0010
1000
0100
1000
0010
,
0000
0100
0001
0100
0000
0001
0100
1000
,
0000
0001
0010
1000
0000
0001
0100
0010
,
1000
0000
0001
0000
0010
0000
0100
0000
1000
0010
1000
0000
0001
0100
0001
0000
,
0010
0100
1000
0010
0100
1000
0100
0001
,
0000
1000
0100
0010
0000
1000
0100
0010
,
0011
0000
0100
0101
0000
1000
1100
0000
,
0110
0001
0000
1000
0000
0001
0000
1000
,
0010
0000
1000
0000
0100
0000
1000
0000
0010
0000
1000
0000
0100
0000
1000
0001
,
0010
0000
0001
0000
0100
0000
0001
0000
0010
0000
0001
0000
0100
0000
0001
1000
,
0010
0100
0001
0100
1000
0100
0010
0100
,
0000
1010
0000
0001
1001
0000
0000
0100
,
0010
0000
0001
0000
0010
0000
0100
0000
0010
0000
0001
0000
0010
0000
0100
1000
,
0010
0000
0100
0000
0010
0000
0001
0000
0010
0000
1000
0000
0010
0000
0100
0001
,
1000
0100
1000
0010
1000
0100
1000
0010
,
0000
0101
0000
0010
0110
0000
2000
0000
,
0000
3100
0010
0100
1000
0001
0000
0010
,
0000
0001
0000
0010
0000
0001
0000
0010
,
0000
0100
1000
0001
0100
0010
0000
0100
,
0010
1000
0010
1000
0001
0100
0001
0100
0010
0100
0010
0100
0010
0000
0100
0000
,
0001
0010
1000
0000
1000
0010
0001
0100
,
1000
0100
0001
0000
0001
0100
1000
0001
,
0010
1000
0100
1000
0010
0100
0001
0010
,
0000
0000
1100
0000
0000
0000
0001
0000
1001
0000
0000
0000
0000
0000
1000
0001
,
2000
0000
0010
0000
0100
0000
3001
1000
,
0200
0000
0010
0000
1000
0000
1300
0010
,
0200
0001
1000
0301
,
0000
0011
0000
0100
0110
0000
0010
0100
,
0001
1000
0001
0200
0000
0320
0000
1030
,
0000
1000
0001
1000
0010
1000
0001
0100
,
0002
0000
0013
0001
0000
1000
0000
1010
,
0000
0000
0100
0000
0001
0000
0000
0000
0101
0000
0000
0000
0000
0000
0010
0100
,
0010
1000
0100
0010
0000
0100
0010
0000
,
0010
0001
0100
0010
0000
1000
0001
0010
,
0100
1100
0000
0010
1010
0000
0100
0101
,
0000
0010
1000
0100
0001
0000
1001
0000
,
0100
0001
1000
0001
0100
1000
0100
0001
,
0010
0200
0000
1300
0000
0000
0000
0011
,
0000
1000
0100
0010
0001
0010
0100
0010
,
0001
2000
0000
3100
0000
0000
0000
0000
,
1001
0010
1000
0100
0010
0100
1000
0010
,
0000
0010
0100
0001
0010
0000
0000
0000
,
0000
0001
0100
0010
0100
0001
1000
0010
,
0000
0100
0110
0000
1001
0000
1001
0002
,
0000
1003
0100
1000
0010
0100
0010
1000
,
0100
0020
0000
0031
0000
0000
0000
1100
,
0000
0001
0010
0100
1000
0001
1000
0100
,
1000
0002
0000
0013
0000
0000
0000
0000
,
1010
1000
0100
1000
0010
0000
0001
0100
,
0000
0000
0001
0000
0100
0000
0010
0000
1000
0000
0000
0001
1000
0000
0000
0000
,
0020
0000
0000
0200
0000
0000
0330
0110
,
0000
0100
1000
0001
0010
0000
0001
0000
,
1001
0000
0000
0011
0000
0110
0000
1100
,
0000
1000
0001
0000
0101
0000
1010
0000
,
0000
1010
0000
0110
0000
0101
0000
0001
,
1000
0000
1100
0000
0011
0000
0100
1000
,
0010
1000
0100
0010
0000
0001
0000
1000
,
0100
0001
0000
1000
0010
0001
0000
1000
,
0100
0001
0000
0001
0100
1000
0010
0001
,
0010
1000
0001
0000
1001
0000
1001
0000
,
0010
1000
0100
1000
0010
0100
0000
0010
,
0001
0100
0000
0010
1000
0100
1100
0000
,
0001
0011
0000
0100
1001
0000
0010
1010
,
0000
0101
0000
0011
0000
0000
2000
0000
,
0000
3000
0000
0000
;
