#TITLE:How We Live;
#SUBTITLE:;
#ARTIST:NoDj;
#TITLETRANSLIT:;
#SUBTITLETRANSLIT:;
#ARTISTTRANSLIT:;
#GENRE:;
#CREDIT:;
#BANNER:bn.png;
#BACKGROUND:bg.png;
#LYRICSPATH:;
#CDTITLE:;
#MUSIC:How we Live.ogg;
#OFFSET:0.000000;
#SAMPLESTART:9.250000;
#SAMPLELENGTH:18.000000;
#SELECTABLE:YES;
#BPMS:0.000000=214.000000
,16.000000=107.000000
,17.000000=214.000000
,29.000000=107.000000
,31.000000=214.000000
,43.000000=107.000000
,44.000000=214.000000
,58.000000=107.000000
,59.000000=214.000000
,70.000000=107.000000
,71.000000=214.000000
,83.000000=107.000000
,84.000000=214.000000
,98.000000=107.000000
,99.000000=214.000000
,113.000000=107.000000
,114.000000=214.000000
,128.000000=107.000000
,131.000000=214.000000
,132.000000=107.000000
,133.000000=214.000000
,145.000000=107.000000
,146.000000=214.000000
,160.000000=107.000000
,161.000000=214.000000
,175.000000=107.000000
,176.000000=214.000000
,190.000000=107.000000
,191.000000=214.000000
,205.000000=107.000000
,206.000000=214.000000
,220.000000=107.000000
,221.000000=214.000000
,253.000000=107.000000
;
#STOPS:0.000000=0.250000,
1.000000=0.250000,
5.000000=0.250000,
8.000000=0.250000,
15.500000=3.750000,
69.000000=0.275000,
131.000000=2.000000
;
#BGCHANGES:;
#KEYSOUNDS:;
#ATTACKS:;

//---------------dance-single - ----------------
#NOTES:
     dance-single:
     :
     Hard:
     8:
     0.577683,1.010429,0.213854,0.699885,0.077765,416.000000,394.000000,22.000000,72.000000,0.000000,0.000000,0.577683,1.010429,0.213854,0.699885,0.077765,416.000000,394.000000,22.000000,72.000000,0.000000,0.000000:
1000
0000
1000
0000
0100
0100
0000
0000
,
0001
0000
0010
0000
0100
0100
0010
0010
,
0000
1000
0100
2000
0200
0000
0000
0000
,
0000
3300
0000
0000
0000
0010
0000
0010
,
2000
3100
0001
0100
,
1000
0010
1000
0100
,
0001
0010
1000
0100
,
0010
0000
2000
0010
3200
1300
1000
0000
,
0100
0010
0010
1000
,
0100
2000
0100
3020
,
0100
0030
0200
0000
0310
0000
0002
0010
,
1003
0100
1000
0100
0010
0001
0010
0001
,
0100
0001
0100
0001
0010
0001
0010
0001
,
2000
3200
0302
0203
,
0320
0000
2030
0000
3002
0013
0100
0000
,
1000
0010
1000
0100
,
1000
0010
0001
0100
,
0010
0000
1100
0000
0002
0003
1100
0000
,
0010
0001
0010
1100
,
0010
1000
0100
0101
,
0010
0000
1000
0000
0100
0000
0120
1030
,
0001
0001
0110
1000
,
0001
0100
1001
0010
,
0100
0001
1100
0010
,
0001
0000
1000
0000
0210
0301
0010
0100
,
0010
0100
0001
0100
0001
0100
0001
1000
,
0001
1000
0010
0100
0010
0100
0002
0003
,
0002
0003
2100
3000
2000
3000
0020
0030
,
0200
0300
2010
3100
0002
0000
0013
0000
,
1100
1000
0001
0001
,
1100
0100
0022
0033
,
2200
3300
0220
0330
,
2000
0000
3000
0000
0002
0000
0003
0000
1000
0100
1000
0100
1000
0000
0000
0000
,
2000
3100
0010
0000
1000
0000
0010
0100
,
0010
0000
0100
0000
1000
0000
0100
0010
,
0100
0000
0010
0000
0001
0000
0100
0010
,
0100
0000
0102
1003
0100
0000
0100
0000
,
1000
0000
0010
0000
1000
0100
1000
0000
,
0001
0000
0100
0000
0001
0010
0001
0000
,
0100
0000
0010
0000
1000
0010
1000
0000
,
1002
0103
0010
0000
0010
0000
1000
0000
,
0100
0000
0001
0010
0001
0000
0100
0000
,
0010
0000
0001
0100
0001
0000
1000
0000
,
0001
0000
0001
0000
0000
0000
2100
3001
,
0010
0100
1000
0100
,
1000
0100
1000
0000
0010
0000
0001
0000
,
0010
1000
0010
0000
0100
0000
0001
0000
,
0001
0000
0000
0000
1020
0130
0001
0000
,
0001
0000
1000
0000
0100
0000
0010
0100
,
0010
0000
1000
0000
0001
0000
0100
0001
,
0100
0000
0010
0000
1000
0000
0100
0010
,
0100
0000
0021
0130
1000
0000
0000
0000
,
0010
0000
0100
0000
1000
0100
1000
0000
,
0010
0000
0100
0000
0001
0010
0001
0000
,
0100
0000
0010
0000
0001
0100
0001
0000
,
2010
3100
0002
0000
0103
0000
0002
0000
,
0103
0000
1000
0100
1000
0100
1000
0100
,
1000
0100
0010
0000
0010
0001
0200
0000
,
0300
0000
1000
0100
1000
0100
1000
0100
,
1000
0100
0002
0000
0103
0000
0002
0000
,
0103
0000
1000
0100
1000
0100
1000
0100
,
1000
0100
0010
0000
0010
0001
0200
0000
,
0300
0000
1000
0100
1000
0100
1000
0100
,
1000
0100
0002
0013
2000
3010
0200
0301
,
0020
0031
2000
3100
0020
0130
2000
3100
,
0002
0103
0020
1030
0200
0310
0002
1003
,
0200
0310
0002
1003
0020
0130
2000
3010
,
0200
0301
0020
0031
2000
3010
0200
0301
,
0020
0130
2000
3100
0002
0103
0020
1030
,
0200
0000
1300
0000
1000
0000
0010
0010
0100
0000
0001
0001
0010
0000
0100
0100
,
1000
0000
0010
0010
0100
0000
0001
0001
0010
0000
0100
0100
1000
0100
1000
0100
,
1000
0100
1000
0100
1000
0100
1000
0100
1000
0100
1000
0100
0000
0000
0000
0000
;

//---------------dance-single - ----------------
#NOTES:
     dance-single:
     :
     Medium:
     6:
     0.367995,0.731052,0.000000,0.388825,0.019441,265.000000,265.000000,0.000000,40.000000,0.000000,0.000000,0.367995,0.731052,0.000000,0.388825,0.019441,265.000000,265.000000,0.000000,40.000000,0.000000,0.000000:
0010
0010
0200
0300
,
0001
0000
0010
0000
2000
3000
0002
0003
,
0000
1000
0200
0000
0000
0000
0000
0000
,
0000
0300
0000
0000
0000
0010
0000
0010
,
2000
3010
0000
1000
,
0000
0010
0000
0001
,
0010
0100
0000
0100
,
0010
0000
2000
0000
3002
0003
1000
0000
,
0000
0010
0000
1000
,
0100
0002
0003
0020
,
0030
0200
0300
0002
,
1003
1000
0010
0010
,
0100
0100
0010
0010
,
2000
0000
3002
0000
,
0203
0000
0000
0000
0302
0003
0100
0000
,
0000
0010
0000
0100
,
1000
0010
0000
0100
,
0010
0000
1000
0000
0002
0003
0100
0000
,
0000
0001
0010
1000
,
0000
1000
0100
0001
,
0000
0000
1000
0000
0100
0000
0020
0030
,
0001
0000
0010
0000
,
0001
0100
1000
0000
,
0100
0001
1000
0010
,
0001
0000
1000
0000
0200
0300
0010
0000
,
0010
0001
0001
0100
,
0100
0010
0010
0002
,
0003
2000
3000
0020
,
0030
0000
2000
3000
0001
0000
0000
0000
,
1000
1000
0001
0001
,
0100
0100
0002
0003
,
2000
3000
0020
0030
,
2000
3000
0002
0003
1000
1000
1000
0000
,
2000
3000
0010
0000
0000
0000
0010
0000
,
1000
0100
0000
1000
,
0100
0010
0000
0100
,
0100
0000
0002
0003
0100
0000
0000
0000
,
1000
0000
1000
0100
,
0001
0000
0001
0010
,
0100
0000
1000
0010
,
0002
0003
0010
0000
0000
0000
1000
0000
,
0000
0001
0010
0100
,
0000
0001
0100
1000
,
0001
0000
0100
0000
0000
0000
2000
3000
,
0010
0000
1000
0000
,
1000
0100
0010
0000
,
0100
0010
0100
0001
,
0001
0000
0000
0000
0020
0030
0001
0000
,
0000
1000
0000
0010
,
0100
1000
0000
0100
,
0001
0010
1000
1000
,
0100
0000
0020
0030
1000
0000
0000
0000
,
0010
0100
1000
0000
,
0010
0100
0001
0000
,
0100
0010
0001
0000
,
2000
3000
0002
0000
0003
0000
0020
0000
,
0030
1000
1000
0100
,
0100
0001
0010
0200
,
0300
1000
1000
0100
,
0100
0002
0003
0020
,
0030
1000
1000
0100
,
0100
0001
0010
0200
,
0300
1000
1000
0100
,
0100
0000
0001
0010
1000
0010
0100
0001
,
0010
0001
1000
0100
0010
0100
1000
0100
,
0001
0100
0010
1000
0100
0010
0001
1000
,
0100
0010
0001
1000
0010
0100
1000
0010
,
0100
0001
0010
0001
1000
0010
0100
0001
,
0010
0100
1000
0100
0001
0100
0010
1000
,
0100
1000
1000
0010
0100
0001
0010
0100
,
1000
0000
0010
0000
0100
0000
0001
0000
0010
0000
0100
0000
1000
0100
1000
0000
,
1000
0100
1000
0000
1000
0100
1000
0000
1000
0100
1000
0000
0000
0000
0000
0000
;

//---------------dance-single - ----------------
#NOTES:
     dance-single:
     :
     Easy:
     4:
     0.233295,0.417744,0.000000,0.349943,0.000000,168.000000,168.000000,0.000000,36.000000,0.000000,0.000000,0.233295,0.417744,0.000000,0.349943,0.000000,168.000000,168.000000,0.000000,36.000000,0.000000,0.000000:
0010
0000
0200
0300
,
0000
0010
0000
0000
,
0001
0000
0000
0000
0000
0200
0000
0000
,
0000
0000
0300
0000
0000
0010
0000
0010
,
2000
3000
0000
0000
0000
0000
1000
0000
,
0000
0010
0000
0001
,
0000
0100
0000
0100
,
0000
0000
2000
3000
0002
0003
0000
0000
,
0000
0010
0000
1000
,
0000
0002
0003
0020
,
0030
0200
0300
0002
,
0003
0000
0010
0000
,
0100
0000
0010
0000
,
2000
3000
0002
0003
,
0200
0000
0300
0000
0002
0003
0000
0000
,
0000
0010
0000
0100
,
0000
0010
0000
0100
,
0000
0000
1000
0000
0002
0003
0100
0000
,
0000
0001
0000
1000
,
0000
1000
0000
0001
,
0000
0000
1000
0000
0000
0000
0020
0030
,
0001
0000
0010
0000
,
0001
0000
1000
0000
,
0100
0000
1000
0000
,
0001
0000
0000
0000
0200
0300
0010
0000
,
0000
0001
0000
0100
,
0000
0010
0000
0002
,
0003
2000
3000
0020
,
0030
0000
2000
3000
0001
0000
0000
0000
,
1000
0000
0001
0000
,
0100
0000
0002
0003
,
2000
3000
0020
0030
,
2000
3000
0002
0003
1000
0000
1000
0000
,
2000
3000
0010
0000
0000
0000
0010
0000
,
0000
0100
0000
1000
,
0000
0010
0000
0100
,
0000
0000
0002
0003
0100
0000
0000
0000
,
1000
0000
1000
0000
,
0001
0000
0001
0000
,
0100
0000
1000
0000
,
0002
0003
0010
0000
0000
0000
1000
0000
,
0000
0001
0000
0100
,
0000
0001
0000
1000
,
0000
0000
0100
0000
0000
0000
2000
3000
,
0010
0000
1000
0000
,
1000
0000
0010
0000
,
0100
0000
0000
0001
,
0001
0000
0000
0000
0020
0030
0001
0000
,
0000
1000
0000
0010
,
0000
1000
0000
0100
,
0000
0000
1000
1000
,
0000
0000
0020
0030
1000
0000
0000
0000
,
0010
0000
1000
0000
,
0010
0000
0001
0000
,
0000
0001
0001
0000
,
2000
3000
0002
0000
0003
0000
0020
0000
,
0030
0000
1000
1000
,
0000
0000
0020
0000
,
0030
0000
1000
1000
,
0000
0001
0000
0001
,
0000
0000
1000
1000
,
0000
0000
0020
0000
,
0030
0000
1000
1000
,
0000
0001
1000
0100
,
0010
1000
0010
1000
,
0001
0010
0100
0001
,
0100
0001
0010
1000
,
0100
0010
1000
0100
,
0010
1000
0001
0010
,
0100
1000
0100
0010
,
1000
0000
0100
0000
0010
0000
1000
1000
,
1000
1000
1000
1000
1000
1000
0000
0000
;

//---------------dance-single - ----------------
#NOTES:
     dance-single:
     :
     Beginner:
     2:
     0.123591,0.208507,0.000000,0.174971,0.000000,89.000000,89.000000,0.000000,18.000000,0.000000,0.000000,0.123591,0.208507,0.000000,0.174971,0.000000,89.000000,89.000000,0.000000,18.000000,0.000000,0.000000:
0020
0000
0030
0000
,
0000
0010
0000
0000
,
0000
0000
0000
0000
0000
0200
0000
0000
,
0000
0300
0000
0000
,
2000
3000
0000
0000
0000
0000
1000
0000
,
0000
0000
0000
0001
,
0000
0000
0000
1000
,
0000
2000
0000
3000
,
0000
0010
0000
0000
,
0000
0001
0000
0000
,
0000
0001
0000
0002
,
0003
0000
0010
0000
,
0000
0000
0010
0000
,
0000
0000
0001
0000
,
0000
0000
0002
0003
,
0000
0010
0000
0000
,
0000
0010
0000
0000
,
0000
2000
0000
3000
,
0000
0001
0000
0000
,
0000
1000
0000
0000
,
0000
1000
0000
2000
,
3000
0000
0010
0000
,
0000
0000
1000
0000
,
0000
0000
1000
0000
,
0000
0000
0200
0300
,
0000
0001
0000
0000
,
0000
0010
0000
0000
,
0000
1000
0000
0000
,
0000
0020
0030
0000
,
1000
0000
0000
0000
,
0100
0000
0000
0000
,
0100
0000
0000
0000
,
0100
0000
1000
1000
,
2000
3000
0000
0010
,
0000
0000
0000
1000
,
0000
0000
0000
0100
,
0000
0200
0300
0000
,
1000
0000
0000
0000
,
0001
0000
0000
0000
,
0100
0000
0000
0000
,
0002
0003
0000
1000
,
0000
0000
0000
0100
,
0000
0000
0000
1000
,
0000
0000
0000
2000
,
3000
0000
1000
0000
,
0000
0000
0010
0000
,
0000
0000
0001
0000
,
0000
0000
0002
0003
,
0000
1000
0000
0000
,
0000
1000
0000
0000
,
0000
1000
0000
0000
,
0000
0020
0030
0000
,
0010
0000
0000
0000
,
0010
0000
0000
0000
,
0001
0000
0000
0000
,
0002
0003
0000
0010
,
0000
0000
0000
1000
,
0000
0000
0000
0010
,
0000
0000
0000
1000
,
0000
0000
0000
0001
,
0000
0000
0000
1000
,
0000
0000
0000
0010
,
0000
0000
0000
0001
,
0000
0002
0003
0010
,
0000
0100
0000
0001
,
0000
0100
0000
0100
,
0000
0010
0000
0100
,
0000
1000
0000
0010
,
0000
0001
0000
0100
,
0000
0100
0000
1000
,
0000
0010
0000
1000
,
1000
1000
1000
0000
;
