#TITLE:Hot Milk;
#SUBTITLE:;
#ARTIST:Snail's House;
#TITLETRANSLIT:;
#SUBTITLETRANSLIT:;
#ARTISTTRANSLIT:;
#GENRE:;
#CREDIT:;
#BANNER:Hot Milk-bn.png;
#BACKGROUND:Hot Milk-bg.png;
#LYRICSPATH:;
#CDTITLE:;
#MUSIC:Hot Milk.ogg;
#OFFSET:0.000000;
#SAMPLESTART:21.216999;
#SAMPLELENGTH:12.000000;
#SELECTABLE:YES;
#BPMS:0.000000=75.000000
,10.000000=300.000000
,14.000000=75.000000
,15.000000=300.000000
,19.000000=75.000000
,21.000000=300.000000
,25.000000=75.000000
,26.500000=300.000000
,30.500000=75.000000
,32.000000=300.000000
,36.000000=75.000000
,38.500000=300.000000
,42.500000=75.000000
,45.500000=300.000000
,49.500000=75.000000
,50.000000=300.000000
,54.000000=75.000000
,55.000000=300.000000
,59.000000=75.000000
,62.000000=300.000000
,66.000000=75.000000
,69.000000=300.000000
,73.000000=75.000000
,75.000000=300.000000
,79.000000=75.000000
,81.000000=300.000000
,85.000000=75.000000
,88.000000=300.000000
,92.000000=75.000000
,95.000000=300.000000
,99.000000=75.000000
,101.000000=300.000000
,105.000000=75.000000
,108.000000=300.000000
,167.000000=75.000000
,168.000000=300.000000
,228.000000=150.000000
,230.000000=300.000000
,234.000000=75.000000
,236.500000=300.000000
,240.500000=75.000000
,243.000000=300.000000
,247.000000=75.000000
,249.500000=150.000000
,251.500000=75.000000
,252.000000=300.000000
,256.000000=75.000000
,260.500000=300.000000
,264.500000=75.000000
;
#STOPS:9.000000=1.600000,
14.000000=1.600000,
19.000000=0.750000,
25.500000=1.250000,
30.500000=1.200000,
36.000000=0.400000,
49.500000=2.000000,
54.000000=1.600000,
73.000000=0.780000,
80.000000=0.800000,
99.000000=0.788000,
167.000000=0.225000,
235.000000=0.400000,
241.500000=0.400000,
247.000000=2.000000,
251.500000=0.400000,
258.166656=2.000000
;
#BGCHANGES:;
#KEYSOUNDS:;
#ATTACKS:;

//---------------dance-single - ----------------
#NOTES:
     dance-single:
     :
     Hard:
     5:
     0.154806,0.266803,0.239823,0.710587,0.004441,122.000000,95.000000,27.000000,80.000000,0.000000,0.000000,0.154806,0.266803,0.239823,0.710587,0.004441,122.000000,95.000000,27.000000,80.000000,0.000000,0.000000:
0000
0000
0000
0000
,
0000
0000
0020
0000
,
0030
0001
2200
0000
,
0000
0000
3300
0202
,
0000
0000
0000
0303
,
1000
0010
2020
0000
0000
0000
0000
0000
,
0000
0000
3000
0030
0000
0022
0000
0000
,
0000
0000
0000
0000
0000
0033
1000
0001
,
2002
0000
0000
0000
,
3003
0100
0000
0001
0000
2020
0000
0000
,
0000
0000
0000
0000
0000
3030
0000
0001
,
0010
0100
2000
0002
0000
0000
0000
0000
,
0000
0000
0000
3003
0220
0000
0000
0000
,
0000
0000
0330
0020
,
0000
0000
0000
1030
,
0100
0010
0001
0010
0200
0000
0000
0000
,
0000
0000
0000
0000
1300
0000
0010
1000
,
0001
0100
0002
0000
0000
0000
0000
0000
,
0000
0013
0000
2020
,
0000
0000
0000
3030
,
0000
0202
0000
0000
,
0000
0000
0303
0000
0001
0010
1000
0010
,
0220
0000
0000
0000
,
0030
0000
0310
0010
0010
0000
2002
0000
,
0000
0000
0000
3003
,
0000
0012
0000
0000
,
0000
0103
0100
0100
,
2020
0000
0000
0030
,
0002
0000
0000
3000
,
0200
0000
0000
0003
,
0020
0000
0000
0300
,
2000
0000
0000
0030
,
0200
0000
0000
3000
,
0020
0000
0000
0300
,
0002
0000
0000
0030
,
2000
0000
0000
0003
,
0020
0000
0000
0030
,
0002
0000
0000
3000
,
0200
0000
0000
0003
,
0020
0000
0000
0300
,
2000
0000
0000
0030
,
0200
0000
0000
3300
,
0022
0000
0000
0033
,
2200
0000
0000
3300
,
2020
0000
0000
3030
,
0202
0000
0000
0303
,
2002
0000
0000
3003
,
2200
0000
0000
3300
,
0220
0000
0000
0330
,
0202
0000
0000
0303
,
2020
0000
0000
3030
,
0220
0000
0000
0330
,
0022
0000
0000
0033
,
2002
0000
0000
0003
,
0200
0000
0000
0300
,
0002
0000
0000
3000
,
0020
0000
0000
0033
,
0000
0000
0200
0000
,
0000
0000
0300
0000
,
0000
0020
0000
0000
0000
0000
0000
0000
,
0000
0030
0000
0000
1000
0001
0200
0000
,
0000
0000
0000
0000
0000
0000
0300
0100
,
0000
0001
0010
0002
0000
0000
0000
1003
,
2002
0000
0000
0000
,
3003
0000
0000
0000
0000
0000
0000
0000
0000
0000
0000
0000
0000
0000
0000
0000
0000
0000
0000
0000
0000
0000
0000
0010
,
0100
0202
0000
0000
0000
0000
0000
0000
,
0000
0303
0000
0000
0000
1000
0010
0000
;

//---------------dance-single - ----------------
#NOTES:
     dance-single:
     :
     Medium:
     3:
     0.102781,0.177869,0.071059,0.541822,0.000000,81.000000,73.000000,8.000000,61.000000,0.000000,0.000000,0.102781,0.177869,0.071059,0.541822,0.000000,81.000000,73.000000,8.000000,61.000000,0.000000,0.000000:
// measure 0
0000
0000
0000
0000
,  // measure 1
0000
0000
0000
0000
,  // measure 2
0010
0010
2000
0000
,  // measure 3
0000
0000
3000
0002
,  // measure 4
0000
0000
0000
0003
,  // measure 5
0000
0020
0000
0000
,  // measure 6
0000
0000
0000
0030
0000
0200
0000
0000
,  // measure 7
0000
0000
0000
0000
0000
0300
0100
0000
,  // measure 8
0220
0000
0000
0000
,  // measure 9
0330
0100
0000
0001
0000
0020
0000
0000
,  // measure 10
0000
0000
0000
0000
0000
0030
0000
0001
,  // measure 11
0000
1000
0000
0200
0000
0000
0000
0000
,  // measure 12
0000
0000
0000
0300
0220
0000
0000
0000
,  // measure 13
0000
0000
0330
2000
,  // measure 14
0000
0000
0000
3000
,  // measure 15
0001
0010
0200
0000
,  // measure 16
0000
0000
0300
1000
,  // measure 17
0010
0200
0000
0000
,  // measure 18
0000
0300
0000
0002
,  // measure 19
0000
0000
0000
0003
,  // measure 20
0000
2002
0000
0000
,  // measure 21
0000
3003
1000
0100
,  // measure 22
0020
0000
0000
0000
,  // measure 23
0030
0100
1000
0002
,  // measure 24
0000
0000
0000
0003
,  // measure 25
0000
0220
0000
0000
,  // measure 26
0000
0330
0100
0100
,  // measure 27
0200
0000
0000
0000
,  // measure 28
0320
0000
0000
0000
,  // measure 29
2030
0000
0000
0000
,  // measure 30
3200
0000
0000
0000
,  // measure 31
2300
0000
0000
0000
,  // measure 32
3002
0000
0000
0000
,  // measure 33
2003
0000
0000
0000
,  // measure 34
3020
0000
0000
0000
,  // measure 35
2030
0000
0000
0000
,  // measure 36
3002
0000
0000
0000
,  // measure 37
2003
0000
0000
0000
,  // measure 38
3200
0000
0000
0000
,  // measure 39
0320
0000
0000
0000
,  // measure 40
0032
0000
0000
0000
,  // measure 41
0023
0000
0000
0030
,  // measure 42
0002
0000
0000
0000
,  // measure 43
0203
0000
0000
0000
,  // measure 44
2300
0000
0000
0000
,  // measure 45
3200
0000
0000
0000
,  // measure 46
0302
0000
0000
0000
,  // measure 47
0023
0000
0000
0000
,  // measure 48
2030
0000
0000
0000
,  // measure 49
3020
0000
0000
0000
,  // measure 50
0032
0000
0000
0000
,  // measure 51
2003
0000
0000
0000
,  // measure 52
3020
0000
0000
0000
,  // measure 53
2030
0000
0000
0000
,  // measure 54
3200
0000
0000
0000
,  // measure 55
0320
0000
0000
0000
,  // measure 56
0032
0000
0000
0000
,  // measure 57
0003
0000
2000
0000
,  // measure 58
0000
0000
3000
0000
,  // measure 59
0000
2002
0000
0000
0000
0000
0000
0000
,  // measure 60
0000
3003
0000
0000
1000
0000
0020
0000
,  // measure 61
0000
0000
0000
0000
0000
0000
0030
0220
,  // measure 62
0000
0000
0330
0002
0000
0000
0000
0003
,  // measure 63
2020
0000
0000
0000
,  // measure 64
3030
0000
0000
0000
,  // measure 65
0010
2200
0000
0000
0000
0000
0000
0000
,  // measure 66
0000
3300
0000
0000
0000
0000
0001
0000
;

//---------------dance-single - ----------------
#NOTES:
     dance-single:
     :
     Easy:
     1:
     0.091361,0.207514,0.026647,0.479646,0.000000,72.000000,69.000000,3.000000,54.000000,0.000000,0.000000,0.091361,0.207514,0.026647,0.479646,0.000000,72.000000,69.000000,3.000000,54.000000,0.000000,0.000000:
0000
0000
0000
0000
,
0000
0000
0000
0000
,
0000
0010
0200
0000
,
0000
0000
0300
0020
,
0000
0000
0000
0030
,
0000
2000
0000
0000
,
0000
0000
0000
3000
0000
0002
0000
0000
,
0000
0000
0000
0000
0000
0003
0000
0000
,
0020
0000
0000
0000
,
0030
0000
0000
0100
0000
0200
0000
0000
,
0000
0000
0000
0000
0000
0300
0000
1000
,
0000
1000
0000
0002
0000
0000
0000
0000
,
0000
0000
0000
0003
2000
0000
0000
0000
,
0000
0000
3000
0020
,
0000
0000
0000
0030
,
0100
0010
0200
0000
,
0000
0000
0300
0001
,
0001
2000
0000
0000
,
0000
3000
0000
0200
,
0000
0000
0000
0300
,
0100
2002
0000
0000
,
0000
3003
0010
0100
,
0220
0000
0000
0000
,
0330
1000
0100
0020
,
0000
0000
0000
0030
,
0000
0002
0000
0000
,
0000
0003
0000
0100
,
0020
0000
0000
0030
,
0020
0000
0000
0030
,
0020
0000
0000
0030
,
0020
0000
0000
0030
,
2000
0000
0000
3000
,
2000
0000
0000
3000
,
2000
0000
0000
3000
,
2000
0000
0000
3000
,
0002
0000
0000
0003
,
0002
0000
0000
0003
,
0002
0000
0000
0003
,
0002
0000
0000
0003
,
0200
0000
0000
0300
,
0200
0000
0000
0300
,
0200
0000
0000
0300
,
1002
0000
0000
0000
,
2003
0000
0000
0000
,
3002
0000
0000
0000
,
2003
0000
0000
0000
,
3020
0000
0000
0000
,
0230
0000
0000
0000
,
0320
0000
0000
0000
,
0230
0000
0000
0000
,
0320
0000
0000
0000
,
2030
0000
0000
0000
,
3020
0000
0000
0000
,
2030
0000
0000
0000
,
3002
0000
0000
0000
,
0203
0000
0000
0000
,
0302
0000
0000
0000
,
0003
0000
0002
0000
,
0000
0000
0003
0000
,
0000
0020
0000
0000
0000
0000
0000
0000
,
0000
0030
0000
0000
0000
0000
0200
0000
,
0000
0000
0000
0000
0000
0000
0300
1000
,
0000
1000
0000
2000
0000
0000
0000
3000
,
0020
0000
0000
0000
,
0030
0000
0000
0000
,
0000
0002
0000
0000
0000
0000
0000
0000
,
0000
0003
0000
0000
0000
0000
0100
0000
;
