#TITLE:Hooveristic Trooper;
#SUBTITLE:(tpz Overheat Remix);
#ARTIST:t+pazolite;
#TITLETRANSLIT:;
#SUBTITLETRANSLIT:;
#ARTISTTRANSLIT:;
#GENRE:;
#CREDIT:;
#BANNER:hooveristic-bn.png;
#BACKGROUND:hooveristic-bg.png;
#LYRICSPATH:;
#CDTITLE:;
#MUSIC:hooveristic trooper.ogg;
#OFFSET:0.000000;
#SAMPLESTART:99.839996;
#SAMPLELENGTH:12.000000;
#SELECTABLE:YES;
#BPMS:0.000000=124.999992
,16.000000=249.999985
,80.000000=124.999992
,144.000000=249.999985
,208.000000=124.999992
,212.000000=249.999985
,220.000000=124.999992
,224.000000=249.999985
,376.000000=124.999992
;
#STOPS:328.000000=0.240000,
328.500000=0.240000,
329.000000=0.240000,
329.500000=0.240000,
332.000000=0.240000,
332.500000=0.240000,
333.000000=0.240000,
333.500000=0.240000,
336.000000=0.240000,
336.500000=0.240000,
337.000000=0.240000,
337.500000=0.240000,
340.000000=0.240000,
340.500000=0.240000,
341.000000=0.240000,
341.500000=0.240000
;
#BGCHANGES:;
#KEYSOUNDS:;
#ATTACKS:;

//---------------dance-single - ----------------
#NOTES:
     dance-single:
     :
     Beginner:
     4:
     0.169096,0.270000,0.089796,0.146939,0.000000,145.000000,134.000000,11.000000,18.000000,0.000000,0.000000,0.169096,0.270000,0.089796,0.146939,0.000000,145.000000,134.000000,11.000000,18.000000,0.000000,0.000000:
// measure 0
0000
0000
0000
0000
,  // measure 1
0000
0000
0000
0000
,  // measure 2
0000
0000
0000
0000
,  // measure 3
0000
0000
0000
0000
,  // measure 4
0100
0000
0100
0000
,  // measure 5
0100
0000
0001
0000
,  // measure 6
0010
0000
0010
0000
,  // measure 7
0010
0000
0001
0000
,  // measure 8
0100
0000
0100
0000
,  // measure 9
0100
0000
0001
0000
,  // measure 10
0010
0000
0010
0000
,  // measure 11
0010
0000
0000
0000
,  // measure 12
1000
0000
1000
0000
,  // measure 13
1000
0000
0100
0000
,  // measure 14
0001
0000
0001
0000
,  // measure 15
0001
0000
0100
0000
,  // measure 16
1000
0000
0100
0000
,  // measure 17
0001
0000
0100
0000
,  // measure 18
1000
0000
1000
0000
,  // measure 19
1000
0000
0000
0000
,  // measure 20
0020
0000
0030
0000
,  // measure 21
0000
0000
0000
0000
,  // measure 22
2002
0000
3003
0000
,  // measure 23
0000
0000
0000
0000
,  // measure 24
0220
0000
0330
0000
,  // measure 25
0000
0000
0000
0000
,  // measure 26
0200
0000
0300
0000
,  // measure 27
0100
0100
0100
0000
,  // measure 28
0000
0001
0000
1000
,  // measure 29
0000
0010
0000
1000
,  // measure 30
0000
0001
0000
0100
,  // measure 31
0000
0001
0000
1000
,  // measure 32
0000
0001
0000
1000
,  // measure 33
0000
0010
0000
1000
,  // measure 34
0000
0001
0000
0100
,  // measure 35
0100
0100
0100
0000
,  // measure 36
1001
0000
0000
0010
,  // measure 37
0000
0000
0100
0000
,  // measure 38
0010
0000
0000
1000
,  // measure 39
0000
0000
0001
0000
,  // measure 40
1001
0000
0000
0001
,  // measure 41
0000
0000
0100
0000
,  // measure 42
0001
0000
0000
0010
,  // measure 43
0000
0000
1000
0000
,  // measure 44
1001
0000
0000
0100
,  // measure 45
0000
0000
0010
0000
,  // measure 46
0100
0000
0000
0001
,  // measure 47
0000
0000
1000
0000
,  // measure 48
1001
0000
0000
0000
,  // measure 49
0110
0000
0000
0000
,  // measure 50
1001
0000
1000
0000
,  // measure 51
0001
0000
0000
0000
,  // measure 52
0020
0000
0030
0000
,  // measure 53
0100
0000
0100
0000
,  // measure 54
0100
0000
0000
0000
,  // measure 55
0020
0000
0030
0000
,  // measure 56
1000
0000
1000
0000
,  // measure 57
1000
0000
0000
0000
,  // measure 58
0020
0000
0000
0000
,  // measure 59
0030
0000
0010
0000
,  // measure 60
0002
0000
0000
0000
,  // measure 61
0003
0000
0001
0000
,  // measure 62
0020
0000
0030
0000
,  // measure 63
0002
0000
0003
0000
,  // measure 64
0010
0000
0010
0000
,  // measure 65
0010
0000
0000
0000
,  // measure 66
1001
0000
0001
0000
,  // measure 67
1000
0000
0001
0000
,  // measure 68
1000
0000
0100
0000
,  // measure 69
1000
0000
0000
0000
,  // measure 70
0110
0000
0010
0000
,  // measure 71
0100
0000
0010
0000
,  // measure 72
0100
0000
0001
0000
,  // measure 73
0100
0000
0000
0000
,  // measure 74
1000
0000
1000
0000
,  // measure 75
0010
0000
1000
0000
,  // measure 76
0010
0000
0010
0000
,  // measure 77
1000
0000
0000
0000
,  // measure 78
0001
0000
0001
0000
,  // measure 79
0100
0000
0001
0000
,  // measure 80
0100
0000
1000
0000
,  // measure 81
0100
0000
0000
0000
,  // measure 82
0020
0000
0030
0000
,  // measure 83
0200
0000
0300
0000
,  // measure 84
2000
0000
3000
0000
,  // measure 85
0002
0000
0003
0000
,  // measure 86
0010
0000
0000
0000
,  // measure 87
0000
0000
0000
0000
,  // measure 88
0100
0000
0000
0000
,  // measure 89
0000
0000
0000
0000
,  // measure 90
1000
0000
0000
0000
,  // measure 91
1000
0000
0000
0000
,  // measure 92
0001
0000
0001
0000
,  // measure 93
0001
0000
0000
0000
,  // measure 94
2002
0000
3003
0000
;

//---------------dance-single - ----------------
#NOTES:
     dance-single:
     :
     Easy:
     7:
     0.349854,0.501429,0.195918,0.236735,0.000000,300.000000,276.000000,24.000000,29.000000,0.000000,0.000000,0.349854,0.501429,0.195918,0.236735,0.000000,300.000000,276.000000,24.000000,29.000000,0.000000,0.000000:
0000
0000
0000
0000
,
0000
0000
0000
0000
,
0000
0000
0000
0000
,
0000
0000
0000
0000
,
1000
1000
1000
1000
,
0100
1000
0100
0010
,
0001
0001
0001
0001
,
0010
0001
0100
0000
,
0010
0010
0010
0010
,
1000
0010
1000
0010
,
0100
0100
0100
0100
,
0001
0010
0100
0000
,
0110
0100
0100
0100
,
0010
0100
0010
0000
,
1001
0001
0001
0001
,
1000
0001
1000
0000
,
0110
0100
0100
0000
,
0110
0010
0010
0000
,
1001
0000
0110
0000
,
1001
0000
0000
0000
,
0020
0000
0030
0000
,
1000
0100
0010
0001
,
0020
0000
0030
0000
,
0010
1000
0100
0001
,
0020
0000
0030
0000
,
0001
0100
0010
1000
,
0020
0000
0030
0000
,
0001
0100
1000
0010
,
1001
1000
0000
0100
,
0000
0000
0010
0000
0000
0000
0001
0001
,
0011
0100
0000
1000
,
0000
0000
0001
0000
0000
0000
0010
0010
,
0110
1000
1000
1000
,
1001
0010
0010
0010
,
0101
0100
0100
0100
,
0110
1001
0110
0000
,
1000
0000
0000
0010
0000
0000
0100
0000
,
0000
0010
0000
0000
1000
0000
0000
0000
,
0001
0000
0000
0010
0000
0000
0100
0000
,
0000
0010
0000
0000
0001
0000
0000
0000
,
1000
0000
0000
0100
0000
0000
0010
0000
,
0000
0100
0000
0000
1000
0000
0000
0000
,
0001
0000
0000
0100
0000
0000
0010
0000
,
0000
0100
0000
0000
0001
0000
0000
0000
,
1000
0000
0000
0100
0000
0000
0010
0000
,
0000
0001
0000
0000
0010
0000
0100
0000
,
1000
0000
0000
0010
0000
0000
0100
0000
,
0000
0001
0000
0000
0100
0000
0010
0000
,
1000
0000
0000
0001
0000
0000
0100
0000
,
0000
0001
0000
0000
1000
0000
0000
0000
,
0200
0300
2000
3000
,
0200
0300
0000
0000
,
0020
0000
0000
0030
,
1000
0000
0001
0000
,
0100
0000
0001
0000
,
0020
0000
0000
0030
,
0001
0000
1000
0000
,
0100
0000
1000
0000
,
0020
0000
0030
0010
,
0010
0000
1001
0000
,
0200
0000
0300
0100
,
0100
0000
1001
0000
,
1000
0100
1000
0000
,
0001
0010
0001
0010
,
0100
0010
0001
0010
,
0100
0000
0000
0000
,
0100
0100
0001
0001
,
0100
0100
0010
0010
,
1000
1000
0010
0010
,
0100
0100
0100
0000
,
0001
0001
0010
0010
,
0100
0100
1000
1000
,
0100
0100
0010
0010
,
0001
0000
0001
0000
,
1001
1000
0010
1000
,
0001
0001
0010
0001
,
1000
1000
0100
1000
,
0001
0100
0001
0000
,
0110
0010
1000
0000
,
0110
0010
0001
0000
,
0110
0000
1001
0000
,
0110
0000
0000
0000
,
0002
0023
0230
2300
3100
0000
0010
0000
,
0002
0203
0320
2030
3010
0000
0100
0000
,
0002
0023
0230
2300
3100
0000
0010
0000
,
0002
0203
0320
2030
3010
0000
0000
0000
,
0100
0010
0100
0010
,
0100
0010
1000
0001
,
0100
0001
0100
0001
,
0100
0001
0010
0100
,
1000
0100
1000
0100
,
0010
0001
0010
0001
,
1000
0100
1000
0100
,
1000
0000
0000
0000
,
0022
0000
0033
0000
;

//---------------dance-single - ----------------
#NOTES:
     dance-single:
     :
     Medium:
     12:
     0.431487,0.617143,0.187755,0.204082,0.187755,370.000000,347.000000,23.000000,25.000000,0.000000,0.000000,0.431487,0.617143,0.187755,0.204082,0.187755,370.000000,347.000000,23.000000,25.000000,0.000000,0.000000:
0000
0000
0000
0000
,
0000
0000
0000
0000
,
0000
0000
0000
0000
,
0000
0000
0000
0000
,
0010
1000
0100
0100
,
0010
0001
0100
0100
,
0010
0000
0000
1000
0000
0000
0100
0000
0000
0100
0000
0010
,
0000
0001
1000
0000
,
0010
1000
0001
0001
,
1000
0000
0000
0100
0000
0010
0000
0000
0010
0000
0000
0100
,
1000
0000
0000
1000
0000
0000
0010
0000
0000
0000
0000
0100
,
0001
0000
1000
0000
,
0100
1000
0010
0001
,
0010
1000
0100
0100
,
0010
0000
0000
0001
0000
0000
0100
0000
0000
0001
0000
1000
,
0000
0100
1000
0000
,
0001
0000
0000
0001
0000
0000
0010
0000
0000
0100
0000
1000
,
0100
0000
0000
0000
0000
0001
0100
0000
0000
0000
0000
1000
,
0100
0000
0000
0000
0000
0001
0010
0000
0000
0000
0000
1000
,
0010
0000
0000
0000
,
0020
0000
0000
0000
0000
0000
0000
0000
0000
0000
0000
0000
0000
0000
0000
0000
0000
0000
0030
0000
0000
0000
0000
1000
,
0000
0000
0000
0000
0000
0000
0100
0000
0000
0000
0000
0010
0000
0000
0000
0000
0000
0000
0001
0000
0000
1000
0000
0000
,
0020
0000
0000
0000
0000
0000
0000
0000
0000
0000
0000
0000
0000
0000
0000
0000
0000
0000
0030
0000
0000
0000
0000
0001
,
0000
0000
1000
1000
0100
0100
1000
0001
,
0020
0000
0000
0000
0000
0000
0000
0000
0000
0000
0000
0000
0000
0000
0000
0000
0000
0000
0030
0000
0000
0000
0000
1000
,
0000
0000
0000
0000
0000
0000
0010
0000
0000
0000
0000
0100
0000
0000
0000
0000
0000
0000
0001
0000
0000
1000
0000
0000
,
0020
0000
0000
0000
0000
0000
0000
0000
0000
0000
0000
0000
0000
0000
0000
0000
0000
0000
0030
0000
0000
0000
0000
0010
,
1000
0000
1000
0000
1000
0100
0001
0100
,
1000
1000
0001
0000
0100
0100
0010
0000
,
0001
0001
0100
0000
1000
1000
0100
1100
,
0110
0000
0001
0000
1000
1000
0001
0000
,
0100
0000
0000
0100
0000
0000
1000
0000
0000
0000
0000
0000
0001
0000
0000
0001
0000
0000
1000
0000
0100
0000
0000
0000
,
0110
0000
0000
0010
0000
0000
0010
0000
0000
0010
0001
0000
,
1100
0000
0000
1000
0000
0000
1000
0000
0000
1000
0010
0000
,
0101
0010
1100
0010
,
0101
0000
0000
0000
0000
0000
1100
0000
0000
1000
0000
0100
0000
0000
0000
0000
0000
0000
0000
0000
0000
0000
0000
0000
,
1000
0001
1000
0001
,
1000
0100
0001
0100
,
1000
0000
0000
0001
0000
0000
1000
0000
0000
0001
0000
0010
,
0000
0100
1000
0000
,
0001
0100
0001
0100
,
0100
0000
0000
0010
0000
1000
0000
0000
0100
0000
0000
1000
,
0010
0100
0001
0000
,
0010
0000
0100
0000
,
1000
0001
0010
0001
,
1000
0100
1000
0001
,
0010
0000
0000
0100
0000
0000
1000
0000
0000
0001
0000
0010
,
0000
0000
0010
0001
0000
0000
1000
0000
0000
0010
0000
0000
,
0010
0000
0000
1000
0000
0000
1000
0000
0000
0010
0000
0100
,
0010
0000
0000
0000
0000
0010
0100
0000
0000
0000
0000
0100
,
0001
0000
0000
0000
0000
0001
1000
0000
0000
0000
0000
1000
,
0100
0000
0000
0000
,
0020
0000
0000
0000
0000
0000
0000
0000
0000
0000
0000
0000
0000
0000
0000
0000
0000
0000
0030
0000
0000
0000
0000
1000
,
0000
1000
0100
0010
,
0001
0010
0100
1000
,
0020
0000
0000
0000
0000
0000
0000
0000
0000
0000
0000
0000
0000
0000
0000
0000
0000
0000
0030
0000
0000
0000
0000
0100
,
0000
0100
0001
0010
,
1000
0010
0001
0100
,
0210
0010
0310
1000
,
0001
1000
1001
0000
,
0120
0100
0130
0001
,
0010
0100
1100
0000
,
1000
0001
0101
0000
,
1010
0000
0101
0000
,
1010
0000
0000
1000
0000
0000
0010
0000
0000
0010
0000
0100
,
0001
0000
0000
0000
,
0001
0100
1000
0100
,
0001
0100
1000
0100
,
0001
0010
1000
0010
,
0001
1000
0001
0000
,
1000
0010
0001
0010
,
1000
0100
0001
0100
,
1000
0010
0001
0010
,
1000
0000
0000
0000
0000
0001
1000
0000
0000
0000
0000
0000
,
0010
1000
0100
1000
,
0010
0100
0001
0010
,
0001
0100
0010
1000
,
0100
0000
0000
1000
0000
0010
0000
0000
0000
0000
0000
0010
,
0100
0001
1000
0100
,
1000
0000
0000
0000
0000
0001
0010
0000
0000
0000
0000
0100
,
1000
0000
0000
0000
0000
0010
1000
0000
0000
0000
0000
0001
,
0100
0000
0000
0000
,
2000
3200
0302
0203
1300
0000
0001
0000
,
2000
3020
0032
0023
1030
0000
0100
0000
,
0020
0032
0203
0302
0013
0000
0100
0000
,
2000
3020
0230
0302
1003
0000
0000
0000
,
1001
0010
0010
0010
,
0010
0000
0000
0010
0000
0000
1000
0000
0001
1000
0000
0000
,
1010
0100
0100
0100
,
0100
0000
0000
0100
0000
0000
0001
0000
0010
0001
0000
0000
,
0011
0000
0000
0000
0000
0000
1000
0000
0100
1000
0000
0000
,
1100
0000
0000
0000
0000
0000
0010
0000
0100
0001
0000
0000
,
1001
0010
1001
0100
,
1001
0000
0000
0000
,
0200
0000
0300
0000
;

//---------------dance-single - ----------------
#NOTES:
     dance-single:
     :
     Hard:
     18:
     0.703207,1.080000,0.514286,0.489796,0.718367,603.000000,540.000000,63.000000,60.000000,0.000000,0.000000,0.703207,1.080000,0.514286,0.489796,0.718367,603.000000,540.000000,63.000000,60.000000,0.000000,0.000000:
0000
0000
0000
0000
,
0000
0000
0000
0000
,
0000
0000
0000
0000
,
0000
0000
0000
0000
,
1001
1000
0001
1000
,
0010
0000
0000
0100
0000
0000
0010
0000
0000
0001
0000
1000
,
0001
0000
0000
0010
0000
0000
0100
0000
0000
0001
0000
1000
,
0000
0000
1000
0100
0000
1000
0100
0000
0010
0001
0000
0010
,
0001
0100
1000
0100
,
0001
0000
0000
0010
0000
0110
0000
0000
1100
0000
0000
0101
,
0001
0000
0000
0001
0000
0000
0001
0100
0010
1000
0000
0000
,
1000
0100
0010
0001
0000
0000
0100
0000
0001
1000
0000
0000
,
1001
0000
0000
0010
0000
0100
0010
0000
0000
1000
0000
0100
,
1000
0001
0100
0100
,
1001
0000
0000
0010
1000
0010
1000
0000
0000
0001
0000
0001
,
0010
0000
0000
1000
0000
1000
0010
0000
0000
0000
0000
0000
,
1010
0000
0000
0100
0000
0000
0001
0000
0001
0100
0000
0100
,
0001
0000
0000
1000
0000
1000
0100
0000
0100
0010
0000
0010
,
0001
0000
0000
1000
0000
0010
1000
0000
0000
0001
0000
0100
,
0010
0000
0100
0001
0000
1000
0001
0000
1000
0010
0000
1000
,
0020
0000
0000
0000
0000
0000
0000
0000
0000
0000
0000
0000
0000
0000
0000
1000
0000
0000
1030
0000
1000
0000
0000
0001
,
0000
0000
0010
0001
0000
0000
0100
0000
0001
0010
0000
0100
0000
0000
0010
0001
0000
0000
0100
0000
0000
0010
0000
0000
,
1020
0000
0000
0000
0000
0000
0000
0000
0000
0000
0000
0000
0000
0000
0000
0100
0000
0000
0130
0000
0010
0000
0000
1000
,
0000
0000
0100
1000
0000
0000
0001
0000
0001
1000
0000
1000
0100
0000
0000
0100
0000
0000
0010
0000
0000
0100
0000
0000
,
0021
0000
0000
0000
0000
0000
0000
0000
0000
0000
0000
0000
0000
0000
0000
0000
0000
0000
0030
0000
0000
0000
0000
0001
,
0000
0000
0001
0010
0000
0000
0010
0000
0010
0100
0000
1000
0000
0000
1000
0100
0000
0000
0010
0000
0000
0001
0000
0000
,
2001
0000
0000
0000
0000
0000
0000
0000
0000
0000
0000
0000
0000
0000
0000
0010
0000
0000
3010
0000
0010
0000
0000
0100
,
0001
0000
0000
0100
0000
0000
0010
0000
0000
0100
0000
0000
0001
0000
0000
1000
0000
0000
0100
0000
1000
0010
0000
0000
,
0101
0000
0000
0100
0000
0000
1000
0000
0000
0000
0000
0100
0001
0000
0000
1000
0000
0000
0100
0000
0000
0000
0000
0001
,
0100
0000
0000
1000
0000
0000
0010
0000
0000
0000
0000
0100
0001
0000
0000
1000
0000
0000
0010
0000
0000
0101
0000
0000
,
1100
0000
0000
1000
0000
0000
0001
0000
0000
0000
0000
0100
0001
0000
0000
1000
0000
0000
0100
0000
0000
0000
0000
0010
,
0001
0000
0000
1000
0000
0000
0010
0000
0000
0000
0000
1000
0010
0000
0000
0010
0000
0000
1000
0000
1010
0000
0000
0000
,
0011
0000
0000
0001
0000
0000
1000
0000
0000
0100
0000
0000
1000
0000
0000
0010
0000
0000
0100
0000
0110
0000
0000
0000
,
0101
0000
0000
0001
0000
0000
0010
0000
0000
1000
0000
0000
0010
0000
0000
0001
0000
0000
0100
0000
0101
0000
0000
0000
,
1010
0000
0000
0010
1000
0010
1000
0000
0000
0001
0010
0100
1000
0000
0000
1000
0100
0010
0100
0000
0000
0010
0000
0000
,
1001
0000
0000
0100
0000
0000
1001
0000
0000
0100
0000
1001
0000
0000
0000
0000
0000
0000
0000
0000
0000
1000
0000
0000
,
0011
0000
0000
1000
0000
0100
1000
0000
0000
0001
0000
0010
,
0001
0000
0000
0010
0000
0100
1000
0000
0100
0010
0000
0100
,
1000
0000
0000
0001
0000
0100
0001
0000
0000
0001
0000
1000
,
0000
0000
0010
0100
0000
0001
0010
0000
0001
0100
0000
0010
,
1000
0000
0000
0100
0000
0010
0001
0000
0000
0010
0000
0100
,
1000
0000
0000
0001
0000
1000
0001
0000
0010
0001
0000
0010
,
0001
0000
0000
1000
0000
0000
1010
0000
0000
0000
0000
0100
,
0000
0000
0001
1000
0000
0000
0100
0000
0000
0000
0000
0000
,
0110
0000
0000
0110
0000
0000
1000
0000
0000
0100
0000
1000
,
0001
0000
1000
0100
0000
0000
0100
0000
0000
1000
0000
0000
,
0001
0000
0100
0001
0000
0000
0010
0000
0100
0010
0000
0100
,
0000
0000
0010
0001
0000
1000
0010
0000
0000
0010
0000
0000
,
0101
0000
0000
1000
0000
0100
1000
0000
0000
0010
0000
0110
,
0000
0000
0000
0010
0000
1000
0010
0000
0000
0000
0000
0100
,
0010
0000
0000
0000
0000
0100
0001
0000
0000
0000
0000
1000
,
0002
0010
0010
0103
,
0020
0000
0000
0000
0000
0000
0000
0000
0000
0000
0000
0000
0000
0000
0000
0000
0000
0000
0030
0000
0000
0000
0000
1000
,
0000
0000
1000
0100
0000
0000
0010
0000
0100
1000
0000
0000
,
0010
0000
0100
1000
0000
0000
0100
0000
0010
1000
0000
0000
,
0002
0000
0000
0000
0000
0000
0000
0000
0000
0000
0000
0000
0000
0000
0000
0000
0000
0000
0003
0000
0000
0000
0000
0001
,
0000
0000
0100
0010
0000
0000
0001
0000
0010
0100
0000
0000
,
0001
0000
0010
0100
0000
0000
0010
0000
0001
0100
0000
0010
,
1000
0000
0000
1000
0000
0010
1000
0000
0000
0100
0000
0000
,
1000
0000
0000
0000
0000
0000
0001
0000
0000
0000
0000
0000
0202
0303
0000
0000
0000
0000
2200
3300
0000
0000
0000
0000
,
1001
0000
0000
0100
0010
0100
0010
0000
0000
0001
0000
0000
,
1000
0000
0000
0000
0000
0000
0100
0000
0000
0000
0000
0000
0022
0033
0000
0000
0000
0000
2020
3030
0000
0000
0000
0000
,
1001
0000
0000
0000
0000
0000
0100
0000
0000
0000
0000
0000
2200
3300
0000
0000
0000
0000
0001
0000
0000
0000
0100
0000
,
0001
0000
0000
0000
0000
0000
0022
0033
0000
0000
0000
0000
0100
0000
0000
0000
0000
0000
2020
3030
0000
0000
0000
0000
,
1020
0000
0000
0130
0000
0000
0210
0000
0000
0301
0000
1000
,
0000
0000
0100
1000
0000
0001
0100
0000
0000
0100
0000
0000
,
0001
0000
0100
1000
0000
0100
0001
0000
0100
1000
0000
0100
,
0001
0000
0010
1000
0000
0010
0001
0000
0010
1000
0000
0010
,
0001
0000
1000
0001
0000
0100
0001
0000
1000
0001
0000
1000
,
0100
0000
0000
1000
0000
0020
0000
0000
0000
0030
0000
0000
,
1000
0000
0010
0100
0000
0010
1000
0000
0010
0100
0000
0001
,
0010
0000
0001
0100
0000
0001
0000
0000
0011
0000
0000
0010
,
0100
0000
0000
1000
0000
0100
0010
0000
0001
1000
0000
0100
,
0020
0000
0000
0230
0000
2300
0000
0000
0000
3100
0000
0000
,
1100
0000
1000
0010
0000
1000
0001
0000
1000
0010
0000
1000
,
0001
0000
0001
0010
0000
0001
1000
0000
0001
0010
0000
0001
,
1000
0000
1000
0010
0000
1000
0001
0000
1000
0010
0000
0010
,
0100
0000
0000
0100
0000
0020
0000
0000
0000
0030
0000
0000
,
0100
0000
0001
1000
0000
1000
0100
0000
1000
0001
0000
0001
,
0100
0000
0001
0010
0000
0010
0001
0000
1000
0010
0000
0010
,
1000
0000
0010
0100
0000
0001
0010
0000
0100
1000
0000
0010
,
0001
0000
1000
0010
0000
0100
0010
0000
0100
0001
0000
0000
,
0022
0033
0220
0330
2020
3030
0220
0330
0001
0000
0000
0000
0100
0000
0000
0000
,
2020
3030
0220
0330
0022
0033
0020
0030
1000
0000
0000
0000
0100
0000
0000
0000
,
2200
3300
0220
0330
0202
0303
0220
0330
0100
0000
0000
0000
0010
0000
0000
0000
,
0202
0303
0220
0330
2020
3030
0200
0300
0001
0000
0000
0000
0000
0000
0000
0000
,
0101
0010
0010
0010
,
0010
0000
0000
0010
0000
0000
0010
0000
0100
0001
0000
0000
,
1100
1000
1000
1000
,
1000
0000
0000
1000
0000
0000
1000
0000
0001
0010
0000
0000
,
1001
0000
0000
1000
0010
1000
0010
0000
0000
0100
0000
0000
,
0110
0000
0000
0100
0001
0100
0001
0000
0000
1000
0000
0000
,
1010
0001
0101
0010
,
1100
0000
0000
0010
0000
0100
1000
0000
0100
0010
0000
0000
,
0202
0000
0303
0000
;
