#VERSION:0.83;
#TITLE:Highscore;
#SUBTITLE:;
#ARTIST:Teminite & Panda Eyes;
#TITLETRANSLIT:;
#SUBTITLETRANSLIT:;
#ARTISTTRANSLIT:;
#GENRE:;
#ORIGIN:;
#CREDIT:;
#BANNER:;
#BACKGROUND:;
#PREVIEWVID:;
#JACKET:;
#CDIMAGE:;
#DISCIMAGE:;
#LYRICSPATH:;
#CDTITLE:;
#MUSIC:highscore.ogg;
#OFFSET:0.025000;
#SAMPLESTART:17.430000;
#SAMPLELENGTH:12.000000;
#SELECTABLE:YES;
#BPMS:0.000=13.750,
4.000=110.000;
#STOPS:;
#DELAYS:;
#WARPS:;
#TIMESIGNATURES:0.000=4=4;
#TICKCOUNTS:0.000=4;
#COMBOS:0.000=1;
#SPEEDS:0.000=1.000=0.000=0;
#SCROLLS:0.000=1.000,
2.000=0.980,
2.125=0.975,
2.250=0.965,
2.375=0.950,
2.500=0.935,
2.625=0.915,
2.750=0.885,
2.875=0.840,
3.000=0.790,
3.125=0.730,
3.250=0.660,
3.375=0.590,
3.500=0.515,
3.625=0.420,
3.750=0.310,
3.875=0.250,
4.000=1.000,
34.333=0.375,
34.667=0.500,
35.000=0.625,
35.333=0.750,
35.667=0.875,
36.000=1.000,
166.000=0.250,
166.333=0.375,
166.667=0.500,
167.000=0.625,
167.333=0.750,
167.667=0.875,
168.000=1.000;
#FAKES:;
#LABELS:0.000=Song Start;
#BGCHANGES:;
#KEYSOUNDS:;
#ATTACKS:
;

//---------------dance-single - ----------------
#NOTEDATA:;
#CHARTNAME:;
#STEPSTYPE:dance-single;
#DESCRIPTION:;
#CHARTSTYLE:;
#DIFFICULTY:Beginner;
#METER:1;
#RADARVALUES:0.086355,0.145076,0.025907,0.043178,0.000000,70.000000,67.000000,3.000000,5.000000,0.000000,0.000000,0.000000,0.000000,0.000000,0.086355,0.145076,0.025907,0.043178,0.000000,70.000000,67.000000,3.000000,5.000000,0.000000,0.000000,0.000000,0.000000,0.000000;
#CREDIT:;
#NOTES:
0000
0000
0000
0000
,
0100
0000
0000
0000
,
0100
0000
0000
0000
,
0010
0000
0000
0000
,
0010
0000
0000
0000
,
1000
0000
0000
0000
,
0001
0000
0000
0000
,
1000
0000
0000
0000
,
0001
0000
0000
0000
,
0100
0000
0100
0000
,
0010
0000
0010
0000
,
1000
0000
1000
0000
,
0002
0003
0001
0000
,
0100
0000
0100
0000
,
0010
0000
0010
0000
,
1000
0000
1000
0000
,
0002
0003
0001
0000
,
1001
0000
0000
0000
,
0100
0000
0000
0000
,
0010
0000
0000
0000
,
2000
3000
1000
0000
,
1001
0000
0000
0000
,
0100
0000
0000
0000
,
0010
0000
0000
0000
,
0020
0000
0000
0000
,
0200
0000
0330
0000
,
0010
0000
0000
0000
,
0100
0000
0000
0000
,
0001
0000
0000
0000
,
1000
0000
0000
0000
,
0010
0000
0000
0000
,
0100
0000
0000
0000
,
0001
0000
0000
0000
,
1000
0000
0000
0000
,
0010
0010
0010
0000
,
0100
0100
0100
0000
,
0001
0001
0001
0000
,
1000
1000
1000
0000
,
0010
0010
0010
0000
,
0100
0100
0100
0000
,
0001
0001
0001
0000
,
1000
1000
1000
0000
,
1001
0000
0000
0000
;

//---------------dance-single - ----------------
#NOTEDATA:;
#CHARTNAME:;
#STEPSTYPE:dance-single;
#DESCRIPTION:;
#CHARTSTYLE:;
#DIFFICULTY:Easy;
#METER:3;
#RADARVALUES:0.136934,0.163211,0.138168,0.069084,0.000000,111.000000,95.000000,16.000000,8.000000,0.000000,0.000000,0.000000,0.000000,0.000000,0.136934,0.163211,0.138168,0.069084,0.000000,111.000000,95.000000,16.000000,8.000000,0.000000,0.000000,0.000000,0.000000,0.000000;
#CREDIT:;
#NOTES:
0000
0000
0000
0000
,
1001
0000
0100
0000
,
0010
0000
0100
0000
,
0001
0000
0100
0000
,
0010
0000
1000
0000
,
1001
0000
0100
0000
,
0010
0000
0100
0000
,
1000
0000
0100
0000
,
0010
0000
0001
0000
,
1000
1000
1000
0000
,
0001
0001
0001
0000
,
0100
0100
0100
0000
,
0020
0130
0100
0000
,
0001
0001
0001
0000
,
1000
1000
1000
0000
,
0010
0010
0010
0000
,
0200
0310
0010
0000
,
1000
1001
0000
0000
,
1000
1001
0000
0000
,
0001
1001
0000
0000
,
0200
0310
0010
0100
,
0010
0110
0000
0000
,
0010
0110
0000
0000
,
0100
0110
0000
0000
,
0002
0000
2003
0000
,
3002
0000
1003
0000
,
1001
0000
0000
1000
,
1001
0000
0000
0001
,
1001
0000
0000
1000
,
1001
0000
0020
0130
,
0110
0000
0000
0010
,
0110
0000
0000
0100
,
0110
0000
0000
0010
,
0110
0000
2000
3001
,
0001
0000
0010
0000
,
0100
0000
1000
0000
,
0001
0000
1000
0000
,
0100
0000
0010
0000
,
0001
0000
1000
0000
,
0010
0000
0100
0000
,
0001
0000
0100
0000
,
0010
0000
1000
0000
,
1000
0000
0000
0000
;

//---------------dance-single - What a Twist!----------------
#NOTEDATA:;
#CHARTNAME:;
#STEPSTYPE:dance-single;
#DESCRIPTION:What a Twist!;
#CHARTSTYLE:;
#DIFFICULTY:Edit;
#METER:16;
#RADARVALUES:0.636560,0.544037,0.466317,0.759924,0.807420,516.000000,462.000000,54.000000,88.000000,0.000000,0.000000,0.000000,0.000000,0.000000,0.636560,0.544037,0.466317,0.759924,0.807420,516.000000,462.000000,54.000000,88.000000,0.000000,0.000000,0.000000,0.000000,0.000000;
#CREDIT:;
#NOTES:
0000
0000
0000
0000
,
0201
0000
0000
0000
1300
0010
0001
0010
1000
0100
1000
0100
0001
0100
0001
0100
,
2200
0000
0000
3300
1000
0100
0001
0100
0010
0001
0010
0001
0100
1000
0100
1000
,
2200
0000
0000
3300
1000
0100
0001
0010
0100
0001
0100
0001
1000
0010
1000
0010
,
0022
0000
0000
0033
0001
0010
0100
1000
0100
0001
0100
0001
1000
0010
1000
0010
,
0220
0000
0000
0330
0100
1000
0001
0100
1000
0001
1000
0001
0010
1000
0010
1000
,
0202
0000
0000
0303
0100
1000
0001
0010
1000
0100
1000
0100
0010
0001
0010
0001
,
2002
0000
0000
3003
1000
0100
0010
1000
0001
1000
0001
1000
0010
0001
0010
0001
,
0022
0000
0000
0033
1000
0100
0010
0002
0000
0103
0010
1000
0001
0100
0010
1000
,
1100
0000
0000
0000
1000
0100
0001
1000
0001
0100
1000
0001
1000
0100
0010
0001
,
0011
0000
0000
0000
0001
0010
1000
0001
1000
0010
0001
1000
0100
0010
0001
1000
,
1010
0000
0000
0000
1000
0010
0001
1000
0001
0010
1000
0001
1000
0100
0010
0001
,
0201
0000
2300
0000
3020
2030
3200
0301
,
1010
0000
0000
0000
0001
0100
1000
0001
1000
0100
0001
1000
0001
0100
0010
1000
,
1100
0000
0000
0000
0100
1000
0010
0001
0010
1000
0100
0010
1000
0001
0100
0010
,
0011
0000
0000
0000
0010
0001
1000
0100
0001
1000
0010
0001
1000
0100
0010
0001
,
2001
0000
0000
0000
3020
0000
0000
0000
0032
0000
0203
0000
0320
0000
1030
0100
,
0001
0000
1000
0100
0002
0000
1003
0020
0000
0031
2000
0000
3100
2000
0000
3010
,
1010
0000
1000
0100
0002
0000
0103
0020
0000
1030
0020
0000
0130
2000
0000
3001
,
0101
0000
0001
0100
2000
0000
3001
0020
0000
0130
2000
0000
3100
0020
0000
1030
,
1200
0000
1300
0000
0021
2030
3200
1300
,
0110
0000
0100
1000
0020
0000
0031
2000
0000
3100
0020
0000
1030
0002
0000
0103
,
0110
0000
0100
0001
0020
0000
1030
0200
0000
1300
0002
0000
0103
2000
3001
0010
,
0110
0000
1000
0100
0020
0000
1030
0020
0000
0130
2000
0000
3010
2000
3100
0010
,
0200
0000
0000
0000
0020
0000
0000
0030
0020
0000
0000
0030
0020
0000
0000
0030
,
0320
0100
0001
0100
1000
0100
0031
1000
,
1001
0000
1000
0010
0001
1000
0100
0001
0020
0000
0000
0030
0011
0000
0110
0000
,
1100
0000
0001
0010
1000
0001
0100
1000
0002
0000
0000
0003
1010
0000
0110
0000
,
0101
0000
1000
0100
0001
1000
0010
0001
0200
0000
0000
0300
0110
0000
1001
0000
,
0110
0000
0001
0100
1000
0001
0010
1000
2200
0000
0000
3000
0010
0000
0000
0300
,
0011
0000
0010
0001
0100
1000
0001
0010
0200
0000
0000
0300
0101
0000
0011
0000
,
1010
0000
0010
0001
1000
0100
0001
1000
0200
0000
0000
0300
0101
0000
1100
0000
,
1010
0000
0010
1000
0001
0100
1000
0001
2000
0000
0000
3000
1100
0000
0101
0000
,
0011
0000
0001
0010
1000
0001
0010
0001
0202
0000
0000
0303
2200
0000
0000
3300
,
2002
0000
0000
3003
0001
0010
0100
1000
0010
0001
0010
0001
1000
0100
1000
0100
,
0202
0000
0000
0303
1000
0010
0100
0001
0010
1000
0010
1000
0001
0100
0001
0100
,
2200
0000
0000
3300
0100
0010
0001
0100
1000
0100
1000
0100
0010
1000
0010
1000
,
2002
0000
0000
3003
0100
0010
1000
0100
0001
1000
0001
1000
0010
0100
0010
0100
,
2002
0000
0000
3003
1000
0100
0010
1000
0001
1000
0001
1000
0010
0001
0010
0001
,
0202
0000
0000
0303
0001
0100
0010
0001
1000
0001
1000
0001
0010
1000
0010
1000
,
2200
0000
0000
3300
0001
1000
0100
0010
1000
0100
1000
0100
1000
0010
1000
0010
,
0022
0000
0000
0033
0001
0100
0010
0002
0000
0103
0001
0100
0010
1000
0001
0010
,
0100
0000
0000
0000
;

//---------------dance-single - ----------------
#NOTEDATA:;
#CHARTNAME:;
#STEPSTYPE:dance-single;
#DESCRIPTION:;
#CHARTSTYLE:;
#DIFFICULTY:Challenge;
#METER:12;
#RADARVALUES:0.482355,0.435229,0.535401,0.569943,0.354056,391.000000,329.000000,62.000000,66.000000,0.000000,0.000000,0.000000,0.000000,0.000000,0.482355,0.435229,0.535401,0.569943,0.354056,391.000000,329.000000,62.000000,66.000000,0.000000,0.000000,0.000000,0.000000,0.000000;
#CREDIT:;
#NOTES:
0000
0000
0000
0000
,
2002
0000
3003
0000
0001
0010
0100
0000
1000
0100
1000
0000
0100
1000
0100
0000
,
2002
0000
3003
0000
1000
0010
0100
0000
0001
0100
0001
0000
0100
0001
0100
0000
,
0220
0000
0330
0000
0010
1000
0100
0000
0010
0100
0010
0000
0100
0010
0100
0000
,
0220
0000
0330
0000
0010
0001
0100
0000
0010
0100
0010
0000
0100
0010
0100
0000
,
2020
0000
3030
0000
1000
0100
0010
0000
0001
0010
0001
0000
0010
0001
0010
0000
,
0022
0000
0033
0000
0001
0100
0010
0000
1000
0010
1000
0000
0010
1000
0010
0000
,
0220
0000
0330
0000
1000
0100
0010
0000
0001
1000
0001
0000
1000
0001
1000
0000
,
2002
0000
3003
0000
0010
0100
0001
0010
0000
0000
0000
0000
0000
0000
0000
0000
,
0100
0000
1200
0310
0201
0310
0100
0010
,
1001
0000
0021
0130
1020
0130
0010
0010
,
1100
0000
0012
0103
0120
1030
0001
0001
,
0021
0000
0130
0000
1200
0010
1000
0320
,
0031
0000
2100
3001
0012
1003
0001
1000
,
0110
0000
0102
1003
2010
3001
1000
0001
,
0110
0000
1020
0130
0210
0301
0010
0100
,
2100
0000
3010
0000
0102
1000
0010
1003
,
0001
0000
0000
0001
1000
0000
0100
1000
0000
0010
0100
0000
0001
0010
0000
0100
,
1000
0000
0000
1000
0001
0000
0010
0100
0000
1000
0001
0000
0010
0100
0000
1000
,
0001
0000
0000
0001
0100
0000
0010
0100
0000
0010
1000
0000
0010
0100
0000
0000
,
0201
0000
0000
0000
0310
0000
0000
0000
1020
0000
0100
0000
0001
0000
0100
0030
,
1000
0000
0000
1000
0100
0000
0010
0001
0000
1000
0010
0000
0100
0001
0000
1000
,
0001
0000
0000
0001
0100
0000
0001
0010
0000
0100
0010
0000
0001
0100
0000
0010
,
1000
0000
0000
1000
0010
0000
1000
0010
0000
0100
0010
0000
1000
0100
0010
0001
,
2000
3002
2003
3002
,
2003
3200
0320
0032
2003
3002
0203
0320
,
1030
0000
1010
0000
0000
0110
0000
0000
0101
0000
0000
0000
1000
0000
1000
0000
,
1000
0000
0011
0000
0000
0110
0000
0000
1100
0000
0000
0000
0001
0000
0001
0000
,
0001
0000
1010
0000
0000
0110
0000
0000
0011
0000
0000
0000
0010
0000
0010
0000
,
0010
0000
0101
0000
0000
0110
0000
0000
2100
0000
0000
0000
3001
0000
0000
0000
,
0001
0000
1100
0000
0000
1001
0000
0000
0101
0000
0000
0000
0100
0000
0100
0000
,
0100
0000
0011
0000
0000
1001
0000
0000
1010
0000
0000
0000
0001
0000
0001
0000
,
0001
0000
1100
0000
0000
1001
0000
0000
1010
0000
0000
0000
1000
0000
1000
0000
,
1000
0000
0011
0000
0000
1001
0000
0000
0201
0000
0000
0000
0310
0000
0000
0000
,
2020
0000
3030
0000
0001
0010
0100
0000
0010
0001
0100
0000
0001
0010
0100
0000
,
2200
0000
3300
0000
1000
0010
0100
0000
0010
1000
0100
0000
1000
0010
0100
0000
,
0202
0000
0303
0000
1000
0001
0010
0000
0001
1000
0010
0000
1000
0001
1000
0000
,
2200
0000
3300
0000
1000
0001
0100
0000
0001
1000
0100
0000
1000
0001
0010
0000
,
0220
0000
0330
0000
0100
1000
0010
0000
0100
0010
0100
0000
0010
0100
0010
0000
,
0220
0000
0330
0000
0100
0001
0010
0000
0100
0010
0100
0000
0010
0100
0010
0000
,
2002
0000
3003
0000
1000
0100
0001
0000
0100
1000
0001
0000
0100
0001
1000
0000
,
2002
0000
3003
0000
0001
0100
0010
0000
2000
0000
0000
0000
0000
0000
0000
0000
,
3001
0000
0000
0000
;

//---------------dance-single - ----------------
#NOTEDATA:;
#CHARTNAME:;
#STEPSTYPE:dance-single;
#DESCRIPTION:;
#CHARTSTYLE:;
#DIFFICULTY:Medium;
#METER:6;
#RADARVALUES:0.222056,0.217615,0.155439,0.077720,0.086355,180.000000,162.000000,18.000000,9.000000,0.000000,0.000000,0.000000,0.000000,0.000000,0.222056,0.217615,0.155439,0.077720,0.086355,180.000000,162.000000,18.000000,9.000000,0.000000,0.000000,0.000000,0.000000,0.000000;
#CREDIT:;
#NOTES:
0000
0000
0000
0000
,
1001
0010
0100
0100
,
1001
0010
0100
0100
,
1001
0010
0100
0100
,
0110
1000
0001
0001
,
1001
0100
0010
0010
,
1001
0001
1000
1000
,
1001
0100
0010
0010
,
0220
0000
0330
0000
,
0100
1000
0100
1000
,
0001
0010
0001
0010
,
0001
0100
0001
0100
,
0020
2030
3001
0010
,
0100
0010
0100
0010
,
0001
1000
0001
1000
,
0010
0100
0010
0100
,
0110
0000
0002
1003
,
0100
0000
0000
0000
1000
0000
0000
1000
0000
0000
1000
0000
0000
1000
0000
0000
,
0010
0000
0000
0000
0100
0000
0000
0001
0000
0000
0001
0000
0000
0001
0000
0000
,
1000
0000
0000
0000
0100
0000
0000
0100
0000
0000
0100
0000
0000
0100
0000
0000
,
0020
0130
2000
3100
,
0010
0000
0000
0000
0001
0000
0000
0001
0000
0000
0001
0000
0000
0001
0000
0000
,
1000
0000
0000
0000
0010
0000
0000
0100
0000
0000
0100
0000
0000
0100
0000
0000
,
0001
0000
0000
0000
1000
0000
0000
1000
0000
0000
1000
0000
0000
1000
0000
0000
,
1001
0000
0000
0000
,
0100
0000
0000
0000
,
1000
0000
0010
0000
0000
0100
0000
0000
0001
0000
0000
0000
0000
0000
0000
0000
,
0001
0000
0010
0000
0000
0100
0000
0000
1000
0000
0000
0000
0000
0000
0000
0000
,
0001
0000
0100
0000
0000
0010
0000
0000
0010
0000
0000
0000
0000
0000
0000
0000
,
1000
0000
0100
0000
0000
0010
0000
0000
0020
0000
0000
0000
0130
0000
0000
0000
,
0100
0000
1000
0000
0000
0010
0000
0000
0100
0000
0000
0000
0000
0000
0000
0000
,
0100
0000
0001
0000
0000
0010
0000
0000
0100
0000
0000
0000
0000
0000
0000
0000
,
1000
0000
0100
0000
0000
0010
0000
0000
0001
0000
0000
0000
0000
0000
0000
0000
,
0001
0000
0100
0000
0000
0010
0000
0000
2000
0000
0000
0000
3001
0000
0000
0000
,
1001
0010
1000
0010
,
1001
0100
0001
0100
,
1001
0010
1000
0010
,
0110
0100
0010
0100
,
1001
1000
0100
0010
,
1001
0001
0100
0010
,
1001
1000
0001
0001
,
0110
0010
0010
0000
,
0100
0000
0000
0000
;

//---------------dance-single - ----------------
#NOTEDATA:;
#CHARTNAME:;
#STEPSTYPE:dance-single;
#DESCRIPTION:;
#CHARTSTYLE:;
#DIFFICULTY:Hard;
#METER:8;
#RADARVALUES:0.320747,0.290153,0.215888,0.138168,0.082037,260.000000,235.000000,25.000000,16.000000,0.000000,0.000000,0.000000,0.000000,0.000000,0.320747,0.290153,0.215888,0.138168,0.082037,260.000000,235.000000,25.000000,16.000000,0.000000,0.000000,0.000000,0.000000,0.000000;
#CREDIT:;
#NOTES:
// measure 0
0000
0000
0000
0000
,  // measure 1
1100
0000
0001
0010
0100
0100
0100
0000
,  // measure 2
1010
0000
0001
0100
0010
0010
0010
0000
,  // measure 3
0011
0000
1000
0100
0010
0010
0010
0000
,  // measure 4
0101
0000
1000
0010
0100
0100
0100
0000
,  // measure 5
1001
0000
0100
0001
1000
1000
1000
0000
,  // measure 6
1001
0000
0100
1000
0001
0001
0001
0000
,  // measure 7
0110
0000
0100
0001
0010
0010
0010
0000
,  // measure 8
0110
0000
0100
1000
0000
0000
0000
0000
,  // measure 9
0200
0000
0301
0001
1000
0001
1000
0001
,  // measure 10
2000
0000
3010
0010
0100
0010
0100
0010
,  // measure 11
2000
0000
3100
0100
1000
0100
0001
0100
,  // measure 12
2000
3001
0210
1300
,  // measure 13
1000
0000
0001
0001
0010
0001
0010
0001
,  // measure 14
0200
0000
0310
0010
1000
0010
1000
1000
,  // measure 15
0200
0000
0310
0010
0001
0100
0001
0010
,  // measure 16
0200
1000
0310
0001
,  // measure 17
1001
0000
0000
0000
0001
0000
0000
0010
0000
0000
1000
0000
0000
0010
0000
0000
,  // measure 18
0001
0000
0000
0000
1000
0000
0000
0010
0000
0000
0001
0000
0000
0010
0000
0000
,  // measure 19
1000
0000
0000
0000
0100
0000
0000
0001
0000
0000
0100
0000
0000
1000
0000
0000
,  // measure 20
0020
0000
0130
0000
0002
0010
0010
0000
,  // measure 21
1003
0000
0000
0000
0010
0000
0000
0100
0000
0000
1000
0000
0000
0100
0000
0000
,  // measure 22
0010
0000
0000
0000
1000
0000
0000
0100
0000
0000
0010
0000
0000
0001
0000
0000
,  // measure 23
0010
0000
0000
0000
0100
0000
0000
0010
0000
0000
0100
0000
0100
0000
0010
0000
,  // measure 24
0002
2003
3002
2003
,  // measure 25
3001
0001
1000
1000
0001
0001
1000
1000
,  // measure 26
0100
0000
1000
0000
0000
0010
0000
0000
0100
0000
0000
0000
0001
0000
0010
0000
,  // measure 27
0011
0000
0001
0000
0000
0100
0000
0000
0010
0000
0000
0000
1000
0000
0100
0000
,  // measure 28
1100
0000
1000
0000
0000
0001
0000
0000
1000
0000
0000
0000
0001
0000
0100
0000
,  // measure 29
0101
0000
0001
0000
0000
1000
0000
0000
0002
0000
0000
0000
1003
0000
0000
0000
,  // measure 30
1010
0000
1000
0000
0000
0100
0000
0000
0001
0000
0000
0000
0100
0000
1000
0000
,  // measure 31
1100
0000
1000
0000
0000
0010
0000
0000
0001
0000
0000
0000
0010
0000
1000
0000
,  // measure 32
1001
0000
0001
0000
0000
0100
0000
0000
1000
0000
0000
0000
0100
0000
0001
0000
,  // measure 33
1001
0000
1000
0000
0000
0100
0000
0000
0020
0000
0000
0000
0031
0000
0000
0000
,  // measure 34
1100
0000
0001
0010
0100
0100
0100
0000
,  // measure 35
0101
0000
1000
0010
0100
0100
0100
0000
,  // measure 36
0011
0000
1000
0100
0010
0010
0010
0000
,  // measure 37
1010
0000
0001
0100
0010
0010
0010
0000
,  // measure 38
1001
0000
0010
1000
0001
0001
0001
0000
,  // measure 39
1001
0000
0010
0001
1000
1000
1000
0000
,  // measure 40
0110
0000
0001
0100
1000
0100
0001
0000
,  // measure 41
0110
0000
1000
0010
0000
0000
0000
0000
,  // measure 42
0100
0000
0000
0000
;
