#TITLE:Heads Will Roll;
#SUBTITLE:(JVC-H Remix);
#ARTIST:Yeah Yeah Yeahs;
#TITLETRANSLIT:;
#SUBTITLETRANSLIT:;
#ARTISTTRANSLIT:;
#GENRE:;
#CREDIT:;
#BANNER:Heads Will Roll (JVC-H Remix).png;
#BACKGROUND:;
#LYRICSPATH:;
#CDTITLE:;
#MUSIC:Heads Will Roll (JVC-H Remix).ogg;
#OFFSET:0.130000;
#SAMPLESTART:0.360000;
#SAMPLELENGTH:12.000000;
#SELECTABLE:YES;
#BPMS:0.000000=155.000000
,31.000000=310.000000
,87.000000=155.000000
,91.000000=310.000000
,155.000000=77.500000
,163.000000=310.000000
,227.000000=155.000000
,230.000000=77.500000
,231.250000=155.000000
,251.000000=310.000000
,411.000000=155.000000
;
#STOPS:29.000000=0.800000,
227.000000=0.200000,
228.500000=0.150000,
228.750000=0.150000,
229.000000=0.200000,
230.500000=0.150000,
230.750000=0.150000,
231.250000=0.150000,
232.750000=0.200000,
234.250000=0.150000,
235.750000=0.300000,
239.500000=0.150000,
240.500000=0.200000,
247.666672=0.450000
;
#BGCHANGES:0.500=Heads Will Roll (JVC-H Remix).avi=1.000=0=0=1=====,
99999=-nosongbg-=1.000=0=0=0 // don't automatically add -songbackground-
;
#KEYSOUNDS:;
#ATTACKS:;

//---------------dance-single - ----------------
#NOTES:
     dance-single:
     :
     Easy:
     11:
     0.448525,0.656976,0.483026,0.125587,0.082114,325.000000,275.000000,50.000000,13.000000,0.000000,0.000000,0.448525,0.656976,0.483026,0.125587,0.082114,325.000000,275.000000,50.000000,13.000000,0.000000,0.000000:
0000
0010
0010
0010
,
0010
1000
1000
0001
,
0001
0100
0100
0100
,
0100
0001
0001
1000
,
1000
0000
0000
0000
0010
0000
0000
0000
0010
0000
0000
0000
0100
0000
0000
0001
,
0000
0000
0100
0000
0000
0000
0010
0000
0000
1000
0000
0000
0010
0000
0000
1000
,
0000
0000
0010
0000
0100
0000
0000
0000
0100
0000
0000
0000
0010
0000
0000
0010
,
0000
0010
0000
0000
0000
0000
0110
0000
,
0000
0110
0000
1001
,
0000
0001
0000
0010
,
0000
0001
0000
0010
,
0000
1001
0000
1001
,
0000
0110
0000
1000
,
0000
0001
0000
0000
0010
0000
0000
0000
,
0000
0110
0000
0110
,
0000
1001
0000
0010
,
0000
0001
0000
0010
,
0000
0001
0000
1001
,
0000
1001
0000
0110
,
0000
1000
0001
0010
,
0000
0110
0000
0110
,
0000
1001
0000
0010
,
0001
0010
0001
1100
,
0000
0000
0001
0101
,
0000
0000
1000
1010
,
0000
0000
0001
0011
,
0000
0010
0000
0100
,
0000
0000
1000
0010
,
0000
0000
0001
0010
,
0000
0000
1000
0010
,
1000
0001
0010
0001
,
0000
0100
0000
1000
,
0000
0100
0000
0001
,
0000
0010
0000
1000
,
0000
0010
0000
0001
,
0000
1000
0000
0100
,
0000
0001
0000
1000
,
0000
1000
0000
1001
,
0000
1001
0000
0100
,
0100
0200
0300
0001
,
1000
0002
0003
0120
,
0000
0130
0000
2001
,
0000
0001
0000
0000
3001
0000
0000
0000
,
0010
0000
0000
0010
0000
0000
1000
0000
,
0000
0001
0000
0000
1000
0000
1001
0000
,
0000
1001
0000
0210
,
0000
0010
0000
0000
0310
0000
0000
0000
,
1000
0000
0000
0100
0000
0000
0010
0000
,
0000
0001
0000
0000
0010
0000
0100
0000
,
0000
0110
0000
2001
,
0000
3002
0000
0000
1003
0000
0000
0000
,
1002
0000
0000
2003
0000
0000
3020
0000
,
0000
0230
0000
0000
0301
0000
0100
0000
,
0000
0100
0000
0010
,
0000
1000
0000
0000
0001
0000
0020
0000
,
0000
0000
0000
0000
,
0000
0000
0000
0030
0000
0000
0010
0000
,
0000
0000
1000
1000
0010
0000
0001
0000
0001
0000
0100
0100
0000
0100
0000
0000
,
0000
0000
0000
1000
0000
0000
0000
0000
0000
0010
0000
0000
0000
0010
0000
0001
,
0000
0100
0100
0100
0100
0000
1000
0000
,
0000
0000
0000
0000
0000
0010
0000
0000
0000
0010
0000
0000
0000
0010
0000
0000
,
0000
1001
0000
0000
0000
1001
0000
0000
0000
1001
0000
0000
0000
0000
0000
0000
,
0000
0000
0000
0110
,
0000
0110
0000
1001
,
0000
0010
0000
0001
,
0000
0010
0000
0001
,
0000
1001
0000
1001
,
0000
0110
0000
1000
,
0000
0001
0000
0000
0010
0000
0000
0000
,
0000
0110
0000
0110
,
0000
1001
0000
0010
,
0000
0001
0000
0010
,
0000
0001
0000
1001
,
0000
1001
0000
0110
,
0000
1000
0001
0010
,
0000
0110
0000
0110
,
0000
1001
0000
0100
,
0000
1000
0000
0100
,
0000
1000
0100
1000
,
0000
0001
0000
0100
,
0000
0010
0000
0100
,
0000
0001
0000
1000
,
0100
0010
0001
0010
,
0000
0110
0000
1001
,
0000
1001
0000
1000
,
0000
0010
0000
0100
,
0000
0001
1000
0100
,
0000
0001
0000
0100
,
0000
1000
0000
0010
,
0000
0001
0000
0100
,
0000
1000
0000
0010
,
0100
0010
0100
0001
,
0100
0001
0100
0010
,
1000
0010
1000
0001
,
0010
0100
1000
0100
,
1000
0100
1000
0001
,
0010
0001
0010
0001
,
1000
0010
0100
0001
,
1000
0010
0100
0001
,
0010
0001
1000
0100
,
0010
0100
1000
0010
,
0100
0001
1000
0010
,
1000
0010
1000
0002
,
0000
0000
0000
0000
,
0000
0000
0003
0000
0000
0001
0000
0000
;

//---------------dance-single - ----------------
#NOTES:
     dance-single:
     :
     Medium:
     14:
     0.621034,1.264171,0.869448,0.096605,0.193211,450.000000,360.000000,90.000000,10.000000,0.000000,0.000000,0.621034,1.264171,0.869448,0.096605,0.193211,450.000000,360.000000,90.000000,10.000000,0.000000,0.000000:
// measure 0
0000
0000
0000
0000
0010
0000
0000
0000
0010
0000
0000
0000
0001
0000
0000
0001
,  // measure 1
0000
0000
0001
0000
0000
0000
0100
0000
0000
0100
0000
0000
1000
0000
0000
1000
,  // measure 2
0000
0000
1000
0000
0010
0000
0000
0000
0010
0000
0000
0000
1000
0000
0000
1000
,  // measure 3
0000
0000
1000
0000
0000
0000
0100
0000
0000
0100
0000
0000
0001
0000
0000
0001
,  // measure 4
0000
0000
0001
0000
0010
0000
0100
0000
1000
0000
0100
0000
0010
0000
0001
0100
,  // measure 5
0000
0001
0010
0000
0100
0000
1000
0000
0000
1000
0000
0000
0010
0000
1000
0001
,  // measure 6
0000
1000
0010
0000
0100
0000
0000
0000
0100
0000
0000
0000
0010
0000
0000
0100
,  // measure 7
0000
0010
0010
0000
0000
0000
1100
0000
,  // measure 8
0000
0110
0000
0011
,  // measure 9
0000
1001
0000
0000
1010
0000
0100
0000
,  // measure 10
0000
0011
0000
1000
,  // measure 11
0000
0100
0000
0000
1000
0010
0101
0000
,  // measure 12
0000
1000
0000
1010
,  // measure 13
0000
0001
0000
0000
1000
0000
1001
0000
,  // measure 14
0000
0110
0000
0100
,  // measure 15
0000
0001
0000
1000
0100
0010
0011
0000
,  // measure 16
0000
1100
0000
0001
,  // measure 17
0000
0100
0000
0000
1000
0000
0001
0000
,  // measure 18
0000
1000
0000
0100
,  // measure 19
0000
0001
0000
0000
1000
0000
1001
0000
,  // measure 20
0000
0110
0000
1010
,  // measure 21
0000
0110
0000
0000
0101
0000
0000
0000
,  // measure 22
0000
0000
0000
0000
0001
0010
0100
1000
0100
0010
0001
0100
0010
0000
0000
0000
,  // measure 23
0000
0011
0000
1010
,  // measure 24
0000
0010
0000
0000
0011
0000
1100
0000
,  // measure 25
0000
0101
0000
1100
,  // measure 26
0000
0100
0000
0000
0101
0000
1100
0000
,  // measure 27
0000
1010
0000
0100
,  // measure 28
0000
0001
0000
0000
0010
0000
0011
0000
,  // measure 29
0000
0101
0000
0010
,  // measure 30
0000
1000
0000
0000
0100
1000
0100
0000
,  // measure 31
0000
0101
0000
0100
,  // measure 32
0000
1100
0000
0000
0100
0000
0101
0000
,  // measure 33
0000
1010
0000
0010
,  // measure 34
0000
0011
0000
0000
1000
0010
1000
0000
,  // measure 35
0000
0101
0000
1100
,  // measure 36
0000
0100
0000
0000
0101
0000
0001
0000
,  // measure 37
0000
1000
0000
0100
,  // measure 38
0000
1000
0000
0000
0002
0000
1000
0000
,  // measure 39
0100
0023
0030
0200
,  // measure 40
1000
0000
0000
0000
0000
0000
0000
0000
0320
0000
0000
0000
0000
0000
0000
0000
0030
0000
0000
0000
0010
0001
1000
0001
0100
0000
0000
0000
0000
0000
0000
0000
,  // measure 41
0000
0110
0000
0101
,  // measure 42
0000
1001
0000
0000
1010
0000
0100
0000
,  // measure 43
0000
0001
0000
1100
,  // measure 44
0000
0001
0000
0000
0001
0000
0101
0000
,  // measure 45
0000
0010
0000
1100
,  // measure 46
0000
0010
0000
0000
0101
0000
0100
0000
,  // measure 47
0000
1010
0000
0001
,  // measure 48
0000
0010
0000
0000
0001
0000
0101
0000
,  // measure 49
0000
1010
0000
0101
,  // measure 50
0000
0100
0000
0000
1100
0000
1000
0000
,  // measure 51
0000
0001
0000
0110
,  // measure 52
0000
0100
0000
0000
1000
0100
0010
0000
,  // measure 53
0000
1000
0000
0100
,  // measure 54
0000
0010
0000
0000
1000
0000
0002
0000
,  // measure 55
0000
0000
0000
0000
,  // measure 56
0000
0000
0000
0000
0003
0000
0000
0000
0000
0000
0000
0000
0001
0000
1000
0100
,  // measure 57
0010
0000
0001
0000
1000
0000
0010
0000
1000
0000
0000
0000
0110
0000
0000
0000
0110
0000
0000
0100
0001
0000
1000
0000
0010
0000
1000
0000
0000
0000
0100
0000
,  // measure 58
0000
0110
0000
0010
0000
0000
0000
0000
0000
1001
0000
0110
0000
1000
0000
0001
,  // measure 59
0000
1000
0001
0101
0101
1000
0010
0000
,  // measure 60
0010
0000
0010
0000
1000
0000
0001
0000
1000
0000
0100
0000
0100
0000
1000
0001
,  // measure 61
0100
1000
0100
0001
1000
0100
0010
0001
,  // measure 62
0000
0000
0000
0000
1000
0100
0010
0001
0100
0010
1000
0100
0010
0000
0000
0000
,  // measure 63
0000
1100
0000
0101
,  // measure 64
0000
0001
0000
0000
0011
0000
0010
0000
,  // measure 65
0000
0101
0000
1100
,  // measure 66
0000
1000
0000
0000
0010
1000
0010
0000
,  // measure 67
0000
0110
0000
0110
,  // measure 68
0000
0100
0000
0000
0001
0000
0001
0000
,  // measure 69
0000
1100
0000
0001
,  // measure 70
0000
1000
0000
1000
0100
0000
0010
0000
,  // measure 71
0000
0010
0000
0010
,  // measure 72
0000
0001
0000
0000
1000
0000
0010
0000
,  // measure 73
0000
1010
0000
0011
,  // measure 74
0000
0010
0000
0000
0010
0100
0101
0000
,  // measure 75
0000
1100
0000
0101
,  // measure 76
0000
0100
0000
0000
1100
0000
0100
0000
,  // measure 77
0000
0100
0000
0010
,  // measure 78
0100
0010
0000
0100
0010
0100
1000
0000
,  // measure 79
0000
0101
0000
0001
,  // measure 80
0000
0010
0000
0000
1100
0000
0100
0000
,  // measure 81
0000
1010
0000
0100
,  // measure 82
0000
0001
0000
0010
0001
1000
0010
0000
,  // measure 83
0100
0010
0100
0110
,  // measure 84
0000
0110
0000
0000
0110
0000
1000
0000
,  // measure 85
0001
0100
0001
1000
,  // measure 86
1000
0010
0000
0010
1000
0010
1000
0000
,  // measure 87
0000
0101
0000
1000
,  // measure 88
0000
0001
0000
0000
1010
0000
0020
0000
,  // measure 89
0030
2000
3000
0002
,  // measure 90
0003
0200
0300
1010
,  // measure 91
0000
1010
0000
0100
,  // measure 92
0000
0001
0000
0000
1000
0000
1010
0000
,  // measure 93
0000
1010
0000
0100
,  // measure 94
0000
0001
0000
0010
0001
1000
0010
0000
,  // measure 95
0000
0011
0000
0100
,  // measure 96
0000
1000
0000
0000
0010
0000
0011
0000
,  // measure 97
0000
0011
0000
0100
,  // measure 98
0000
1000
0000
0010
1000
0100
0010
0000
,  // measure 99
0000
0010
0000
1100
,  // measure 100
0000
0101
0000
0000
1100
0000
0100
0000
,  // measure 101
0000
0100
0000
0011
,  // measure 102
0000
0010
0000
0100
1000
0010
0200
0000
,  // measure 103
0000
0000
0000
0300
,  // measure 104
0100
0000
0000
0000
0001
0000
1000
0100
0010
0001
0010
0100
0000
0000
0000
0000
;

//---------------dance-single - ----------------
#NOTES:
     dance-single:
     :
     Beginner:
     6:
     0.260834,0.454830,0.115926,0.067624,0.024151,189.000000,177.000000,12.000000,7.000000,0.000000,0.000000,0.260834,0.454830,0.115926,0.067624,0.024151,189.000000,177.000000,12.000000,7.000000,0.000000,0.000000:
0000
0000
0000
0000
,
0000
0000
0000
0000
,
0000
0000
0000
0000
,
0000
0000
0000
0000
,
0000
0010
0000
0010
,
0000
0001
0001
0001
,
0000
1000
0000
0010
,
0000
1000
0000
0100
,
0000
0100
0000
0100
,
0000
0100
0000
0001
,
0000
0001
0000
0001
,
0000
0000
0000
1000
,
0000
1000
0000
1000
,
0000
1000
0000
0010
,
0000
1000
0000
0010
,
0000
0000
0000
1000
,
0000
1000
0000
0100
,
0000
0100
0000
0010
,
0000
0010
0000
0001
,
0000
0000
0000
0001
,
0000
0001
0000
0010
,
0000
0010
0000
0200
,
0000
0000
0300
0110
,
0000
0000
0000
1001
,
0000
0000
0000
1001
,
0000
0000
0000
1001
,
0000
0110
0000
1001
,
0000
0000
1000
1000
,
0000
0000
0001
0001
,
0000
0000
0010
0010
,
0000
0100
0000
0010
,
0000
0010
0000
1000
,
0000
1000
0000
0001
,
0000
0001
0000
0100
,
0000
0100
0000
0001
,
0000
0001
0000
1000
,
0000
1000
0000
0010
,
0000
0010
0000
0010
,
0100
0010
0000
0220
,
0000
0330
0000
2000
,
0000
0000
3000
1000
,
0000
1000
0000
1000
,
0000
0100
0000
0010
,
0000
0010
0000
0010
,
0000
0100
0000
0001
,
0000
0001
0000
0001
,
0000
0100
0000
0010
,
0000
0010
0000
0010
,
0000
0100
0000
1000
,
0000
1000
0000
1000
,
0000
0100
0000
0001
,
0000
0001
0000
0001
,
0000
0100
0000
0010
,
0000
0010
0000
0010
,
0000
0100
0000
2000
,
0000
0000
0000
0000
,
0000
0000
3000
1001
,
0000
0000
0010
0000
0010
0000
0000
0000
0100
0000
0000
0000
0000
0010
0000
0000
,
0000
0000
0000
0010
0000
0000
0000
0000
0000
1001
0000
0000
0000
0000
0000
0010
,
0000
0100
0100
0100
,
0000
0100
0000
0000
0000
0000
0000
0000
,
0000
0002
0000
0000
0000
0000
0000
0000
0000
0000
0000
0000
0000
0000
0003
0000
,
0000
0000
0000
0001
,
0000
0000
0000
0100
,
0000
0000
0000
1000
,
0000
0000
0000
1000
,
0000
0100
0000
0001
,
0000
0000
0000
0100
,
0000
0000
0000
0010
,
0000
0000
0000
1000
,
0000
0010
0000
0100
,
0000
0000
0000
0001
,
0000
0000
0000
0010
,
0000
0000
0000
1000
,
0000
0010
0000
0001
,
0000
0000
0000
1000
,
0000
0000
0000
0100
,
0000
0000
0000
0001
,
0000
0100
0000
0010
,
0000
0010
0000
1000
,
0000
0001
0000
1000
,
0000
1000
0000
0100
,
0000
0010
0000
0001
,
0000
0001
0000
1000
,
0000
0010
0000
0100
,
0000
0100
0000
0100
,
0000
0100
0000
0110
,
0000
0010
0000
0010
,
0000
0010
0000
1000
,
0000
1000
0000
0001
,
0000
0001
0000
1001
,
0000
1001
0000
1000
,
0000
1000
0000
0010
,
0000
0010
0000
0100
,
0000
0001
0000
0010
,
0000
0001
0000
0010
,
0000
0100
0000
1000
,
0000
0100
0000
1000
,
0000
0001
0000
0001
,
0000
0100
0000
0100
,
0000
0001
0000
0001
,
0000
0010
0000
0010
,
0000
0100
0000
0200
,
0000
0000
0000
0000
,
0000
0000
0000
0000
0000
0300
0000
0000
;

//---------------dance-single - ----------------
#NOTES:
     dance-single:
     DANCE TILL YOU'RE DEAD:
     Hard:
     18:
     0.912230,1.415871,0.859787,0.154568,0.246343,661.000000,572.000000,89.000000,16.000000,0.000000,0.000000,0.912230,1.415871,0.859787,0.154568,0.246343,661.000000,572.000000,89.000000,16.000000,0.000000,0.000000:
// measure 0
0000
0000
0000
0000
0010
0000
0000
0000
0010
0000
0000
0000
1000
0000
0000
0001
,  // measure 1
0000
0000
0100
0000
0000
0000
1010
0000
0000
0100
0000
0000
0001
0000
0000
1000
,  // measure 2
0000
0000
0100
0000
0110
0000
0000
0000
0010
0000
0000
0000
0001
0000
0000
1000
,  // measure 3
0000
0000
0100
0000
0000
0000
0011
0000
0000
0100
0000
0000
1000
0000
0000
0001
,  // measure 4
0000
0000
0100
0000
0010
0000
0100
0000
0010
0000
0100
0000
0001
0000
1000
0001
,  // measure 5
0000
1000
0001
0000
1000
0000
0010
0000
1000
0000
0010
0000
0100
0000
0001
0100
,  // measure 6
0000
0001
0100
0000
0010
0000
1000
0000
0010
0000
1000
0000
0001
0000
0010
0000
,  // measure 7
0001
0010
0200
0000
0300
0000
0011
0000
,  // measure 8
0000
1010
0000
1100
,  // measure 9
0000
0110
0000
0011
,  // measure 10
0000
1010
0000
1100
,  // measure 11
0000
0000
1000
0100
0010
0001
0011
0000
,  // measure 12
0000
0101
0000
1010
,  // measure 13
1000
0001
0000
0010
0001
0000
1001
0000
,  // measure 14
1000
1010
0000
0101
,  // measure 15
0001
1000
0000
0100
1000
0100
1100
0000
,  // measure 16
0000
1100
0000
0011
,  // measure 17
0000
1001
0000
1010
,  // measure 18
0000
0101
0000
2010
,  // measure 19
0000
3100
0000
0001
0100
1000
0010
0000
,  // measure 20
0100
1000
0100
0001
,  // measure 21
0100
0010
1000
0001
,  // measure 22
0001
0000
0000
0000
0001
0100
1000
0001
0010
1000
0001
0100
0001
0000
0000
0000
,  // measure 23
0000
0000
0001
0000
1000
0100
1100
0000
,  // measure 24
0000
0000
0010
0000
0001
0100
0110
0000
,  // measure 25
0000
0000
1000
0000
0001
0100
0110
0000
,  // measure 26
0010
1010
1000
1001
,  // measure 27
0000
0000
0100
0000
0001
1000
1001
0000
,  // measure 28
0000
0000
0010
0000
1000
0001
0101
0000
,  // measure 29
0000
0000
0010
0000
1000
0100
1100
0000
,  // measure 30
0010
0000
0011
0000
0100
1000
1100
0000
,  // measure 31
0010
0100
0001
0010
,  // measure 32
0100
1000
0010
0100
,  // measure 33
0001
1000
0100
1000
,  // measure 34
0010
0001
0010
1000
,  // measure 35
0100
0001
0100
1000
,  // measure 36
0001
0010
0100
0010
,  // measure 37
1000
0001
0100
1000
,  // measure 38
0001
0100
1000
0200
,  // measure 39
0302
0000
2003
0000
3020
2030
3002
0000
,  // measure 40
0023
0000
0000
0000
0000
0000
0000
0000
0230
0000
0000
0000
0000
0000
0000
0000
0300
0000
0000
0000
0100
0010
0001
1000
1001
0000
0000
0000
0000
0000
0000
0000
,  // measure 41
0100
1001
0010
1001
,  // measure 42
1000
0010
0000
1000
0001
0000
0011
0000
,  // measure 43
0100
1100
0010
0011
,  // measure 44
0001
1000
0000
0010
1000
0100
0110
0000
,  // measure 45
0001
1001
0010
0110
,  // measure 46
1000
0100
1000
1100
,  // measure 47
0001
0101
1000
1010
,  // measure 48
0001
0000
0011
0010
0001
0100
0010
0000
,  // measure 49
0110
0110
1000
0001
,  // measure 50
0010
0100
0010
0001
,  // measure 51
1000
0010
0100
0010
,  // measure 52
1000
0001
1000
0010
,  // measure 53
0010
0101
0010
1100
,  // measure 54
0010
0101
0010
0100
,  // measure 55
0100
0100
0100
0100
,  // measure 56
0100
0000
0000
0000
0100
0000
0000
0000
0100
0000
0000
0000
1100
0000
0001
0010
,  // measure 57
0100
0000
1000
0000
1010
0000
0101
0000
0011
0000
0000
0000
1000
0000
0000
0000
1000
0000
0000
0010
1000
0000
0001
0000
0011
0000
0110
0000
0000
0000
0000
0000
,  // measure 58
0000
0110
0000
1100
0000
0000
0000
0000
0000
0101
0000
2000
0000
0010
0000
3100
,  // measure 59
0000
0000
0100
0000
0100
0000
0011
0000
1010
0000
0100
0001
0100
0000
0000
0000
,  // measure 60
0000
0000
0000
0020
0000
0000
0030
0000
0000
0000
0000
0000
0000
0000
0100
0000
0000
0000
0000
0000
0000
0000
0000
0000
0000
0000
1000
0000
0000
0000
0000
0000
0000
0000
0000
0000
0000
0000
0100
0000
0000
0000
0000
0000
0001
0000
0000
0010
,  // measure 61
0000
0110
0000
0000
1100
0000
0000
1001
0000
0000
1010
0000
0000
0110
0000
0000
0101
0000
0000
1001
0000
0000
0011
0000
,  // measure 62
0000
0000
0000
0000
0100
1000
0010
0100
0001
0010
0100
0010
0001
0000
0000
0000
,  // measure 63
1000
1010
0100
0101
,  // measure 64
0010
1000
0000
0100
0001
0000
0011
0000
,  // measure 65
0100
1100
0010
0011
,  // measure 66
0100
1000
0000
0010
0001
1000
0010
0000
,  // measure 67
0100
0000
0001
0000
1000
0000
0100
0010
,  // measure 68
0001
0010
0100
1000
0100
0010
0001
0000
,  // measure 69
1000
0000
0010
0000
1000
0000
0001
0100
,  // measure 70
0010
1000
0100
1000
0010
0100
0001
0000
,  // measure 71
1000
1100
0001
0101
,  // measure 72
1000
1010
0000
0001
0011
0000
0100
0000
,  // measure 73
1000
0000
0100
0000
1000
0000
0001
0010
,  // measure 74
0100
1000
0010
1000
0001
0010
0100
0001
,  // measure 75
0100
1000
0001
0100
1000
0100
0001
1000
,  // measure 76
0010
0001
0010
1000
0001
0010
0100
1000
,  // measure 77
0100
0010
0001
0100
0010
0100
0010
1000
,  // measure 78
0100
0010
0100
1000
0001
1000
0100
1000
,  // measure 79
0001
0010
0001
1000
0010
1000
0001
0100
,  // measure 80
0001
1000
0100
0010
0001
0100
0010
1000
,  // measure 81
0100
0010
1000
0010
0001
1000
0010
1000
,  // measure 82
0010
0100
0001
0010
0001
0100
1000
0100
,  // measure 83
0010
1000
0100
0010
0001
0010
0100
1000
,  // measure 84
0001
0010
0001
1000
0100
1000
0010
0100
,  // measure 85
0001
1000
0010
0100
0001
1000
0100
0010
,  // measure 86
0001
0100
0001
0010
0100
0001
0100
1000
,  // measure 87
0001
0010
0001
0100
1000
0100
0001
1000
,  // measure 88
0001
1000
0010
1000
0010
0100
0002
0000
,  // measure 89
0003
0002
0003
0002
,  // measure 90
0003
0000
0001
2000
0001
3100
0010
0100
,  // measure 91
0010
0100
1000
0001
0010
0100
1000
0100
,  // measure 92
1000
0100
1000
0100
1000
0100
0010
0001
,  // measure 93
1000
0100
0010
0001
1000
0100
0010
0001
,  // measure 94
0010
0001
0010
0001
0010
0001
1000
0010
,  // measure 95
1000
0001
0100
0001
1000
0100
1000
0001
,  // measure 96
0010
0001
0100
0001
0010
0001
0100
0010
,  // measure 97
1000
0100
1000
0010
1000
0100
1000
0010
,  // measure 98
0100
0001
0100
0010
1000
0000
1010
0000
,  // measure 99
0000
0101
0000
1010
,  // measure 100
0000
0101
0000
0000
1010
0000
0011
0000
,  // measure 101
0000
1100
0000
0011
,  // measure 102
0000
0110
0000
0000
1100
0000
0100
0100
,  // measure 103
0100
0100
0100
0100
0100
0100
0100
0000
,  // measure 104
0100
0000
0000
0000
0001
0000
0100
1000
0100
0001
0010
0001
0000
0000
0000
0000
;
