#TITLE:Gas Gas Gas;
#SUBTITLE:Initial D;
#ARTIST:Manuel;
#TITLETRANSLIT:;
#SUBTITLETRANSLIT:;
#ARTISTTRANSLIT:;
#GENRE:;
#CREDIT:;
#BANNER:some banner.png;
#BACKGROUND:a better background.png;
#LYRICSPATH:;
#CDTITLE:;
#MUSIC:gas gas gas.mp3;
#OFFSET:1.150000;
#SAMPLESTART:59.669224;
#SAMPLELENGTH:17.142864;
#LASTBEATHINT:0.385000;
#SELECTABLE:YES;
#BPMS:0.000000=154.000000
;
#STOPS:
;
#BGCHANGES:;
#KEYSOUNDS:;
#ATTACKS:;

//---------------dance-single - ----------------
#NOTES:
     dance-single:
     :
     Hard:
     11:
     0.448123,0.543141,0.242042,0.609945,0.000000,324.000000,299.000000,25.000000,63.000000,0.000000,0.000000,0.448123,0.543141,0.242042,0.609945,0.000000,324.000000,299.000000,25.000000,63.000000,0.000000,0.000000:
0000
0000
0000
0000
,
0000
0000
0000
0000
,
0000
0000
0000
0000
,
0000
0000
0000
0000
,
0000
0000
0000
0000
,
1000
0001
0100
0001
,
1000
0100
0010
0100
,
1000
0010
0100
0001
,
2200
3300
0000
0000
0202
0303
0000
0000
,
1000
0010
0100
0000
0001
0000
0010
0000
,
0100
1000
0100
0010
,
0001
0100
0010
0000
0100
0000
1000
0000
,
0100
0010
0100
0000
1000
0000
0001
0000
,
0100
1000
0001
0010
0100
1000
0100
1000
,
0000
0010
0002
0000
0003
0000
0200
0300
,
1000
0010
0100
0002
0000
0023
0000
0230
,
0000
0000
0000
0300
,
2000
0100
3001
0000
0100
0000
0001
0000
,
1000
0100
0010
0001
0100
0000
0100
0000
,
0020
0100
1030
0000
0100
0000
1000
0000
,
0001
0010
0100
1000
0100
0000
0100
0000
,
0020
0001
0130
0000
1000
0000
0001
0000
,
1000
0010
0100
0001
0010
0000
0010
0000
,
0100
1000
0001
0100
0010
0100
0001
0010
,
0022
0033
0000
0000
2020
3030
0000
0000
,
0101
1010
0100
1000
,
0100
0000
0010
0000
0001
0000
1000
0100
,
0010
0001
0100
0010
,
1100
0000
0100
0000
0101
0000
1000
0010
,
0100
0000
1000
0000
0100
0010
1000
0000
,
0100
0010
1000
0001
0000
0100
0010
0000
,
0100
0000
0001
0000
1000
0000
0010
0100
,
2000
0000
0000
3002
0000
0000
0203
0000
0000
0300
0000
0000
0002
0000
0000
2003
0000
0000
3200
0000
0300
0000
0000
0000
,
0011
1000
0100
0010
,
0100
0000
1000
0000
0010
0000
0001
0100
,
0010
1000
0100
0010
,
0001
0100
0010
0000
1000
0000
0010
0000
,
0100
1000
0100
1000
0100
0010
0100
0010
,
0100
1000
0001
0020
0030
0200
0300
0000
,
1000
0001
0100
0020
0000
0230
0000
0320
,
0030
2000
0000
3200
0000
0320
0030
0000
,
2100
3100
0102
0103
,
1020
1030
0021
0031
,
0110
0000
1000
0200
0300
0000
0001
0200
,
0300
1000
0100
0010
0001
0200
0300
0000
,
1002
1003
0210
0310
,
1020
1030
0201
0301
,
0010
1000
0100
0020
0000
0032
0000
2000
,
0000
0003
0000
0200
0000
3000
0300
0000
,
2001
3100
1002
0103
,
0010
1000
0100
0001
0100
1000
0001
0100
,
0010
0000
1000
0200
0000
0300
0001
0200
,
0300
1000
0001
0100
0010
2000
3000
0000
,
1200
0310
0201
0310
,
2010
3000
0100
0010
0100
1000
0100
0020
,
0000
0230
0000
2300
0000
3002
0000
0203
,
0000
0000
0000
0320
0000
0000
0000
0030
,
1000
0001
0100
0010
0100
0001
1000
0100
,
0010
0100
1000
0010
0100
0001
0010
0100
,
0010
0001
0100
0010
1000
0100
0010
0001
,
0010
0100
1000
0010
0100
0000
1000
0000
,
0001
0100
0010
1000
0100
0010
0100
1000
,
0001
0100
0010
1000
0100
0010
0001
1000
,
0100
0010
0100
1000
0010
0100
0001
0000
,
2200
3300
0202
0000
,
0000
0000
0000
0000
,
0303
0000
0000
0000
;

//---------------dance-single - ----------------
#NOTES:
     dance-single:
     :
     Medium:
     7:
     0.336092,0.446446,0.116180,0.522810,0.000000,243.000000,231.000000,12.000000,54.000000,0.000000,0.000000,0.336092,0.446446,0.116180,0.522810,0.000000,243.000000,231.000000,12.000000,54.000000,0.000000,0.000000:
0000
0000
0000
0000
,
0000
0000
0000
0000
,
0000
0000
0000
0000
,
0000
0000
0000
0000
,
0000
0000
0000
0000
,
1000
0100
0010
0001
,
0010
0100
1000
0010
,
0100
0001
0010
0100
,
0020
0030
0020
0030
,
1000
0010
0100
0010
,
1000
0001
0010
0001
,
1000
0100
0010
0100
,
1000
0001
0100
0010
,
2000
0000
3000
0000
0002
0000
0003
0200
,
0000
0310
0020
0000
0000
0000
0030
0000
,
2000
0000
0000
3002
0000
0103
0000
0200
,
0000
0000
0000
0000
0000
0300
0000
0000
,
0110
0100
0010
1000
,
0100
1000
0010
0100
,
0110
0010
0100
0001
,
0010
0001
0100
0010
,
1001
1000
0001
0001
,
0100
0100
0010
0010
,
1001
1000
0001
1000
,
2002
3003
2002
3003
,
0010
0100
1000
0100
,
0010
0001
0020
0130
,
0001
1000
0100
0010
,
0002
0103
2000
3100
,
0010
1000
0100
0010
,
0100
1000
0010
0200
,
0301
0010
0100
1000
,
0100
0100
0010
0010
,
0001
1000
0100
0010
,
0100
1000
0100
0001
,
0100
1000
0001
0100
,
0010
1000
0010
0100
,
0001
0100
1000
0100
,
0001
0010
0100
1000
,
0100
0000
0100
0000
0010
0000
0010
0001
,
0000
0200
0000
0320
0000
2030
0000
3000
,
0020
1030
0002
0103
,
2000
3100
0020
0031
,
0010
0000
0100
2000
3000
0000
0001
0200
,
0300
0000
0010
0000
0100
0002
0003
0000
,
0200
0300
0001
2000
3010
0000
0010
0200
,
0301
0100
0020
1030
,
0100
0000
1000
0200
0300
2000
0000
0020
,
0030
0000
3000
0200
0000
0000
0300
0000
,
2200
0300
3000
0022
0030
0003
0000
2000
,
3000
0100
0010
0000
0010
0100
0001
0020
,
0030
0000
2000
0001
3000
0000
0002
1000
,
0003
0100
1000
0100
1000
0200
0000
0300
,
2000
0000
3000
0002
0000
0003
0000
0200
,
0300
0010
0100
0010
1000
0010
0100
0010
,
0000
1100
0000
1100
0000
0200
0000
0320
,
0000
0000
0030
0200
0000
0000
0300
0000
,
0010
0100
0010
1000
,
0001
0000
0100
0000
0010
0000
0100
0001
,
1000
0100
0010
0100
,
1000
0000
0001
0000
0100
0000
0010
1000
,
0100
0010
0100
1000
,
0001
0000
0100
0000
0010
0000
1000
0100
,
0010
0100
1000
0010
,
2200
3300
0202
0000
,
0000
0000
0000
0000
0000
0000
0000
0303
;

//---------------dance-single - ----------------
#NOTES:
     dance-single:
     :
     Easy:
     5:
     0.269704,0.287546,0.000000,0.348540,0.000000,195.000000,195.000000,0.000000,36.000000,0.000000,0.000000,0.269704,0.287546,0.000000,0.348540,0.000000,195.000000,195.000000,0.000000,36.000000,0.000000,0.000000:
// measure 0
0000
0000
0000
0000
,  // measure 1
0000
0000
0000
0000
,  // measure 2
0000
0000
0000
0000
,  // measure 3
0000
0000
0000
0000
,  // measure 4
0000
0000
0000
0000
,  // measure 5
0100
0100
1000
0000
,  // measure 6
0100
0100
0001
0000
,  // measure 7
0010
0010
1000
0000
,  // measure 8
0020
0030
0200
0300
,  // measure 9
0010
0100
0010
0100
,  // measure 10
0010
0100
0010
0100
,  // measure 11
0001
1000
0001
1000
,  // measure 12
0001
1000
0001
1000
,  // measure 13
0002
0000
0003
0000
2000
0000
3000
0020
,  // measure 14
0000
0000
0000
0000
0000
0030
0000
0000
,  // measure 15
1000
0000
0100
0000
0010
0000
0000
0020
,  // measure 16
0000
0000
0000
0000
0000
0030
0000
0000
,  // measure 17
0100
1000
0100
0000
,  // measure 18
0100
1000
0100
0010
,  // measure 19
0001
0100
0001
0000
,  // measure 20
0001
0100
0001
0010
,  // measure 21
0100
1000
0100
0000
,  // measure 22
0001
0010
0100
0010
,  // measure 23
0001
0100
0010
0000
,  // measure 24
0002
0003
2000
3000
,  // measure 25
0001
0001
1000
1000
,  // measure 26
0100
0100
0010
0010
,  // measure 27
0001
1000
0100
0100
,  // measure 28
0020
0030
2000
3000
,  // measure 29
0001
0001
1000
1000
,  // measure 30
0010
0010
0100
0100
,  // measure 31
0001
0100
0010
1000
,  // measure 32
0002
0003
2000
3000
,  // measure 33
0001
0010
0100
2000
,  // measure 34
3000
0100
0010
0001
,  // measure 35
0010
0100
1000
0200
,  // measure 36
0300
0010
0001
0100
,  // measure 37
0010
0100
0001
1000
,  // measure 38
0100
0010
0001
0000
,  // measure 39
0200
0300
2000
3000
,  // measure 40
0000
0200
0000
0300
0000
0020
0000
0030
,  // measure 41
0200
1000
1300
0000
,  // measure 42
0200
0001
0301
0000
,  // measure 43
0020
1000
1030
0000
,  // measure 44
0020
0001
0031
0100
,  // measure 45
2000
0100
3001
0000
,  // measure 46
0002
0100
1003
0100
,  // measure 47
0010
1000
0100
0010
,  // measure 48
0002
0000
0003
0200
0000
0000
0300
0000
,  // measure 49
0020
0130
1000
0000
,  // measure 50
0200
0310
0001
0000
,  // measure 51
0002
0103
1000
2000
,  // measure 52
3100
0001
0010
0100
,  // measure 53
2000
0100
3001
0000
,  // measure 54
0200
0010
0301
0100
,  // measure 55
0000
1000
0000
1000
0000
0001
0000
0200
,  // measure 56
0000
0300
0000
0020
0000
0000
0030
0000
,  // measure 57
1000
0100
0010
0001
,  // measure 58
0010
0100
1000
1000
,  // measure 59
0001
0010
0100
1000
,  // measure 60
0100
0010
0001
0001
,  // measure 61
1000
0010
0100
0001
,  // measure 62
1000
0010
0100
0001
,  // measure 63
0010
0100
0010
0001
,  // measure 64
2000
0000
0020
0000
,  // measure 65
0000
0000
0000
0000
,  // measure 66
3030
0000
0000
0000
;

//---------------dance-single - ----------------
#NOTES:
     dance-single:
     :
     Beginner:
     3:
     0.212997,0.255596,0.009682,0.135543,0.000000,154.000000,153.000000,1.000000,14.000000,0.000000,0.000000,0.212997,0.255596,0.009682,0.135543,0.000000,154.000000,153.000000,1.000000,14.000000,0.000000,0.000000:
// measure 0
0000
0000
0000
0000
,  // measure 1
0000
0000
0000
0000
,  // measure 2
0000
0000
0000
0000
,  // measure 3
0000
0000
0000
0000
,  // measure 4
0000
0000
0000
0000
,  // measure 5
1000
0000
1000
0000
,  // measure 6
0001
0000
0001
0000
,  // measure 7
0010
0000
0010
0000
,  // measure 8
0200
0300
0200
0300
,  // measure 9
0010
0100
0010
0000
,  // measure 10
0100
0010
0100
0000
,  // measure 11
0001
1000
0001
0000
,  // measure 12
1000
0001
1000
0000
,  // measure 13
0010
0100
0000
0100
,  // measure 14
0000
2000
0000
3000
,  // measure 15
0010
0100
0002
0003
,  // measure 16
0020
0000
0000
0030
,  // measure 17
0100
0100
0100
0000
,  // measure 18
1000
1000
1000
0000
,  // measure 19
0001
0001
0001
0000
,  // measure 20
0010
0010
0100
0100
,  // measure 21
0010
0010
0010
0000
,  // measure 22
0001
0001
0001
0000
,  // measure 23
1000
1000
1000
0000
,  // measure 24
0020
0030
0200
0300
,  // measure 25
0010
0000
0100
0000
,  // measure 26
0010
0000
1000
0000
,  // measure 27
0001
0000
0100
0000
,  // measure 28
0010
0000
1000
0000
,  // measure 29
0001
0000
0010
0000
,  // measure 30
0100
0000
1000
0000
,  // measure 31
0100
0000
0010
0000
,  // measure 32
0001
0001
1000
1000
,  // measure 33
0010
0000
0100
0000
,  // measure 34
0010
0000
1000
0000
,  // measure 35
0001
0000
0010
0000
,  // measure 36
0100
0000
1000
0000
,  // measure 37
0100
0000
0010
0000
,  // measure 38
0001
0000
0010
0000
,  // measure 39
0100
0000
1000
0100
,  // measure 40
0020
0000
0000
0030
,  // measure 41
0001
1000
0001
0000
,  // measure 42
1000
0001
1000
0000
,  // measure 43
0010
0100
0010
0000
,  // measure 44
0100
0010
0100
0010
,  // measure 45
0100
0010
0100
0000
,  // measure 46
0001
1000
0001
0000
,  // measure 47
0002
0000
1003
0000
,  // measure 48
2000
0000
3001
0000
,  // measure 49
0110
0000
0010
0000
,  // measure 50
0100
0000
0010
0100
,  // measure 51
0010
0000
1000
0000
,  // measure 52
0100
0000
0010
0001
,  // measure 53
0010
0000
0100
0000
,  // measure 54
1000
0000
0100
1000
,  // measure 55
0200
0000
0000
0300
,  // measure 56
0020
0000
0000
0030
,  // measure 57
0001
0010
0001
0010
,  // measure 58
0001
0010
0001
0000
,  // measure 59
1000
0100
1000
0100
,  // measure 60
1000
0100
1000
0000
,  // measure 61
0010
0100
0010
0100
,  // measure 62
0010
0100
0010
0000
,  // measure 63
0001
0100
0001
0100
,  // measure 64
0020
0030
0200
0000
,  // measure 65
0000
0000
0000
0000
,  // measure 66
0300
0000
0000
0000
;
